Уж кто бы говорил / Look Who\'s Talking (Эми Хекерлинг / Amy Heckerling) [1989, США, комедия, DVD5] AVO + Original Eng 

Цитировать
Уж кто бы говорил / Look Who's Talking
Страна: США
Жанр: комедия
Год выпуска: 1989
Продолжительность: 01:35:45
Перевод: Авторский (одноголосый, закадровый)
Субтитры: английские, испанские, французские
Оригинальная аудиодорожка: английская
Режиссер: Эми Хекерлинг / Amy Heckerling
В ролях: Джон Траволта, Кёрсти Элли, Олимпия Дукакис, Джордж Сигал, Эйб Вигода, Брюс Уиллис, Твинк Каплан, Джейсон Шаллер, Джаред Уотерхаус, Джейкоб Хайнс
Описание: Молодая, но уже не юная Молли — будущая мать-одиночка. По дороге в роддом она знакомится с сердобольным таксистом Джеймсом. И с этого момента Джеймс становится другом молодой мамы и сиделкой для малыша Мики.
Казалось бы, все просто. Но дело в том, что у Мики еще до рождения прорезался внутренний голос. То есть малыш все видит, все понимает, просто еще не умеет говорить вслух. Но сам с собой он разговаривает голосом Брюса Уиллиса.
Дополнительные материалы: Трейлер фильма
Меню: есть, английское, статичное
Тип релиза: DVD5
Контейнер: DVD-Video
Видео: NTSC 16:9 (720x480(0.505)) MPEG Video, 29,970 кадр/сек, 5228 Кбит/сек
Аудио: Russian (Dolby AC-3, 2ch) 192 Кбит/сек, 48.0 КГц, А. Гаврилов
Аудио 2: English (Dolby AC-3, 2ch) 192 Кбит/сек, 48.0 КГц
Аудио 3: French (Dolby AC-3, 2ch) 192 Кбит/сек, 48.0 КГц

MediaInfo

Общее
Полное имя : Look Who's Talking\VIDEO_TS\VTS_01_1.VOB
Формат : MPEG-PS
Размер файла : 1024 Мбайт
Продолжительность : 24 м. 10 с.
Режим общего битрейта : Переменный
Общий поток : 5922 Кбит/сек
Видео
Идентификатор : 224 (0xE0)
Формат : MPEG Video
Версия формата : Version 2
Профиль формата : Main@Main
Параметр BVOP формата : Да
Параметр матрицы формата : Выборочная
Параметр GOP формата : M=3, N=12
Продолжительность : 24 м. 10 с.
Вид битрейта : Переменный
Битрейт : 5228 Кбит/сек
Максимальный битрейт : 9800 Кбит/сек
Ширина : 720 пикселей
Высота : 480 пикселей
Соотношение сторон : 16:9
Частота кадров : 29,970 (30000/1001) кадров/сек
Стандарт вещания : NTSC
Цветовое пространство : YUV
Субдискретизация насыщенности : 4:2:0
Битовая глубина : 8 бит
Метод сжатия : С потерями
Бит/(Пиксели*Кадры) : 0.505
Временной код первого кадра : 00:00:00:00
Оригинал временного кода : Group of pictures header
GOP, открыто/закрыто : Открыто
Размер потока : 904 Мбайт (88%)
Аудио #1
Идентификатор : 189 (0xBD)-128 (0x80)
Формат : AC-3
Формат/Информация : Audio Coding 3
Режим : Dolby Digital
Параметр Endianness формата : Big
Режим смешивания : DVD-Video
Продолжительность : 24 м. 9 с.
Вид битрейта : Постоянный
Битрейт : 192 Кбит/сек
Каналы : 2 канала
Расположение каналов : Front: L R
Частота : 48,0 КГц
Частота кадров : 31,250 кадров/сек (1536 spf)
Битовая глубина : 16 бит
Метод сжатия : С потерями
Размер потока : 33,2 Мбайт (3%)
ServiceKind/String : Complete Main
Аудио #2
Идентификатор : 189 (0xBD)-129 (0x81)
Формат : AC-3
Формат/Информация : Audio Coding 3
Режим : Dolby Digital
Параметр Endianness формата : Big
Режим смешивания : DVD-Video
Продолжительность : 24 м. 9 с.
Вид битрейта : Постоянный
Битрейт : 192 Кбит/сек
Каналы : 2 канала
Расположение каналов : Front: L R
Частота : 48,0 КГц
Частота кадров : 31,250 кадров/сек (1536 spf)
Битовая глубина : 16 бит
Метод сжатия : С потерями
Размер потока : 33,2 Мбайт (3%)
ServiceKind/String : Complete Main
Аудио #3
Идентификатор : 189 (0xBD)-130 (0x82)
Формат : AC-3
Формат/Информация : Audio Coding 3
Параметр Endianness формата : Big
Режим смешивания : DVD-Video
Продолжительность : 24 м. 9 с.
Вид битрейта : Постоянный
Битрейт : 192 Кбит/сек
Каналы : 2 канала
Расположение каналов : Front: L R
Частота : 48,0 КГц
Частота кадров : 31,250 кадров/сек (1536 spf)
Битовая глубина : 16 бит
Метод сжатия : С потерями
Размер потока : 33,2 Мбайт (3%)
ServiceKind/String : Complete Main
Текст #1
Идентификатор : 224 (0xE0)-CC3
Формат : EIA-608
Режим смешивания, доп. информация : Muxed in Video #1
Продолжительность : 24 м. 10 с.
Вид битрейта : Постоянный
Размер потока : 0,00 байт (0%)
CaptionServiceName : CC3
Текст #2
Идентификатор : 189 (0xBD)-32 (0x20)
Формат : RLE
Формат/Информация : Run-length encoding
Режим смешивания : DVD-Video
Текст #3
Идентификатор : 189 (0xBD)-33 (0x21)
Формат : RLE
Формат/Информация : Run-length encoding
Режим смешивания : DVD-Video
Текст #4
Идентификатор : 189 (0xBD)-34 (0x22)
Формат : RLE
Формат/Информация : Run-length encoding
Режим смешивания : DVD-Video

Скриншоты меню

Скриншоты

Вы не можете начинать темы
Вы не можете отвечать на сообщения
Вы не можете редактировать свои сообщения
Вы не можете удалять свои сообщения
Вы не можете голосовать в опросах
Вы не можете прикреплять файлы к сообщениям
Вы можете скачивать файлы
!ВНИМАНИЕ!

Сайт не предоставляет электронные версии произведений, а занимается лишь коллекционированием и каталогизацией ссылок, присылаемых и публикуемых на форуме нашими читателями. Если вы являетесь правообладателем какого-либо представленного материала и не желаете, чтобы ссылка на него находилась в нашем каталоге, свяжитесь с нами, и мы незамедлительно удалим ее. Файлы для обмена на трекере предоставлены пользователями сайта, и администрация не несет ответственности за их содержание. Просьба не заливать файлы, защищенные авторскими правами, а также файлы нелегального содержания!

Искали программы, игры, дополнения, музыка mp3, аниме, аудио книги, журналы? Добро пожаловать на свободный торрент трекер Torrents, у нас можно скачать бесплатно, без смс и регистрации и прочих ограничений лучшие, отборные сборки программ, игр. Скачать торрентом не составит труда даже не опытному пользователю. Раздачи ежедневно обновляются, только лучшие и качественные раздачи, подробные описания и скриншоты. Огромная коллекция программ для работы со звуком, графикой, дизайном, а так же множество плагинов и инструментов к ним с подробной инструкцией и рекомендациями. Прошивки для навигаторов, карты. Разнообразные игры, для Windows, Linux. В коллекцие есть и старые игры любых жанров, Rpg, Action, Shooter, strategy Множество дополнений, модификаций, сценариев для популярных игр в жанре экш, рпг, гонки, стратегии, логические игры. Множество аддонов и сценариев для Microsoft Flight Simulator Большая коллекция книг, учебников. Если нет возможности купить печатное издание - смело скачивайте цифровую версию книги или, быть может, журнала. Не любите читать - можно загрузить бесплатно аудикнигу. Для веб дизайнеров и программистов так же найдется множество специализированного софта, таких как: редакторы с подсветкой, среды программирования, компоненты, системы управления базами данных, разнообразные скрипты и шаблоны. Не так давно у нас появился материал для автолюбителей и владельцев мото - оригинальные и неоригинальные каталоги запчастей, книги и журналы по ремонту и обслуживанию, видеоуроки, статьи по чип тюнингу, прошивкам. Процедура получения контента элементарная, достаточно просто скачать торрент файл и добавить его в загрузку в вашем торрент клиенте. Если у вас нет специального торрент клиента, вы можете его скачать у нас.

逃避者 | 王茂蕾 | LL Cool J