Красавчик / Keinohrhasen (Тиль Швайгер / Til Schweiger) [2007, Германия, мелодрама, комедия, DVD5] MVO 

Цитировать
Красавчик / Keinohrhasen
Страна: Германия
Жанр: мелодрама, комедия
Год выпуска: 2007
Продолжительность: 01:51:21
Перевод: Профессиональный (многоголосый, закадровый)
Субтитры: нет
Оригинальная аудиодорожка: нет
Режиссер: Тиль Швайгер / Til Schweiger
В ролях: Тиль Швайгер, Нора Чирнер, Маттиас Швайгхёфер, Алвара Хёфельс, Юрген Фогель, Армин Роде, Рик Каваниан, Вольфганг Штумф, Кристиан Трамиц, Барбара Рудник
Описание: Журналист Людо, схлопотавший восемь месяцев тюрьмы, освобожден на испытательный срок при условии, что он обязательно пройдет курс трудотерапии. Ему предстоит отработать триста часов в местном детском саду. Как ухаживать за 8-летними оболтусами, Людо не очень представляет, но в группе работает его старая знакомая…
Меню: есть, немецкое, статичное
Тип релиза: DVD5
Контейнер: DVD-Video
Видео: PAL 16:9 (720x576(0.472)) MPEG Video, 25,000 кадр/сек, 4892 Кбит/сек
Аудио: Russian (Dolby AC-3, 6 ch) 384 Кбит/сек, 48.0 КГц

Доп. информация по релизу

Доп. материалов в этом DVD нет!

MediaInfo

Общее
Полное имя : Krasavchik.2007.P.DVD_INTERFILM\VIDEO_TS\VTS_02_1.VOB
Формат : MPEG-PS
Размер файла : 1024 Мбайт
Продолжительность : 26 м. 35 с.
Режим общего битрейта : Переменный
Общий поток : 5383 Кбит/сек
Видео
Идентификатор : 224 (0xE0)
Формат : MPEG Video
Версия формата : Version 2
Профиль формата : Main@Main
Параметр BVOP формата : Да
Параметр матрицы формата : Выборочная
Параметр GOP формата : Variable
Продолжительность : 26 м. 35 с.
Вид битрейта : Переменный
Битрейт : 4892 Кбит/сек
Ширина : 720 пикселей
Высота : 576 пикселей
Соотношение сторон : 16:9
Частота кадров : 25,000 кадров/сек
Стандарт вещания : PAL
Цветовое пространство : YUV
Субдискретизация насыщенности : 4:2:0
Битовая глубина : 8 бит
Тип развёртки : Прогрессивная
Метод сжатия : С потерями
Бит/(Пиксели*Кадры) : 0.472
Размер потока : 931 Мбайт (91%)
Основные цвета : BT.601 PAL
Характеристики трансфера : BT.470 System B, BT.470 System G
Коэффициенты матрицы : BT.601
Аудио
Идентификатор : 189 (0xBD)-128 (0x80)
Формат : AC-3
Формат/Информация : Audio Coding 3
Параметр Endianness формата : Big
Режим смешивания : DVD-Video
Продолжительность : 26 м. 33 с.
Вид битрейта : Постоянный
Битрейт : 384 Кбит/сек
Каналы : 6 каналов
Расположение каналов : Front: L C R, Side: L R, LFE
Частота : 48,0 КГц
Частота кадров : 31,250 кадров/сек (1536 spf)
Битовая глубина : 16 бит
Метод сжатия : С потерями
Задержка видео : 2 с. 500 мс.
Размер потока : 72,9 Мбайт (7%)
ServiceKind/String : Complete Main

Скриншоты меню

Скриншоты

Вы не можете начинать темы
Вы не можете отвечать на сообщения
Вы не можете редактировать свои сообщения
Вы не можете удалять свои сообщения
Вы не можете голосовать в опросах
Вы не можете прикреплять файлы к сообщениям
Вы можете скачивать файлы
!ВНИМАНИЕ!

Сайт не предоставляет электронные версии произведений, а занимается лишь коллекционированием и каталогизацией ссылок, присылаемых и публикуемых на форуме нашими читателями. Если вы являетесь правообладателем какого-либо представленного материала и не желаете, чтобы ссылка на него находилась в нашем каталоге, свяжитесь с нами, и мы незамедлительно удалим ее. Файлы для обмена на трекере предоставлены пользователями сайта, и администрация не несет ответственности за их содержание. Просьба не заливать файлы, защищенные авторскими правами, а также файлы нелегального содержания!

Искали программы, игры, дополнения, музыка mp3, аниме, аудио книги, журналы? Добро пожаловать на свободный торрент трекер Torrents, у нас можно скачать бесплатно, без смс и регистрации и прочих ограничений лучшие, отборные сборки программ, игр. Скачать торрентом не составит труда даже не опытному пользователю. Раздачи ежедневно обновляются, только лучшие и качественные раздачи, подробные описания и скриншоты. Огромная коллекция программ для работы со звуком, графикой, дизайном, а так же множество плагинов и инструментов к ним с подробной инструкцией и рекомендациями. Прошивки для навигаторов, карты. Разнообразные игры, для Windows, Linux. В коллекцие есть и старые игры любых жанров, Rpg, Action, Shooter, strategy Множество дополнений, модификаций, сценариев для популярных игр в жанре экш, рпг, гонки, стратегии, логические игры. Множество аддонов и сценариев для Microsoft Flight Simulator Большая коллекция книг, учебников. Если нет возможности купить печатное издание - смело скачивайте цифровую версию книги или, быть может, журнала. Не любите читать - можно загрузить бесплатно аудикнигу. Для веб дизайнеров и программистов так же найдется множество специализированного софта, таких как: редакторы с подсветкой, среды программирования, компоненты, системы управления базами данных, разнообразные скрипты и шаблоны. Не так давно у нас появился материал для автолюбителей и владельцев мото - оригинальные и неоригинальные каталоги запчастей, книги и журналы по ремонту и обслуживанию, видеоуроки, статьи по чип тюнингу, прошивкам. Процедура получения контента элементарная, достаточно просто скачать торрент файл и добавить его в загрузку в вашем торрент клиенте. Если у вас нет специального торрент клиента, вы можете его скачать у нас.

National Lampoons Dirty Movie 2011 DvdRip XviD-ETRG | Women's Health (1) | Masterpiece (2015) 720p DVDRip x264 Eng Subs [Dual Audio] [Hindi DD 2.0 - Kannada 2.0] Exclusive By -=!Dr.STAR!=-