Голый пистолет 2½: Запах страха / The Naked Gun 2½: The Smell of Fear (Дэвид Цукер / David Zucker) [1991, США, комедия, криминал, DVD9] MVO + AVO + Original Eng 

Цитировать
Голый пистолет 2½: Запах страха / The Naked Gun 2½: The Smell of Fear
Страна: США
Жанр: комедия, криминал
Год выпуска: 1991
Продолжительность: 01:24:59
Перевод: Профессиональный (многоголосый, закадровый)
Перевод 2: Авторский (одноголосый, закадровый)
Субтитры: английские
Оригинальная аудиодорожка: английская
Режиссер: Дэвид Цукер / David Zucker
В ролях: Лесли Нильсен, Присцилла Пресли, Джордж Кеннеди, О. Дж. Симпсон, Робер Гуле, Ричард Гриффитс, Жаклин Брукс, Энтони Джеймс, Ллойд Бокнер, Тим О’Коннор
Описание: Лейтенант полиции Френк Дребин по-прежнему трудится на ниве поимки нарушителей правопорядка, параллельно ища вопросы глобального свойства — например, о том, когда ему предстоит продемонстрировать все, на что он способен. И вот наступает ответственный момент. Некий злодей плетет страшные козни и замышляет уничтожить весь мир. Но не тут-то было, храбрый полицейский как всегда начеку!
Меню: есть, английское, статичное
Тип релиза: DVD9
Контейнер: DVD-Video
Видео: NTSC 16:9 (720x480(0.700)) MPEG Video, 23,976 кадр/сек, 5803 Кбит/сек
Аудио: Russian (Dolby AC-3, 6 ch) 448 Кбит/сек, 48.0 КГц
Аудио 2: Russian (Dolby AC-3, 6 ch) 448 Кбит/сек, 48.0 КГц, А. Михалев
Аудио 3: English (Dolby AC-3, 2 ch) 192 Кбит/сек, 48.0 КГц
Аудио 4: English (Dolby AC-3, 6 ch) 448 Кбит/сек, 48.0 КГц

MediaInfo

Общее
Полное имя : Golyi_pistolet_2\VIDEO_TS\VTS_02_2.VOB
Формат : MPEG-PS
Размер файла : 1024 Мбайт
Продолжительность : 19 м. 6 с.
Режим общего битрейта : Переменный
Общий поток : 7488 Кбит/сек
Видео
Идентификатор : 224 (0xE0)
Формат : MPEG Video
Версия формата : Version 2
Профиль формата : Main@Main
Параметр BVOP формата : Да
Параметр матрицы формата : Выборочная
Параметр GOP формата : Variable
Продолжительность : 19 м. 6 с.
Вид битрейта : Переменный
Битрейт : 5803 Кбит/сек
Максимальный битрейт : 9800 Кбит/сек
Ширина : 720 пикселей
Высота : 480 пикселей
Соотношение сторон : 16:9
Частота кадров : 23,976 (24000/1001) кадра/сек
Стандарт вещания : Component
Цветовое пространство : YUV
Субдискретизация насыщенности : 4:2:0
Битовая глубина : 8 бит
Тип развёртки : Прогрессивная
Порядок развёртки : 2:3 Pulldown
Метод сжатия : С потерями
Бит/(Пиксели*Кадры) : 0.700
Временной код первого кадра : 01:18:56;06
Оригинал временного кода : Group of pictures header
Размер потока : 992 Мбайт (97%)
Основные цвета : BT.601 NTSC
Характеристики трансфера : BT.601
Коэффициенты матрицы : BT.601
Аудио #1
Идентификатор : 189 (0xBD)-128 (0x80)
Формат : AC-3
Формат/Информация : Audio Coding 3
Параметр Endianness формата : Big
Режим смешивания : DVD-Video
Продолжительность : 19 м. 6 с.
Вид битрейта : Постоянный
Битрейт : 448 Кбит/сек
Каналы : 6 каналов
Расположение каналов : Front: L C R, Side: L R, LFE
Частота : 48,0 КГц
Частота кадров : 31,250 кадров/сек (1536 spf)
Битовая глубина : 16 бит
Метод сжатия : С потерями
Задержка видео : -299 мс.
Размер потока : 61,2 Мбайт (6%)
ServiceKind/String : Complete Main
Аудио #2
Идентификатор : 189 (0xBD)-129 (0x81)
Формат : AC-3
Формат/Информация : Audio Coding 3
Параметр Endianness формата : Big
Режим смешивания : DVD-Video
Продолжительность : 19 м. 6 с.
Вид битрейта : Постоянный
Битрейт : 448 Кбит/сек
Каналы : 6 каналов
Расположение каналов : Front: L C R, Side: L R, LFE
Частота : 48,0 КГц
Частота кадров : 31,250 кадров/сек (1536 spf)
Битовая глубина : 16 бит
Метод сжатия : С потерями
Задержка видео : -299 мс.
Размер потока : 61,2 Мбайт (6%)
ServiceKind/String : Complete Main
Аудио #3
Идентификатор : 189 (0xBD)-130 (0x82)
Формат : AC-3
Формат/Информация : Audio Coding 3
Режим : Dolby Digital
Параметр Endianness формата : Big
Режим смешивания : DVD-Video
Продолжительность : 19 м. 6 с.
Вид битрейта : Постоянный
Битрейт : 192 Кбит/сек
Каналы : 2 канала
Расположение каналов : Front: L R
Частота : 48,0 КГц
Частота кадров : 31,250 кадров/сек (1536 spf)
Битовая глубина : 16 бит
Метод сжатия : С потерями
Задержка видео : -203 мс.
Размер потока : 26,2 Мбайт (3%)
ServiceKind/String : Complete Main
Аудио #4
Идентификатор : 189 (0xBD)-131 (0x83)
Формат : AC-3
Формат/Информация : Audio Coding 3
Параметр Endianness формата : Big
Режим смешивания : DVD-Video
Продолжительность : 19 м. 6 с.
Вид битрейта : Постоянный
Битрейт : 448 Кбит/сек
Каналы : 6 каналов
Расположение каналов : Front: L C R, Side: L R, LFE
Частота : 48,0 КГц
Частота кадров : 31,250 кадров/сек (1536 spf)
Битовая глубина : 16 бит
Метод сжатия : С потерями
Задержка видео : -299 мс.
Размер потока : 61,2 Мбайт (6%)
ServiceKind/String : Complete Main
Текст #1
Идентификатор : 189 (0xBD)-32 (0x20)
Формат : RLE
Формат/Информация : Run-length encoding
Режим смешивания : DVD-Video
Задержка видео : 1 с. 668 мс.
Текст #2
Идентификатор : 189 (0xBD)-33 (0x21)
Формат : RLE
Формат/Информация : Run-length encoding
Режим смешивания : DVD-Video
Задержка видео : 1 с. 668 мс.
Текст #3
Идентификатор : 224 (0xE0)-CC3
Формат : EIA-608
Режим смешивания, доп. информация : Muxed in Video #1
Продолжительность : 19 м. 6 с.
Вид битрейта : Постоянный
Размер потока : 0,00 байт (0%)
CaptionServiceName : CC3

Скриншоты меню

Скриншоты

Вы не можете начинать темы
Вы не можете отвечать на сообщения
Вы не можете редактировать свои сообщения
Вы не можете удалять свои сообщения
Вы не можете голосовать в опросах
Вы не можете прикреплять файлы к сообщениям
Вы можете скачивать файлы
!ВНИМАНИЕ!

Сайт не предоставляет электронные версии произведений, а занимается лишь коллекционированием и каталогизацией ссылок, присылаемых и публикуемых на форуме нашими читателями. Если вы являетесь правообладателем какого-либо представленного материала и не желаете, чтобы ссылка на него находилась в нашем каталоге, свяжитесь с нами, и мы незамедлительно удалим ее. Файлы для обмена на трекере предоставлены пользователями сайта, и администрация не несет ответственности за их содержание. Просьба не заливать файлы, защищенные авторскими правами, а также файлы нелегального содержания!

Искали программы, игры, дополнения, музыка mp3, аниме, аудио книги, журналы? Добро пожаловать на свободный торрент трекер Torrents, у нас можно скачать бесплатно, без смс и регистрации и прочих ограничений лучшие, отборные сборки программ, игр. Скачать торрентом не составит труда даже не опытному пользователю. Раздачи ежедневно обновляются, только лучшие и качественные раздачи, подробные описания и скриншоты. Огромная коллекция программ для работы со звуком, графикой, дизайном, а так же множество плагинов и инструментов к ним с подробной инструкцией и рекомендациями. Прошивки для навигаторов, карты. Разнообразные игры, для Windows, Linux. В коллекцие есть и старые игры любых жанров, Rpg, Action, Shooter, strategy Множество дополнений, модификаций, сценариев для популярных игр в жанре экш, рпг, гонки, стратегии, логические игры. Множество аддонов и сценариев для Microsoft Flight Simulator Большая коллекция книг, учебников. Если нет возможности купить печатное издание - смело скачивайте цифровую версию книги или, быть может, журнала. Не любите читать - можно загрузить бесплатно аудикнигу. Для веб дизайнеров и программистов так же найдется множество специализированного софта, таких как: редакторы с подсветкой, среды программирования, компоненты, системы управления базами данных, разнообразные скрипты и шаблоны. Не так давно у нас появился материал для автолюбителей и владельцев мото - оригинальные и неоригинальные каталоги запчастей, книги и журналы по ремонту и обслуживанию, видеоуроки, статьи по чип тюнингу, прошивкам. Процедура получения контента элементарная, достаточно просто скачать торрент файл и добавить его в загрузку в вашем торрент клиенте. Если у вас нет специального торрент клиента, вы можете его скачать у нас.

ละคร ทองเนื้อเก้า | Photo Editor - Photo Effects | Whitney Houston