Конспиратор / Wei Zhuang Zhe / The Disguiser [31 из 48] [Китай, 2015, история, драма, мелодрама, шпионский боевик, HDTVRip] [720] 

Цитировать
Конспиратор / Wei Zhuang Zhe / The Disguiser
Страна: Китай
Год выпуска: 2015
Жанр: история, драма, мелодрама, шпионский боевик
Продолжительность: 48 серий - 00:31:00, 00:44:00
Режиссер: Ли Сюэ
В ролях: Ху Гэ, Цзинь Дун, Ван Кай, Лю Ицзюнь, Лю Миньтао и др.
Перевод: Русские субтитры ass, в контейнере, отключаемые
Описание: Китай, 1939 год. Идет японо-китайская война, проиграна битва за Шанхай, создано новое прояпонское правительство.
На этом историческом фоне разворачивается история семьи Мин - старшей сестры, двух братьев и ставшего практически членом семьи сына служанки.
Семейная сага, психологическая драма, недюжинные шпионские страсти, история о любви и предательстве - этот сериал никого не оставит равнодушным. meykasahara©
Доп.информация: Перевод на русский язык meykasahara, англ. субтитры Gone with the Shirt Team @ Viki
Это тв-версия, состоящая из 48 серий. Основой для сериала послужила книга Die Zhan Shang Hai Tan автора Чжан Юн.
В раздаче присутствуют видео опенинга и эндинга, отдельными файлами.
Отличия: Раздач нет
Неотключаемые субтитры: Китайский хардсаб
Качество видео: HDTVRip
Формат: MKV
Видео: AVC, 1280х720, 4500 Кбит/сек, 24.000 fps
Аудио: АС-3, 6 ch, 384 Кбит/сек, оригинал - мандарин

Пример субтитров

Dialogue: 0,0:07:32.50,0:07:35.78,konspir,,0,0,0,,Мы не можем ее остановить, поэтому
Dialogue: 0,0:07:35.80,0:07:39.00,konspir,,0,0,0,,найди кого-нибудь, кто присмотрит за ней.
Dialogue: 0,0:07:39.00,0:07:43.30,konspir,,0,0,0,,Самое важное - ее защита.
Dialogue: 0,0:07:43.30,0:07:45.00,konspir,,0,0,0,,Хорошо.
Dialogue: 0,0:07:48.60,0:07:51.60,konspir,,0,0,0,,Но если она узнает,\Nчто ты приставил к ней шпионов,
Dialogue: 0,0:07:51.60,0:07:53.00,konspir,,0,0,0,,легко не отделаешься.
Dialogue: 0,0:07:53.00,0:07:57.28,konspir,,0,0,0,,Даже если сто раз ударит,\Nя должен обеспечить ее защиту.
Dialogue: 0,0:07:58.60,0:08:02.20,konspir,,0,0,0,,А если боишься за меня,\Nнайди того, кто поумнее.
Dialogue: 0,0:08:02.20,0:08:06.00,konspir,,0,0,0,,- Она не должна его заметить.\N- Да.
Dialogue: 0,0:08:11.80,0:08:13.80,konspir,,0,0,0,,Старший брат, утром
Dialogue: 0,0:08:13.80,0:08:17.40,konspir,,0,0,0,,пришло письмо\Nс грифом "совершенно секретно".
Dialogue: 0,0:08:17.40,0:08:20.80,konspir,,0,0,0,,Польский орел приезжает в Гонконг.
Dialogue: 0,0:08:22.60,0:08:25.80,konspir,,0,0,0,,Чан Гучуань?
Dialogue: 0,0:08:25.80,0:08:29.40,konspir,,0,0,0,,Чан Гучуань член парламента Японии.
Dialogue: 0,0:08:29.40,0:08:32.20,konspir,,0,0,0,,Он был инструктором в польском посольстве.
Dialogue: 0,0:08:32.20,0:08:35.70,konspir,,0,0,0,,Поэтому японские военные\Nпрозвали его Польский орел.
Dialogue: 0,0:08:36.80,0:08:42.20,konspir,,0,0,0,,Это он применил химическое оружие в войне против Китая.
Dialogue: 0,0:08:42.20,0:08:47.40,konspir,,0,0,0,,А сейчас, армия Японии\Nсчитается нашими "защитниками".

MediaInfo

Format                      : MatroskaFormat version              : Version 4 / Version 2File size                   : 1.51 GiBDuration                    : 44 min 9 sOverall bit rate            : 4 886 kb/sEncoded date                : UTC 2018-05-11 21:14:26Writing application         : mkvmerge v14.0.0 ('Flow') 64bitWriting library             : libebml v1.3.4 + libmatroska v1.4.5
VideoID : 1Format : AVCFormat/Info : Advanced Video CodecFormat profile : High@L4.1Format settings : CABAC / 5 Ref FramesFormat settings, CABAC : YesFormat settings, ReFrames : 5 framesCodec ID : V_MPEG4/ISO/AVCDuration : 44 min 9 sBit rate : 4 500 kb/sWidth : 1 280 pixelsHeight : 720 pixelsDisplay aspect ratio : 16:9Frame rate mode : ConstantFrame rate : 24.000 FPSColor space : YUVChroma subsampling : 4:2:0Bit depth : 8 bitsScan type : ProgressiveBits/(Pixel*Frame) : 0.203Stream size : 1.39 GiB (92%)Writing library : x264 core 133 r2334 a3ac64bEncoding settings : cabac=1 / ref=5 / deblock=1:-3:-3 / analyse=0x3:0x113 / me=umh / subme=7 / psy=1 / psy_rd=1.00:0.00 / mixed_ref=1 / me_range=16 / chroma_me=1 / trellis=1 / 8x8dct=1 / cqm=0 / deadzone=21,11 / fast_pskip=0 / chroma_qp_offset=-2 / threads=18 / lookahead_threads=3 / sliced_threads=0 / nr=0 / decimate=1 / interlaced=0 / bluray_compat=0 / constrained_intra=0 / bframes=3 / b_pyramid=2 / b_adapt=2 / b_bias=0 / direct=3 / weightb=1 / open_gop=0 / weightp=2 / keyint=250 / keyint_min=23 / scenecut=40 / intra_refresh=0 / rc_lookahead=50 / rc=2pass / mbtree=1 / bitrate=4500 / ratetol=1.0 / qcomp=0.70 / qpmin=0 / qpmax=69 / qpstep=4 / cplxblur=20.0 / qblur=0.5 / vbv_maxrate=14000 / vbv_bufsize=14000 / nal_hrd=none / ip_ratio=1.40 / aq=1:1.00Language : EnglishDefault : YesForced : No
AudioID : 2Format : AC-3Format/Info : Audio Coding 3Codec ID : A_AC3Duration : 44 min 9 sBit rate mode : ConstantBit rate : 384 kb/sChannel(s) : 6 channelsChannel positions : Front: L C R, Side: L R, LFESampling rate : 48.0 kHzFrame rate : 31.250 FPS (1536 SPF)Bit depth : 16 bitsCompression mode : LossyStream size : 121 MiB (8%)Language : EnglishService kind : Complete MainDefault : YesForced : No
TextID : 3Format : ASSCodec ID : S_TEXT/ASSCodec ID/Info : Advanced Sub Station AlphaDuration : 43 min 19 sBit rate : 116 b/sCount of elements : 453Compression mode : LosslessStream size : 37.1 KiB (0%)Language : RussianDefault : YesForced : No

Скриншоты


Вы не можете начинать темы
Вы не можете отвечать на сообщения
Вы не можете редактировать свои сообщения
Вы не можете удалять свои сообщения
Вы не можете голосовать в опросах
Вы не можете прикреплять файлы к сообщениям
Вы можете скачивать файлы
!ВНИМАНИЕ!

Сайт не предоставляет электронные версии произведений, а занимается лишь коллекционированием и каталогизацией ссылок, присылаемых и публикуемых на форуме нашими читателями. Если вы являетесь правообладателем какого-либо представленного материала и не желаете, чтобы ссылка на него находилась в нашем каталоге, свяжитесь с нами, и мы незамедлительно удалим ее. Файлы для обмена на трекере предоставлены пользователями сайта, и администрация не несет ответственности за их содержание. Просьба не заливать файлы, защищенные авторскими правами, а также файлы нелегального содержания!

Искали программы, игры, дополнения, музыка mp3, аниме, аудио книги, журналы? Добро пожаловать на свободный торрент трекер Torrents, у нас можно скачать бесплатно, без смс и регистрации и прочих ограничений лучшие, отборные сборки программ, игр. Скачать торрентом не составит труда даже не опытному пользователю. Раздачи ежедневно обновляются, только лучшие и качественные раздачи, подробные описания и скриншоты. Огромная коллекция программ для работы со звуком, графикой, дизайном, а так же множество плагинов и инструментов к ним с подробной инструкцией и рекомендациями. Прошивки для навигаторов, карты. Разнообразные игры, для Windows, Linux. В коллекцие есть и старые игры любых жанров, Rpg, Action, Shooter, strategy Множество дополнений, модификаций, сценариев для популярных игр в жанре экш, рпг, гонки, стратегии, логические игры. Множество аддонов и сценариев для Microsoft Flight Simulator Большая коллекция книг, учебников. Если нет возможности купить печатное издание - смело скачивайте цифровую версию книги или, быть может, журнала. Не любите читать - можно загрузить бесплатно аудикнигу. Для веб дизайнеров и программистов так же найдется множество специализированного софта, таких как: редакторы с подсветкой, среды программирования, компоненты, системы управления базами данных, разнообразные скрипты и шаблоны. Не так давно у нас появился материал для автолюбителей и владельцев мото - оригинальные и неоригинальные каталоги запчастей, книги и журналы по ремонту и обслуживанию, видеоуроки, статьи по чип тюнингу, прошивкам. Процедура получения контента элементарная, достаточно просто скачать торрент файл и добавить его в загрузку в вашем торрент клиенте. Если у вас нет специального торрент клиента, вы можете его скачать у нас.

Gangnam Style | Nella the Princess Knight (26) | DR Mi. Nr. 671 gest.