(Rock) [CD] VA - Guitar Heroes - 1997, FLAC (image+.cue), lossless 

Цитировать
VA - Guitar Heroes
Жанр: Rock
Носитель: CD
Страна-производитель диска (релиза): Netherlands
Год издания: 1997
Издатель (лейбл): Disky
Номер по каталогу: DC 880192
Страна исполнителя (группы): World
Аудиокодек: FLAC (*.flac)
Тип рипа: image+.cue
Битрейт аудио: lossless
Продолжительность: 00:37:38
Источник (релизер): alexpika
Наличие сканов в содержимом раздачи: да
Треклист:
01. The Shadows - Apache (Lordan) 02:54
02. The Ventures - Hawaii Five-O (M.Stevens) 01:52
03. Bert Weedon - Guitar Boogie Shuffle (Smith) 02:15
04. The Tornados - Telstar (J.Meek) 03:20
05. Bill Justis - Raunchy (Justis, Manker) 02:18
06. The Dakotas - The Cruel Sea (Maxfield) 02:13
07. The Chantays - Pipeline (B.Spickart, B.Carman) 02:17
08. Link Wray - Rumble (L.Wray) 02:20
09. Santo & Johnny - Sleepwalk (Farina, Farina, Farina) 02:21
10. The Fentones - The Mexican (Jones, Murray) 02:28
11. Surfaris - Wipe Out (Berryhill, Wilson, Fuller) 02:16
12. Lonnie Mack - Memphis (C.Berry) 02:25
13. Les Paul - Tico Tico (Bieu/Oliveira, Darke) 01:39
14. The Ventures - Walk Don't Run (J.Smith) 02:00
15. The Shadows - F.B.I. (Gormley) 02:19
16. The Flee Rekkers - Fireball XL 5 (Gray) 02:32

Лог создания рипа

Exact Audio Copy V1.0 beta 3 from 29. August 2011
EAC extraction logfile from 16. December 2016, 8:37
Guitar Heroes / Guitar Heroes
Used drive : TSSTcorpCDDVDW SH-216DB Adapter: 0 ID: 0
Read mode : SecureUtilize accurate stream : YesDefeat audio cache : YesMake use of C2 pointers : No
Read offset correction : 6Overread into Lead-In and Lead-Out : NoFill up missing offset samples with silence : YesDelete leading and trailing silent blocks : NoNull samples used in CRC calculations : YesUsed interface : Native Win32 interface for Win NT & 2000
Used output format : User Defined EncoderSelected bitrate : 1024 kBit/sQuality : HighAdd ID3 tag : NoCommand line compressor : C:\Program Files (x86)\Exact Audio Copy\Flac\flac.exeAdditional command line options : -V -8 -T "Date=%year%" -T "Genre=%genre%" %source%
TOC of the extracted CD
Track | Start | Length | Start sector | End sector --------------------------------------------------------- 1 | 0:00.00 | 2:54.37 | 0 | 13086 2 | 2:54.37 | 1:51.23 | 13087 | 21434 3 | 4:45.60 | 2:14.55 | 21435 | 31539 4 | 7:00.40 | 3:16.40 | 31540 | 46279 5 | 10:17.05 | 2:18.37 | 46280 | 56666 6 | 12:35.42 | 2:14.68 | 56667 | 66784 7 | 14:50.35 | 2:20.57 | 66785 | 77341 8 | 17:11.17 | 2:18.73 | 77342 | 87764 9 | 19:30.15 | 2:22.62 | 87765 | 98476 10 | 21:53.02 | 2:30.03 | 98477 | 109729 11 | 24:23.05 | 2:18.22 | 109730 | 120101 12 | 26:41.27 | 2:25.48 | 120102 | 131024 13 | 29:07.00 | 1:35.60 | 131025 | 138209 14 | 30:42.60 | 2:04.07 | 138210 | 147516 15 | 32:46.67 | 2:19.50 | 147517 | 157991 16 | 35:06.42 | 2:31.38 | 157992 | 169354
Range status and errors
Selected range
Filename L:\Private\My Audio Ripps\ CD - RIPS\Guitar Heroes\Guitar Heroes - Guitar Heroes.wav
Peak level 99.4 % Extraction speed 2.6 X Range quality 100.0 % Test CRC 6F6D2951 Copy CRC 6F6D2951 Copy OK
No errors occurred
AccurateRip summary
Track 1 accurately ripped (confidence 8) [F93ABE9E] (AR v2)Track 2 accurately ripped (confidence 8) [5F99AE80] (AR v2)Track 3 accurately ripped (confidence 8) [EF11021C] (AR v2)Track 4 accurately ripped (confidence 8) [599AE479] (AR v2)Track 5 accurately ripped (confidence 8) [06DC3CCF] (AR v2)Track 6 accurately ripped (confidence 8) [01FE82FA] (AR v2)Track 7 accurately ripped (confidence 8) [2632036F] (AR v2)Track 8 accurately ripped (confidence 8) [E647EE72] (AR v2)Track 9 accurately ripped (confidence 8) [F3077623] (AR v2)Track 10 accurately ripped (confidence 8) [98A7CF6E] (AR v2)Track 11 accurately ripped (confidence 8) [982E1782] (AR v2)Track 12 accurately ripped (confidence 8) [75EBCE8E] (AR v2)Track 13 accurately ripped (confidence 8) [AA8123EF] (AR v2)Track 14 accurately ripped (confidence 8) [D49DF916] (AR v2)Track 15 accurately ripped (confidence 8) [71D54A9E] (AR v2)Track 16 accurately ripped (confidence 8) [75E99038] (AR v2)
All tracks accurately ripped
End of status report
==== Log checksum 7150767E34108D5F4909BDE6BE1122441B6068181E79CFCADA344447AED4172E ====

Содержание индексной карты (.CUE)

REM GENRE PopREM DATE 1997REM DISCID DE08D210REM COMMENT "ExactAudioCopy v1.0b3"PERFORMER "Guitar Heroes"TITLE "Guitar Heroes"FILE "Guitar Heroes - Guitar Heroes.flac" WAVE  TRACK 01 AUDIO    TITLE "The Shadows / Apache"    PERFORMER "Guitar Heroes"    INDEX 01 00:00:00  TRACK 02 AUDIO    TITLE "The Ventures / Hawaii Five-O"    PERFORMER "Guitar Heroes"    INDEX 01 02:54:37  TRACK 03 AUDIO    TITLE "Bert Weedon / Guitar Boogie Shuffle"    PERFORMER "Guitar Heroes"    INDEX 00 04:44:47    INDEX 01 04:45:60  TRACK 04 AUDIO    TITLE "The Tornados / Telstar"    PERFORMER "Guitar Heroes"    INDEX 01 07:00:40  TRACK 05 AUDIO    TITLE "Bill Justis / Raunchy"    PERFORMER "Guitar Heroes"    INDEX 01 10:17:05  TRACK 06 AUDIO    TITLE "The Dakotas / The Cruel Sea"    PERFORMER "Guitar Heroes"    INDEX 01 12:35:42  TRACK 07 AUDIO    TITLE "The Chantays / Pipeline"    PERFORMER "Guitar Heroes"    INDEX 00 14:49:20    INDEX 01 14:50:35  TRACK 08 AUDIO    TITLE "Link Wray / Rumble"    PERFORMER "Guitar Heroes"    INDEX 01 17:11:17  TRACK 09 AUDIO    TITLE "Santo & Johnny / Sleepwalk"    PERFORMER "Guitar Heroes"    INDEX 01 19:30:15  TRACK 10 AUDIO    TITLE "The Fentones / The Mexican"    PERFORMER "Guitar Heroes"    INDEX 01 21:53:02  TRACK 11 AUDIO    TITLE "Surfaris / Wipe Out"    PERFORMER "Guitar Heroes"    INDEX 01 24:23:05  TRACK 12 AUDIO    TITLE "Lonnie Mack / Memphis"    PERFORMER "Guitar Heroes"    INDEX 00 26:40:20    INDEX 01 26:41:27  TRACK 13 AUDIO    TITLE "Les Paul / Tico Tico"    PERFORMER "Guitar Heroes"    INDEX 00 29:05:67    INDEX 01 29:07:00  TRACK 14 AUDIO    TITLE "The Ventures / Walk Don't Run"    PERFORMER "Guitar Heroes"    INDEX 01 30:42:60  TRACK 15 AUDIO    TITLE "The Shadows / F.B.I."    PERFORMER "Guitar Heroes"    INDEX 00 32:45:07    INDEX 01 32:46:67  TRACK 16 AUDIO    TITLE "The Flee Rekkers / Fireball XL"    PERFORMER "Guitar Heroes"    INDEX 01 35:06:42

Лог проверки качества

-----------------------
DON'T MODIFY THIS FILE
-----------------------
PERFORMER: auCDtect Task Manager, ver. 1.5.1RC4 build 1.5.1.5Copyright (c) 2008-2010 y-soft. All rights reservedhttp://y-soft.org
ANALYZER: auCDtect: CD records authenticity detector, version 0.8.2Copyright (c) 2004 Oleg Berngardt. All rights reserved.Copyright (c) 2004 Alexander Djourik. All rights reserved.
FILE: Guitar Heroes - Guitar Heroes.flac Size: 203269263 Hash: 8135DDAAF588EE5B7741D3F1444E2BE6 Accuracy: -m0 Conclusion: CDDA 100% Signature: D77EBB73D03BFDFF8A0ED5FEC8A55D48181D7157

DR log

foobar2000 1.3.9 / Замер динамического диапазона (DR) 1.1.1Дата отчёта:  2016-12-21 11:50:06
--------------------------------------------------------------------------------Анализ: Guitar Heroes / Guitar Heroes--------------------------------------------------------------------------------
DR Пики RMS Продолжительность трека--------------------------------------------------------------------------------DR9 -3.36 дБ -15.57 дБ 2:54 1-The Shadows / ApacheDR12 -0.40 дБ -14.39 дБ 1:51 2-The Ventures / Hawaii Five-ODR12 -2.53 дБ -16.14 дБ 2:15 3-Bert Weedon / Guitar Boogie ShuffleDR8 -3.55 дБ -14.07 дБ 3:17 4-The Tornados / TelstarDR11 -0.04 дБ -14.95 дБ 2:18 5-Bill Justis / RaunchyDR9 -4.19 дБ -14.78 дБ 2:15 6-The Dakotas / The Cruel SeaDR11 -3.64 дБ -17.77 дБ 2:21 7-The Chantays / PipelineDR10 -0.26 дБ -14.11 дБ 2:19 8-Link Wray / RumbleDR12 -2.97 дБ -17.51 дБ 2:23 9-Santo & Johnny / SleepwalkDR11 -3.44 дБ -15.83 дБ 2:30 10-The Fentones / The MexicanDR9 -1.78 дБ -12.72 дБ 2:18 11-Surfaris / Wipe OutDR10 -1.40 дБ -14.84 дБ 2:26 12-Lonnie Mack / MemphisDR13 -0.20 дБ -14.51 дБ 1:36 13-Les Paul / Tico TicoDR11 -1.72 дБ -14.15 дБ 2:04 14-The Ventures / Walk Don't RunDR10 -1.97 дБ -13.34 дБ 2:20 15-The Shadows / F.B.I.DR10 -1.73 дБ -13.65 дБ 2:32 16-The Flee Rekkers / Fireball XL--------------------------------------------------------------------------------
Количество треков: 16Реальные значения DR: DR11
Частота: 44100 ГцКаналов: 2Разрядность: 16Битрейт: 720 кбит/сКодек: FLAC================================================================================
Доп. информация
Вы не можете начинать темы
Вы не можете отвечать на сообщения
Вы не можете редактировать свои сообщения
Вы не можете удалять свои сообщения
Вы не можете голосовать в опросах
Вы не можете прикреплять файлы к сообщениям
Вы можете скачивать файлы
!ВНИМАНИЕ!

Сайт не предоставляет электронные версии произведений, а занимается лишь коллекционированием и каталогизацией ссылок, присылаемых и публикуемых на форуме нашими читателями. Если вы являетесь правообладателем какого-либо представленного материала и не желаете, чтобы ссылка на него находилась в нашем каталоге, свяжитесь с нами, и мы незамедлительно удалим ее. Файлы для обмена на трекере предоставлены пользователями сайта, и администрация не несет ответственности за их содержание. Просьба не заливать файлы, защищенные авторскими правами, а также файлы нелегального содержания!

Искали программы, игры, дополнения, музыка mp3, аниме, аудио книги, журналы? Добро пожаловать на свободный торрент трекер Torrents, у нас можно скачать бесплатно, без смс и регистрации и прочих ограничений лучшие, отборные сборки программ, игр. Скачать торрентом не составит труда даже не опытному пользователю. Раздачи ежедневно обновляются, только лучшие и качественные раздачи, подробные описания и скриншоты. Огромная коллекция программ для работы со звуком, графикой, дизайном, а так же множество плагинов и инструментов к ним с подробной инструкцией и рекомендациями. Прошивки для навигаторов, карты. Разнообразные игры, для Windows, Linux. В коллекцие есть и старые игры любых жанров, Rpg, Action, Shooter, strategy Множество дополнений, модификаций, сценариев для популярных игр в жанре экш, рпг, гонки, стратегии, логические игры. Множество аддонов и сценариев для Microsoft Flight Simulator Большая коллекция книг, учебников. Если нет возможности купить печатное издание - смело скачивайте цифровую версию книги или, быть может, журнала. Не любите читать - можно загрузить бесплатно аудикнигу. Для веб дизайнеров и программистов так же найдется множество специализированного софта, таких как: редакторы с подсветкой, среды программирования, компоненты, системы управления базами данных, разнообразные скрипты и шаблоны. Не так давно у нас появился материал для автолюбителей и владельцев мото - оригинальные и неоригинальные каталоги запчастей, книги и журналы по ремонту и обслуживанию, видеоуроки, статьи по чип тюнингу, прошивкам. Процедура получения контента элементарная, достаточно просто скачать торрент файл и добавить его в загрузку в вашем торрент клиенте. Если у вас нет специального торрент клиента, вы можете его скачать у нас.

145 : هروب سريع | Hezbollah... | Live chat