(Alternative rock/Indie rock) [CD] VA - Ladykillers [PolyGram TV, 535 536-2, UK] - 1996, FLAC (tracks+.cue), lossless 

Цитировать
Ladykillers
Жанр: Alternative rock/Indie rock
Носитель: CD
Страна-производитель диска (релиза): UK
Год издания: 1996
Издатель (лейбл): PolyGram TV
Номер по каталогу: 535 536-2
Аудиокодек: FLAC (*.flac)
Тип рипа: tracks+.cue
Битрейт аудио: lossless
Продолжительность: 01:18:59
Источник (релизер): cratedigger
Наличие сканов в содержимом раздачи: нет

Треклист:
01. Garbage – Stupid Girl
02. Sleeper – What Do I Do Now?
03. Echobelly – Great Things
04. Lush – Ladykillers
05. Skunk Anansie – Weak
06. The Cranberries – Zombie
07. Salad – Drink The Elixir
08. Belly – Feed The Tree
09. Catatonia – Lost Cat
10. Tiny Monroe – She
11. The Cardigans – Rise And Shine
12. The Primitives – Crash
13. Pretenders – Night In My Veins
14. Daisy Chainsaw – Love Your Money
15. Fluffy – Husband
16. Throwing Muses – Bright Yellow Gun
17. Drugstore – Fader
18. Stereolab – Ping Pong
19. Intastella – The Night
20. St. Etienne – He's On The Phone
21. Everything But The Girl – Missing
22. Cocteau Twins – Tishbite
23. Moloko – Fun For Me

Лог создания рипа

Exact Audio Copy V1.1 from 23. June 2015
EAC extraction logfile from 26. December 2016, 18:36
Various / Ladykillers
Used drive : ATAPI iHAS124 F Adapter: 1 ID: 1
Read mode : SecureUtilize accurate stream : YesDefeat audio cache : YesMake use of C2 pointers : No
Read offset correction : 6Overread into Lead-In and Lead-Out : NoFill up missing offset samples with silence : YesDelete leading and trailing silent blocks : NoNull samples used in CRC calculations : YesUsed interface : Native Win32 interface for Win NT & 2000Gap handling : Appended to previous track
Used output format : User Defined EncoderSelected bitrate : 1024 kBit/sQuality : HighAdd ID3 tag : NoCommand line compressor : C:\Program Files (x86)\Exact Audio Copy\FLAC\FLAC.EXEAdditional command line options : -8 -e -p -V -T "ARTIST=%artist%" -T "TITLE=%title%" -T "ALBUM=%albumtitle%" -T "DATE=%year%" -T "TRACKNUMBER=%tracknr%" -T "GENRE=%genre%" -T "PERFORMER=%albuminterpret%" -T "COMPOSER=%composer%" %haslyrics%--tag-from-file=LYRICS="%lyricsfile%"%haslyrics% -T "ALBUMARTIST=%albumartist%" -T "DISCNUMBER=%cdnumber%" -T "TOTALDISCS=%totalcds%" -T "TOTALTRACKS=%numtracks%" -T "COMMENT=%comment%" %source% -o %dest%
TOC of the extracted CD
Track | Start | Length | Start sector | End sector --------------------------------------------------------- 1 | 0:00.00 | 4:21.25 | 0 | 19599 2 | 4:21.25 | 3:40.40 | 19600 | 36139 3 | 8:01.65 | 3:31.12 | 36140 | 51976 4 | 11:33.02 | 3:14.68 | 51977 | 66594 5 | 14:47.70 | 3:32.42 | 66595 | 82536 6 | 18:20.37 | 4:12.70 | 82537 | 101506 7 | 22:33.32 | 4:28.48 | 101507 | 121654 8 | 27:02.05 | 3:28.05 | 121655 | 137259 9 | 30:30.10 | 2:34.22 | 137260 | 148831 10 | 33:04.32 | 2:31.58 | 148832 | 160214 11 | 35:36.15 | 3:32.05 | 160215 | 176119 12 | 39:08.20 | 2:33.47 | 176120 | 187641 13 | 41:41.67 | 3:17.70 | 187642 | 202486 14 | 44:59.62 | 2:42.40 | 202487 | 214676 15 | 47:42.27 | 2:14.10 | 214677 | 224736 16 | 49:56.37 | 3:44.73 | 224737 | 241609 17 | 53:41.35 | 3:55.35 | 241610 | 259269 18 | 57:36.70 | 3:02.35 | 259270 | 272954 19 | 60:39.30 | 3:49.37 | 272955 | 290166 20 | 64:28.67 | 4:08.68 | 290167 | 308834 21 | 68:37.60 | 3:55.55 | 308835 | 326514 22 | 72:33.40 | 3:13.22 | 326515 | 341011 23 | 75:46.62 | 3:49.65 | 341012 | 358251
Track 1
Filename Z:\EAC PTH\VA – Ladykillers (1996)[Flac]{535 536-2}\01. Garbage - Stupid Girl.wav
Pre-gap length 0:00:02.00
Peak level 95.6 % Extraction speed 5.7 X Track quality 100.0 % Test CRC 077157AE Copy CRC 077157AE Accurately ripped (confidence 6) [024CBE4C] (AR v2) Copy OK
Track 2
Filename Z:\EAC PTH\VA – Ladykillers (1996)[Flac]{535 536-2}\02. Sleeper - What Do I Do Now.wav
Pre-gap length 0:00:01.70
Peak level 99.9 % Extraction speed 6.1 X Track quality 100.0 % Test CRC E7399C18 Copy CRC E7399C18 Accurately ripped (confidence 6) [31C64560] (AR v2) Copy OK
Track 3
Filename Z:\EAC PTH\VA – Ladykillers (1996)[Flac]{535 536-2}\03. Echobelly - Great Things.wav
Pre-gap length 0:00:01.70
Peak level 99.2 % Extraction speed 5.2 X Track quality 99.9 % Test CRC 8FAFA5C1 Copy CRC 8FAFA5C1 Accurately ripped (confidence 6) [2BA8A4E7] (AR v2) Copy OK
Track 4
Filename Z:\EAC PTH\VA – Ladykillers (1996)[Flac]{535 536-2}\04. Lush - Ladykillers.wav
Pre-gap length 0:00:01.69
Peak level 99.9 % Extraction speed 6.7 X Track quality 100.0 % Test CRC 46A2E3E5 Copy CRC 46A2E3E5 Accurately ripped (confidence 6) [98CCF370] (AR v2) Copy OK
Track 5
Filename Z:\EAC PTH\VA – Ladykillers (1996)[Flac]{535 536-2}\05. Skunk Anansie - Weak.wav
Pre-gap length 0:00:01.70
Peak level 99.9 % Extraction speed 7.2 X Track quality 100.0 % Test CRC E3A044A6 Copy CRC E3A044A6 Accurately ripped (confidence 6) [48723FBB] (AR v2) Copy OK
Track 6
Filename Z:\EAC PTH\VA – Ladykillers (1996)[Flac]{535 536-2}\06. The Cranberries - Zombie.wav
Pre-gap length 0:00:01.69
Peak level 99.9 % Extraction speed 6.4 X Track quality 99.9 % Test CRC 33F2DD0C Copy CRC 33F2DD0C Accurately ripped (confidence 6) [28478EAD] (AR v2) Copy OK
Track 7
Filename Z:\EAC PTH\VA – Ladykillers (1996)[Flac]{535 536-2}\07. Salad - Drink The Elixir.wav
Pre-gap length 0:00:01.69
Peak level 97.7 % Extraction speed 8.1 X Track quality 100.0 % Test CRC 2364FBFD Copy CRC 2364FBFD Accurately ripped (confidence 6) [43D1F998] (AR v2) Copy OK
Track 8
Filename Z:\EAC PTH\VA – Ladykillers (1996)[Flac]{535 536-2}\08. Belly - Feed The Tree.wav
Pre-gap length 0:00:01.70
Peak level 99.9 % Extraction speed 8.2 X Track quality 100.0 % Test CRC 67674266 Copy CRC 67674266 Accurately ripped (confidence 6) [5281ABDB] (AR v2) Copy OK
Track 9
Filename Z:\EAC PTH\VA – Ladykillers (1996)[Flac]{535 536-2}\09. Catatonia - Lost Cat.wav
Pre-gap length 0:00:01.70
Peak level 99.9 % Extraction speed 8.0 X Track quality 100.0 % Test CRC D341B6AB Copy CRC D341B6AB Accurately ripped (confidence 6) [8A5B0234] (AR v2) Copy OK
Track 10
Filename Z:\EAC PTH\VA – Ladykillers (1996)[Flac]{535 536-2}\10. Tiny Monroe - She.wav
Pre-gap length 0:00:01.69
Peak level 99.9 % Extraction speed 8.2 X Track quality 100.0 % Test CRC 38ADFAE9 Copy CRC 38ADFAE9 Accurately ripped (confidence 6) [83489D80] (AR v2) Copy OK
Track 11
Filename Z:\EAC PTH\VA – Ladykillers (1996)[Flac]{535 536-2}\11. The Cardigans - Rise & Shine.wav
Pre-gap length 0:00:01.70
Peak level 99.9 % Extraction speed 8.9 X Track quality 100.0 % Test CRC 4088DD3C Copy CRC 4088DD3C Accurately ripped (confidence 6) [921247EF] (AR v2) Copy OK
Track 12
Filename Z:\EAC PTH\VA – Ladykillers (1996)[Flac]{535 536-2}\12. Primitives - Crash.wav
Pre-gap length 0:00:01.70
Peak level 99.9 % Extraction speed 8.6 X Track quality 100.0 % Test CRC E9B0B65E Copy CRC E9B0B65E Accurately ripped (confidence 6) [5D11DDF1] (AR v2) Copy OK
Track 13
Filename Z:\EAC PTH\VA – Ladykillers (1996)[Flac]{535 536-2}\13. Pretenders - Night in my Veins.wav
Pre-gap length 0:00:01.69
Peak level 99.9 % Extraction speed 9.2 X Track quality 100.0 % Test CRC 7431A31F Copy CRC 7431A31F Accurately ripped (confidence 6) [E31C7157] (AR v2) Copy OK
Track 14
Filename Z:\EAC PTH\VA – Ladykillers (1996)[Flac]{535 536-2}\14. Daisy Chainsaw - Love Your Money.wav
Pre-gap length 0:00:01.69
Peak level 99.9 % Extraction speed 9.0 X Track quality 100.0 % Test CRC 52086DCD Copy CRC 52086DCD Accurately ripped (confidence 6) [E5205ADC] (AR v2) Copy OK
Track 15
Filename Z:\EAC PTH\VA – Ladykillers (1996)[Flac]{535 536-2}\15. Fluffy - Husband.wav
Pre-gap length 0:00:01.69
Peak level 99.9 % Extraction speed 6.4 X Track quality 99.9 % Test CRC BC4A7DBD Copy CRC BC4A7DBD Accurately ripped (confidence 6) [C869DA7A] (AR v2) Copy OK
Track 16
Filename Z:\EAC PTH\VA – Ladykillers (1996)[Flac]{535 536-2}\16. Throwing Muses - Bright Yellow Gun.wav
Pre-gap length 0:00:01.69
Peak level 99.9 % Extraction speed 9.9 X Track quality 100.0 % Test CRC B81BED63 Copy CRC B81BED63 Accurately ripped (confidence 6) [FC4F94D2] (AR v2) Copy OK
Track 17
Filename Z:\EAC PTH\VA – Ladykillers (1996)[Flac]{535 536-2}\17. Drugstore - Fader.wav
Pre-gap length 0:00:01.70
Peak level 99.9 % Extraction speed 10.1 X Track quality 100.0 % Test CRC 1884DCB3 Copy CRC 1884DCB3 Accurately ripped (confidence 6) [EE9422DB] (AR v2) Copy OK
Track 18
Filename Z:\EAC PTH\VA – Ladykillers (1996)[Flac]{535 536-2}\18. Stereolab - Ping Pong.wav
Pre-gap length 0:00:01.70
Peak level 99.9 % Extraction speed 10.0 X Track quality 100.0 % Test CRC 2F12FDDC Copy CRC 2F12FDDC Accurately ripped (confidence 6) [F10E62C6] (AR v2) Copy OK
Track 19
Filename Z:\EAC PTH\VA – Ladykillers (1996)[Flac]{535 536-2}\19. Intastella - The Night.wav
Pre-gap length 0:00:01.70
Peak level 99.9 % Extraction speed 10.5 X Track quality 100.0 % Test CRC 51F024CF Copy CRC 51F024CF Accurately ripped (confidence 6) [FDE5D288] (AR v2) Copy OK
Track 20
Filename Z:\EAC PTH\VA – Ladykillers (1996)[Flac]{535 536-2}\20. Saint Etienne - He's On The Phone.wav
Pre-gap length 0:00:01.69
Peak level 99.9 % Extraction speed 10.8 X Track quality 100.0 % Test CRC A2F8431C Copy CRC A2F8431C Accurately ripped (confidence 6) [BFFD0E5C] (AR v2) Copy OK
Track 21
Filename Z:\EAC PTH\VA – Ladykillers (1996)[Flac]{535 536-2}\21. Everything But The Girl - Missing.wav
Pre-gap length 0:00:01.70
Peak level 99.9 % Extraction speed 9.0 X Track quality 99.9 % Test CRC 5945867F Copy CRC 5945867F Accurately ripped (confidence 6) [91451691] (AR v2) Copy OK
Track 22
Filename Z:\EAC PTH\VA – Ladykillers (1996)[Flac]{535 536-2}\22. Cocteau Twins - Tishbite.wav
Pre-gap length 0:00:01.70
Peak level 99.9 % Extraction speed 10.8 X Track quality 100.0 % Test CRC 6D82A091 Copy CRC 6D82A091 Accurately ripped (confidence 6) [7493EF36] (AR v2) Copy OK
Track 23
Filename Z:\EAC PTH\VA – Ladykillers (1996)[Flac]{535 536-2}\23. Moloko - Fun for Me.wav
Pre-gap length 0:00:01.69
Peak level 99.9 % Extraction speed 11.2 X Track quality 100.0 % Test CRC 40064C01 Copy CRC 40064C01 Accurately ripped (confidence 7) [71222BEC] (AR v2) Copy OK
All tracks accurately ripped
No errors occurred
End of status report
---- CUETools DB Plugin V2.1.6
[CTDB TOCID: RXdWHz6Goc2UYCnIOt9309GXhgo-] foundSubmit result: RXdWHz6Goc2UYCnIOt9309GXhgo- has been confirmedTrack | CTDB Status 1 | (9/9) Accurately ripped 2 | (9/9) Accurately ripped 3 | (9/9) Accurately ripped 4 | (9/9) Accurately ripped 5 | (9/9) Accurately ripped 6 | (9/9) Accurately ripped 7 | (9/9) Accurately ripped 8 | (9/9) Accurately ripped 9 | (9/9) Accurately ripped 10 | (9/9) Accurately ripped 11 | (9/9) Accurately ripped 12 | (9/9) Accurately ripped 13 | (9/9) Accurately ripped 14 | (9/9) Accurately ripped 15 | (9/9) Accurately ripped 16 | (9/9) Accurately ripped 17 | (9/9) Accurately ripped 18 | (9/9) Accurately ripped 19 | (9/9) Accurately ripped 20 | (9/9) Accurately ripped 21 | (9/9) Accurately ripped 22 | (9/9) Accurately ripped 23 | (9/9) Accurately ripped
==== Log checksum 0CBA389EFB7F3D4B4D1CC67F0E24D79FF8E2CFDDC3DBDE957240D556AC22C8DE ====

Содержание индексной карты (.CUE)

REM GENRE RockREM DATE 1996REM DISCID 5E12A817REM COMMENT "ExactAudioCopy v1.1"CATALOG 0000000000000PERFORMER "Various"TITLE "Ladykillers"FILE "01. Garbage - Stupid Girl.wav" WAVE  TRACK 01 AUDIO    TITLE "Stupid Girl"    PERFORMER "Garbage"    INDEX 01 00:00:00  TRACK 02 AUDIO    TITLE "What Do I Do Now?"    PERFORMER "Sleeper"    INDEX 00 04:19:47FILE "02. Sleeper - What Do I Do Now.wav" WAVE    INDEX 01 00:00:00  TRACK 03 AUDIO    TITLE "Great Things"    PERFORMER "Echobelly"    INDEX 00 03:38:62FILE "03. Echobelly - Great Things.wav" WAVE    INDEX 01 00:00:00  TRACK 04 AUDIO    TITLE "Ladykillers"    PERFORMER "Lush"    INDEX 00 03:29:35FILE "04. Lush - Ladykillers.wav" WAVE    INDEX 01 00:00:00  TRACK 05 AUDIO    TITLE "Weak"    PERFORMER "Skunk Anansie"    INDEX 00 03:13:15FILE "05. Skunk Anansie - Weak.wav" WAVE    INDEX 01 00:00:00  TRACK 06 AUDIO    TITLE "Zombie"    PERFORMER "The Cranberries"    INDEX 00 03:30:65FILE "06. The Cranberries - Zombie.wav" WAVE    INDEX 01 00:00:00  TRACK 07 AUDIO    TITLE "Drink The Elixir"    PERFORMER "Salad"    INDEX 00 04:11:18FILE "07. Salad - Drink The Elixir.wav" WAVE    INDEX 01 00:00:00  TRACK 08 AUDIO    TITLE "Feed The Tree"    PERFORMER "Belly"    INDEX 00 04:26:70FILE "08. Belly - Feed The Tree.wav" WAVE    INDEX 01 00:00:00  TRACK 09 AUDIO    TITLE "Lost Cat"    PERFORMER "Catatonia"    INDEX 00 03:26:27FILE "09. Catatonia - Lost Cat.wav" WAVE    INDEX 01 00:00:00  TRACK 10 AUDIO    TITLE "She"    PERFORMER "Tiny Monroe"    INDEX 00 02:32:45FILE "10. Tiny Monroe - She.wav" WAVE    INDEX 01 00:00:00  TRACK 11 AUDIO    TITLE "Rise & Shine"    PERFORMER "The Cardigans"    INDEX 00 02:30:05FILE "11. The Cardigans - Rise & Shine.wav" WAVE    INDEX 01 00:00:00  TRACK 12 AUDIO    TITLE "Crash"    PERFORMER "Primitives"    INDEX 00 03:30:27FILE "12. Primitives - Crash.wav" WAVE    INDEX 01 00:00:00  TRACK 13 AUDIO    TITLE "Night in my Veins"    PERFORMER "Pretenders"    INDEX 00 02:31:70FILE "13. Pretenders - Night in my Veins.wav" WAVE    INDEX 01 00:00:00  TRACK 14 AUDIO    TITLE "Love Your Money"    PERFORMER "Daisy Chainsaw"    INDEX 00 03:16:18FILE "14. Daisy Chainsaw - Love Your Money.wav" WAVE    INDEX 01 00:00:00  TRACK 15 AUDIO    TITLE "Husband"    PERFORMER "Fluffy"    INDEX 00 02:40:63FILE "15. Fluffy - Husband.wav" WAVE    INDEX 01 00:00:00  TRACK 16 AUDIO    TITLE "Bright Yellow Gun"    PERFORMER "Throwing Muses"    INDEX 00 02:12:33FILE "16. Throwing Muses - Bright Yellow Gun.wav" WAVE    INDEX 01 00:00:00  TRACK 17 AUDIO    TITLE "Fader"    PERFORMER "Drugstore"    INDEX 00 03:43:20FILE "17. Drugstore - Fader.wav" WAVE    INDEX 01 00:00:00  TRACK 18 AUDIO    TITLE "Ping Pong"    PERFORMER "Stereolab"    INDEX 00 03:53:57FILE "18. Stereolab - Ping Pong.wav" WAVE    INDEX 01 00:00:00  TRACK 19 AUDIO    TITLE "The Night"    PERFORMER "Intastella"    INDEX 00 03:00:57FILE "19. Intastella - The Night.wav" WAVE    INDEX 01 00:00:00  TRACK 20 AUDIO    TITLE "He's On The Phone"    PERFORMER "Saint Etienne"    INDEX 00 03:47:60FILE "20. Saint Etienne - He's On The Phone.wav" WAVE    INDEX 01 00:00:00  TRACK 21 AUDIO    TITLE "Missing"    PERFORMER "Everything But The Girl"    INDEX 00 04:07:15FILE "21. Everything But The Girl - Missing.wav" WAVE    INDEX 01 00:00:00  TRACK 22 AUDIO    TITLE "Tishbite"    PERFORMER "Cocteau Twins"    INDEX 00 03:54:02FILE "22. Cocteau Twins - Tishbite.wav" WAVE    INDEX 01 00:00:00  TRACK 23 AUDIO    TITLE "Fun for Me"    PERFORMER "Moloko"    INDEX 00 03:11:45FILE "23. Moloko - Fun for Me.wav" WAVE    INDEX 01 00:00:00

AccurateRip

[CUETools log; Date: 14.09.2018 17:22:14; Version: 2.1.5][CTDB TOCID: RXdWHz6Goc2UYCnIOt9309GXhgo-] found.Track | CTDB Status  1   | (15/15) Accurately ripped  2   | (15/15) Accurately ripped  3   | (15/15) Accurately ripped  4   | (15/15) Accurately ripped  5   | (15/15) Accurately ripped  6   | (15/15) Accurately ripped  7   | (15/15) Accurately ripped  8   | (15/15) Accurately ripped  9   | (15/15) Accurately ripped 10   | (15/15) Accurately ripped 11   | (15/15) Accurately ripped 12   | (15/15) Accurately ripped 13   | (15/15) Accurately ripped 14   | (15/15) Accurately ripped 15   | (15/15) Accurately ripped 16   | (15/15) Accurately ripped 17   | (15/15) Accurately ripped 18   | (15/15) Accurately ripped 19   | (15/15) Accurately ripped 20   | (15/15) Accurately ripped 21   | (15/15) Accurately ripped 22   | (15/15) Accurately ripped 23   | (15/15) Accurately ripped[AccurateRip ID: 00421465-0441f353-5e12a817] found.Track   [  CRC   |   V2   ] Status 01     [3a70c791|024cbe4c] (06+07/19) Accurately ripped 02     [6c709087|31c64560] (06+07/21) Accurately ripped 03     [c2193e3c|2ba8a4e7] (06+07/19) Accurately ripped 04     [17f91e6f|98ccf370] (07+07/20) Accurately ripped 05     [8792f7d3|48723fbb] (06+07/19) Accurately ripped 06     [d1ed6430|28478ead] (06+07/19) Accurately ripped 07     [5c18d1b2|43d1f998] (06+07/21) Accurately ripped 08     [5eb86567|5281abdb] (07+07/22) Accurately ripped 09     [85ef4529|8a5b0234] (06+07/19) Accurately ripped 10     [70744b1e|83489d80] (06+07/21) Accurately ripped 11     [04cce681|921247ef] (07+07/20) Accurately ripped 12     [161557db|5d11ddf1] (06+07/21) Accurately ripped 13     [7c522134|e31c7157] (06+07/21) Accurately ripped 14     [a14434e6|e5205adc] (06+07/19) Accurately ripped 15     [c088cb0c|c869da7a] (06+07/21) Accurately ripped 16     [4a9f9fbb|fc4f94d2] (08+07/21) Accurately ripped 17     [39d18eca|ee9422db] (07+07/20) Accurately ripped 18     [63e5b04a|f10e62c6] (08+07/21) Accurately ripped 19     [821cd4fd|fde5d288] (07+07/20) Accurately ripped 20     [36d6c088|bffd0e5c] (07+07/22) Accurately ripped 21     [dcba9911|91451691] (05+07/20) Accurately ripped 22     [4485e8ba|7493ef36] (06+07/19) Accurately ripped 23     [e0faf77e|71222bec] (06+08/20) Accurately rippedOffsetted by -294: 01     [839d6f57] (00/19) No match (V2 was not tested) 02     [8f2dc84e] (02/21) Accurately ripped 03     [f9c66bbb] (00/19) No match (V2 was not tested) 04     [971f7011] (00/20) No match (V2 was not tested) 05     [bd172256] (00/19) No match (V2 was not tested) 06     [811309dc] (00/19) No match (V2 was not tested) 07     [a5d627b5] (02/21) Accurately ripped 08     [07fc8407] (02/22) Accurately ripped 09     [0fe6a681] (00/19) No match (V2 was not tested) 10     [3107730b] (02/21) Accurately ripped 11     [379504f1] (00/20) No match (V2 was not tested) 12     [626638b3] (02/21) Accurately ripped 13     [bc92c803] (02/21) Accurately ripped 14     [a3d021ab] (00/19) No match (V2 was not tested) 15     [39a482a1] (02/21) Accurately ripped 16     [5bae60d1] (00/21) No match (V2 was not tested) 17     [04908b2c] (00/20) No match (V2 was not tested) 18     [ccc6fa9f] (00/21) No match (V2 was not tested) 19     [99859737] (00/20) No match (V2 was not tested) 20     [0cc27b3b] (02/22) Accurately ripped 21     [40a9fa79] (02/20) Accurately ripped 22     [a99fa984] (00/19) No match (V2 was not tested) 23     [08600c25] (00/20) No match (V2 was not tested)
Track Peak [ CRC32 ] [W/O NULL] [ LOG ] -- 99,9 [CDA67D39] [4504CD67] 01 95,6 [077157AE] [CDF872AC] CRC32 02 99,9 [E7399C18] [647B178A] CRC32 03 99,2 [8FAFA5C1] [0B270113] CRC32 04 99,9 [46A2E3E5] [A20AE984] CRC32 05 99,9 [E3A044A6] [F7ADB4F4] CRC32 06 99,9 [33F2DD0C] [195C1E33] CRC32 07 97,7 [2364FBFD] [F65BA397] CRC32 08 99,9 [67674266] [E69EBE79] CRC32 09 99,9 [D341B6AB] [258640BB] CRC32 10 99,9 [38ADFAE9] [D492C8F5] CRC32 11 99,9 [4088DD3C] [60AB534A] CRC32 12 99,9 [E9B0B65E] [6C8F9084] CRC32 13 99,9 [7431A31F] [CEBF634F] CRC32 14 99,9 [52086DCD] [5065B327] CRC32 15 99,9 [BC4A7DBD] [D3BA8A57] CRC32 16 99,9 [B81BED63] [49D99E56] CRC32 17 99,9 [1884DCB3] [3C716361] CRC32 18 99,9 [2F12FDDC] [B946C229] CRC32 19 99,9 [51F024CF] [8422FE02] CRC32 20 99,9 [A2F8431C] [B46B7D87] CRC32 21 99,9 [5945867F] [C2D93514] CRC32 22 99,9 [6D82A091] [3BB5C96E] CRC32 23 99,9 [40064C01] [D5C33A24] CRC32
Вы не можете начинать темы
Вы не можете отвечать на сообщения
Вы не можете редактировать свои сообщения
Вы не можете удалять свои сообщения
Вы не можете голосовать в опросах
Вы не можете прикреплять файлы к сообщениям
Вы можете скачивать файлы
!ВНИМАНИЕ!

Сайт не предоставляет электронные версии произведений, а занимается лишь коллекционированием и каталогизацией ссылок, присылаемых и публикуемых на форуме нашими читателями. Если вы являетесь правообладателем какого-либо представленного материала и не желаете, чтобы ссылка на него находилась в нашем каталоге, свяжитесь с нами, и мы незамедлительно удалим ее. Файлы для обмена на трекере предоставлены пользователями сайта, и администрация не несет ответственности за их содержание. Просьба не заливать файлы, защищенные авторскими правами, а также файлы нелегального содержания!

Искали программы, игры, дополнения, музыка mp3, аниме, аудио книги, журналы? Добро пожаловать на свободный торрент трекер Torrents, у нас можно скачать бесплатно, без смс и регистрации и прочих ограничений лучшие, отборные сборки программ, игр. Скачать торрентом не составит труда даже не опытному пользователю. Раздачи ежедневно обновляются, только лучшие и качественные раздачи, подробные описания и скриншоты. Огромная коллекция программ для работы со звуком, графикой, дизайном, а так же множество плагинов и инструментов к ним с подробной инструкцией и рекомендациями. Прошивки для навигаторов, карты. Разнообразные игры, для Windows, Linux. В коллекцие есть и старые игры любых жанров, Rpg, Action, Shooter, strategy Множество дополнений, модификаций, сценариев для популярных игр в жанре экш, рпг, гонки, стратегии, логические игры. Множество аддонов и сценариев для Microsoft Flight Simulator Большая коллекция книг, учебников. Если нет возможности купить печатное издание - смело скачивайте цифровую версию книги или, быть может, журнала. Не любите читать - можно загрузить бесплатно аудикнигу. Для веб дизайнеров и программистов так же найдется множество специализированного софта, таких как: редакторы с подсветкой, среды программирования, компоненты, системы управления базами данных, разнообразные скрипты и шаблоны. Не так давно у нас появился материал для автолюбителей и владельцев мото - оригинальные и неоригинальные каталоги запчастей, книги и журналы по ремонту и обслуживанию, видеоуроки, статьи по чип тюнингу, прошивкам. Процедура получения контента элементарная, достаточно просто скачать торрент файл и добавить его в загрузку в вашем торрент клиенте. Если у вас нет специального торрент клиента, вы можете его скачать у нас.

6 Pregnancy Test Ultra Early 10mIU Home Urine Kits SHIPPED DAILY! One Step® | Women, Sex, Power, and Pleasure: Getting the Life (and Sex) You Want | TuneUp Utilities 2010