(Soft Rock) [CD] VA - 100 Hits The Best Soft Rock Album (5CD) - 2018, FLAC (tracks+.cue), lossless 

Цитировать
100 Hits The Best Soft Rock Album (5CD)
Жанр: Soft Rock, Hard Rock
Носитель: CD
Страна-производитель диска (релиза): UK
Год издания: 2018
Издатель (лейбл): Demon Music Group Ltd
Номер по каталогу: DMGN 100 220
Аудиокодек: FLAC (*.flac)
Тип рипа: tracks+.cue
Битрейт аудио: lossless
Продолжительность: 06:38:18
Источник (релизер): PsPBuRnOuT
Наличие сканов в содержимом раздачи: да

CD1

Треклист:
01. Eric Carmen - Hungry Eyes (3:49)
02. Belinda Carlisle - Leave A Light On (4:16)
03. Cyndi Lauper - I Drove All Night (4:12)
04. Bonnie Tyler - Holding Out For A Hero (4:22)
05. Meat Loaf - You Took The Words Right Out Of My Mouth (4:13)
06. John Farnham - You're The Voice (3:58)
07. Kenny Loggins - Playing With The Boys (4:00)
08. Men At Work - Overkill (3:46)
09. Mr. Mister - Broken Wings (4:24)
10. Bruce Hornsby & The Range - The Way It Is (3:59)
11. Deacon Blue - Dignity (4:00)
12. Cock Robin - The Promise You Made (3:54)
13. Scandal Feat. Patty Smyth - The Warrior (3:59)
14. Judas Priest - Take On The World (3:02)
15. Martika - Toy Soldiers (4:20)
16. Air Supply - Making Love (Out Of Nothing At All) (3:40)
17. Daryl Hall & John Oates - Private Eyes (3:28)
18. Prefab Sprout - Cars And Girls (4:27)
19. The Bangles - Manic Monday (3:05)
20. Gloria Estefan - Don't Wanna Lose You (4:08)
Duration: 01:19:03

Отчёт EAC

Exact Audio Copy V1.3 from 2. September 2016
EAC extraction logfile from 6. August 2018, 19:26
Various / 100 Hits - The Best - Soft Rock Album - CD1
Used drive : ATAPI iHAS124 Y Adapter: 1 ID: 0
Read mode : SecureUtilize accurate stream : YesDefeat audio cache : NoMake use of C2 pointers : Yes
Read offset correction : 48Overread into Lead-In and Lead-Out : NoFill up missing offset samples with silence : YesDelete leading and trailing silent blocks : NoNull samples used in CRC calculations : YesUsed interface : Native Win32 interface for Win NT & 2000Gap handling : Not detected, thus appended to previous track
Used output format : User Defined EncoderSelected bitrate : 896 kBit/sQuality : HighAdd ID3 tag : NoCommand line compressor : C:\Program Files (x86)\Exact Audio Copy\FLAC\FLAC.EXEAdditional command line options : -6 -V -T "ARTIST=%artist%" -T "TITLE=%title%" -T "ALBUM=%albumtitle%" -T "DATE=%year%" -T "TRACKNUMBER=%tracknr%" -T "GENRE=%genre%" -T "COMMENT=%comment%" -T "BAND=%albuminterpret%" -T "ALBUMARTIST=%albuminterpret%" -T "COMPOSER=%composer%" %haslyrics%--tag-from-file=LYRICS="%lyricsfile%"%haslyrics% -T "DISCNUMBER=%cdnumber%" -T "TOTALDISCS=%totalcds%" -T "TOTALTRACKS=%numtracks%" %hascover%--picture="%coverfile%"%hascover% %source% -o %dest%
TOC of the extracted CD
Track | Start | Length | Start sector | End sector --------------------------------------------------------- 1 | 0:00.00 | 3:48.68 | 0 | 17167 2 | 3:48.68 | 4:16.07 | 17168 | 36374 3 | 8:05.00 | 4:12.07 | 36375 | 55281 4 | 12:17.07 | 4:21.47 | 55282 | 74903 5 | 16:38.54 | 4:12.74 | 74904 | 93877 6 | 20:51.53 | 3:58.15 | 93878 | 111742 7 | 24:49.68 | 4:00.20 | 111743 | 129762 8 | 28:50.13 | 3:46.24 | 129763 | 146736 9 | 32:36.37 | 4:23.46 | 146737 | 166507 10 | 37:00.08 | 3:59.35 | 166508 | 184467 11 | 40:59.43 | 4:00.09 | 184468 | 202476 12 | 44:59.52 | 3:54.34 | 202477 | 220060 13 | 48:54.11 | 3:59.06 | 220061 | 237991 14 | 52:53.17 | 3:01.45 | 237992 | 251611 15 | 55:54.62 | 4:19.64 | 251612 | 271100 16 | 60:14.51 | 3:40.18 | 271101 | 287618 17 | 63:54.69 | 3:28.19 | 287619 | 303237 18 | 67:23.13 | 4:27.06 | 303238 | 323268 19 | 71:50.19 | 3:04.46 | 323269 | 337114 20 | 74:54.65 | 4:08.19 | 337115 | 355733
Track 1
Filename A:\PsPBuRnOuT's MUSIC\100 HITS\- 100 HITS - THE BEST -\100 HITS - THE BEST - SOFT ROCK ALBUM\100 HITS - THE BEST - SOFT ROCK ALBUM - CD1\01.Eric Carmen - Hungry Eyes.wav
Peak level 94.4 % Extraction speed 9.5 X Track quality 100.0 % Copy CRC D1B9C13F Track not present in AccurateRip database Copy OK
Track 2
Filename A:\PsPBuRnOuT's MUSIC\100 HITS\- 100 HITS - THE BEST -\100 HITS - THE BEST - SOFT ROCK ALBUM\100 HITS - THE BEST - SOFT ROCK ALBUM - CD1\02.Belinda Carlisle - Leave A Light On.wav
Peak level 94.3 % Extraction speed 10.5 X Track quality 100.0 % Copy CRC 6641FB2A Track not present in AccurateRip database Copy OK
Track 3
Filename A:\PsPBuRnOuT's MUSIC\100 HITS\- 100 HITS - THE BEST -\100 HITS - THE BEST - SOFT ROCK ALBUM\100 HITS - THE BEST - SOFT ROCK ALBUM - CD1\03.Cyndi Lauper - I Drove All Night.wav
Peak level 85.1 % Extraction speed 11.3 X Track quality 99.9 % Copy CRC DC9D3A50 Track not present in AccurateRip database Copy OK
Track 4
Filename A:\PsPBuRnOuT's MUSIC\100 HITS\- 100 HITS - THE BEST -\100 HITS - THE BEST - SOFT ROCK ALBUM\100 HITS - THE BEST - SOFT ROCK ALBUM - CD1\04.Bonnie Tyler - Holding Out For A Hero.wav
Peak level 85.1 % Extraction speed 9.4 X Track quality 99.6 % Copy CRC B87E55A7 Track not present in AccurateRip database Copy OK
Track 5
Filename A:\PsPBuRnOuT's MUSIC\100 HITS\- 100 HITS - THE BEST -\100 HITS - THE BEST - SOFT ROCK ALBUM\100 HITS - THE BEST - SOFT ROCK ALBUM - CD1\05.Meat Loaf - You Took The Words Right Out Of My Mouth.wav
Peak level 84.1 % Extraction speed 10.6 X Track quality 99.8 % Copy CRC A5F11EED Track not present in AccurateRip database Copy OK
Track 6
Filename A:\PsPBuRnOuT's MUSIC\100 HITS\- 100 HITS - THE BEST -\100 HITS - THE BEST - SOFT ROCK ALBUM\100 HITS - THE BEST - SOFT ROCK ALBUM - CD1\06.John Farnham - You're The Voice.wav
Peak level 80.2 % Extraction speed 7.2 X Track quality 99.5 % Copy CRC 083D2AE2 Track not present in AccurateRip database Copy OK
Track 7
Filename A:\PsPBuRnOuT's MUSIC\100 HITS\- 100 HITS - THE BEST -\100 HITS - THE BEST - SOFT ROCK ALBUM\100 HITS - THE BEST - SOFT ROCK ALBUM - CD1\07.Kenny Loggins - Playing With The Boys.wav
Peak level 91.1 % Extraction speed 8.1 X Track quality 99.5 % Copy CRC 36A76226 Track not present in AccurateRip database Copy OK
Track 8
Filename A:\PsPBuRnOuT's MUSIC\100 HITS\- 100 HITS - THE BEST -\100 HITS - THE BEST - SOFT ROCK ALBUM\100 HITS - THE BEST - SOFT ROCK ALBUM - CD1\08.Men At Work - Overkill.wav
Peak level 81.2 % Extraction speed 12.9 X Track quality 99.7 % Copy CRC 2CC05166 Track not present in AccurateRip database Copy OK
Track 9
Filename A:\PsPBuRnOuT's MUSIC\100 HITS\- 100 HITS - THE BEST -\100 HITS - THE BEST - SOFT ROCK ALBUM\100 HITS - THE BEST - SOFT ROCK ALBUM - CD1\09.Mr. Mister - Broken Wings.wav
Peak level 89.5 % Extraction speed 11.9 X Track quality 99.6 % Copy CRC B738B2BC Track not present in AccurateRip database Copy OK
Track 10
Filename A:\PsPBuRnOuT's MUSIC\100 HITS\- 100 HITS - THE BEST -\100 HITS - THE BEST - SOFT ROCK ALBUM\100 HITS - THE BEST - SOFT ROCK ALBUM - CD1\10.Bruce Hornsby & The Range - The Way It Is.wav
Peak level 86.6 % Extraction speed 13.6 X Track quality 99.7 % Copy CRC DD0FB157 Track not present in AccurateRip database Copy OK
Track 11
Filename A:\PsPBuRnOuT's MUSIC\100 HITS\- 100 HITS - THE BEST -\100 HITS - THE BEST - SOFT ROCK ALBUM\100 HITS - THE BEST - SOFT ROCK ALBUM - CD1\11.Deacon Blue - Dignity.wav
Peak level 85.1 % Extraction speed 13.2 X Track quality 99.6 % Copy CRC 018315AE Track not present in AccurateRip database Copy OK
Track 12
Filename A:\PsPBuRnOuT's MUSIC\100 HITS\- 100 HITS - THE BEST -\100 HITS - THE BEST - SOFT ROCK ALBUM\100 HITS - THE BEST - SOFT ROCK ALBUM - CD1\12.Cock Robin - The Promise You Made.wav
Peak level 94.3 % Extraction speed 13.8 X Track quality 99.7 % Copy CRC B5ABCBC0 Track not present in AccurateRip database Copy OK
Track 13
Filename A:\PsPBuRnOuT's MUSIC\100 HITS\- 100 HITS - THE BEST -\100 HITS - THE BEST - SOFT ROCK ALBUM\100 HITS - THE BEST - SOFT ROCK ALBUM - CD1\13.Scandal Feat. Patty Smyth - The Warrior.wav
Peak level 83.1 % Extraction speed 11.8 X Track quality 99.8 % Copy CRC 69F4E4BE Track not present in AccurateRip database Copy OK
Track 14
Filename A:\PsPBuRnOuT's MUSIC\100 HITS\- 100 HITS - THE BEST -\100 HITS - THE BEST - SOFT ROCK ALBUM\100 HITS - THE BEST - SOFT ROCK ALBUM - CD1\14.Judas Priest - Take On The World.wav
Peak level 85.1 % Extraction speed 13.8 X Track quality 99.5 % Copy CRC F0E83813 Track not present in AccurateRip database Copy OK
Track 15
Filename A:\PsPBuRnOuT's MUSIC\100 HITS\- 100 HITS - THE BEST -\100 HITS - THE BEST - SOFT ROCK ALBUM\100 HITS - THE BEST - SOFT ROCK ALBUM - CD1\15.Martika - Toy Soldiers.wav
Peak level 85.1 % Extraction speed 16.3 X Track quality 99.9 % Copy CRC BEF00DE8 Track not present in AccurateRip database Copy OK
Track 16
Filename A:\PsPBuRnOuT's MUSIC\100 HITS\- 100 HITS - THE BEST -\100 HITS - THE BEST - SOFT ROCK ALBUM\100 HITS - THE BEST - SOFT ROCK ALBUM - CD1\16.Air Supply - Making Love (Out Of Nothing At All).wav
Peak level 77.6 % Extraction speed 15.5 X Track quality 99.7 % Copy CRC 93545C06 Track not present in AccurateRip database Copy OK
Track 17
Filename A:\PsPBuRnOuT's MUSIC\100 HITS\- 100 HITS - THE BEST -\100 HITS - THE BEST - SOFT ROCK ALBUM\100 HITS - THE BEST - SOFT ROCK ALBUM - CD1\17.Daryl Hall & John Oates - Private Eyes.wav
Peak level 91.1 % Extraction speed 16.2 X Track quality 99.8 % Copy CRC 84BB5B3E Track not present in AccurateRip database Copy OK
Track 18
Filename A:\PsPBuRnOuT's MUSIC\100 HITS\- 100 HITS - THE BEST -\100 HITS - THE BEST - SOFT ROCK ALBUM\100 HITS - THE BEST - SOFT ROCK ALBUM - CD1\18.Prefab Sprout - Cars And Girls.wav
Peak level 82.6 % Extraction speed 18.6 X Track quality 99.9 % Copy CRC 994800B2 Track not present in AccurateRip database Copy OK
Track 19
Filename A:\PsPBuRnOuT's MUSIC\100 HITS\- 100 HITS - THE BEST -\100 HITS - THE BEST - SOFT ROCK ALBUM\100 HITS - THE BEST - SOFT ROCK ALBUM - CD1\19.The Bangles - Manic Monday.wav
Peak level 94.3 % Extraction speed 19.5 X Track quality 100.0 % Copy CRC CED2DB93 Track not present in AccurateRip database Copy OK
Track 20
Filename A:\PsPBuRnOuT's MUSIC\100 HITS\- 100 HITS - THE BEST -\100 HITS - THE BEST - SOFT ROCK ALBUM\100 HITS - THE BEST - SOFT ROCK ALBUM - CD1\20.Gloria Estefan - Don't Wanna Lose You.wav
Peak level 94.3 % Extraction speed 18.3 X Track quality 99.9 % Copy CRC C5BE87B6 Track not present in AccurateRip database Copy OK
None of the tracks are present in the AccurateRip database
No errors occurred
End of status report
---- CUETools DB Plugin V2.1.6
[CTDB TOCID: ZFqomGiCCpzEWR67lUyu5gIuS_A-] foundSubmit result: ZFqomGiCCpzEWR67lUyu5gIuS_A- has been confirmedTrack | CTDB Status 1 | (1/1) Accurately ripped 2 | (1/1) Accurately ripped 3 | (1/1) Accurately ripped 4 | (1/1) Accurately ripped 5 | (1/1) Accurately ripped 6 | (1/1) Accurately ripped 7 | (1/1) Accurately ripped 8 | (1/1) Accurately ripped 9 | (1/1) Accurately ripped 10 | (1/1) Accurately ripped 11 | (1/1) Accurately ripped 12 | (1/1) Accurately ripped 13 | (1/1) Accurately ripped 14 | (1/1) Accurately ripped 15 | (1/1) Accurately ripped 16 | (1/1) Accurately ripped 17 | (1/1) Accurately ripped 18 | (1/1) Accurately ripped 19 | (1/1) Accurately ripped 20 | (1/1) Accurately ripped

Содержание индексной карты (.CUE)

REM GENRE RockREM DATE 2018REM DISCID 13128714REM DISCNUMBER 01REM TOTALDISCS 05REM COMMENT "Exact Audio Copy V1.3"PERFORMER "Various"TITLE "100 Hits - The Best - Soft Rock Album - CD1"FILE "01.Eric Carmen - Hungry Eyes.flac" WAVE  TRACK 01 AUDIO    PERFORMER "Eric Carmen"    TITLE "Hungry Eyes"    INDEX 01 00:00:00FILE "02.Belinda Carlisle - Leave A Light On.flac" WAVE  TRACK 02 AUDIO    PERFORMER "Belinda Carlisle"    TITLE "Leave A Light On"    INDEX 01 00:00:00FILE "03.Cyndi Lauper - I Drove All Night.flac" WAVE  TRACK 03 AUDIO    PERFORMER "Cyndi Lauper"    TITLE "I Drove All Night"    INDEX 01 00:00:00FILE "04.Bonnie Tyler - Holding Out For A Hero.flac" WAVE  TRACK 04 AUDIO    PERFORMER "Bonnie Tyler"    TITLE "Holding Out For A Hero"    INDEX 01 00:00:00FILE "05.Meat Loaf - You Took The Words Right Out Of My Mouth.flac" WAVE  TRACK 05 AUDIO    PERFORMER "Meat Loaf"    TITLE "You Took The Words Right Out Of My Mouth"    INDEX 01 00:00:00FILE "06.John Farnham - You're The Voice.flac" WAVE  TRACK 06 AUDIO    PERFORMER "John Farnham"    TITLE "You're The Voice"    INDEX 01 00:00:00FILE "07.Kenny Loggins - Playing With The Boys.flac" WAVE  TRACK 07 AUDIO    PERFORMER "Kenny Loggins"    TITLE "Playing With The Boys"    INDEX 01 00:00:00FILE "08.Men At Work - Overkill.flac" WAVE  TRACK 08 AUDIO    PERFORMER "Men At Work"    TITLE "Overkill"    INDEX 01 00:00:00FILE "09.Mr. Mister - Broken Wings.flac" WAVE  TRACK 09 AUDIO    PERFORMER "Mr. Mister"    TITLE "Broken Wings"    INDEX 01 00:00:00FILE "10.Bruce Hornsby & The Range - The Way It Is.flac" WAVE  TRACK 10 AUDIO    PERFORMER "Bruce Hornsby & The Range"    TITLE "The Way It Is"    INDEX 01 00:00:00FILE "11.Deacon Blue - Dignity.flac" WAVE  TRACK 11 AUDIO    PERFORMER "Deacon Blue"    TITLE "Dignity"    INDEX 01 00:00:00FILE "12.Cock Robin - The Promise You Made.flac" WAVE  TRACK 12 AUDIO    PERFORMER "Cock Robin"    TITLE "The Promise You Made"    INDEX 01 00:00:00FILE "13.Scandal Feat. Patty Smyth - The Warrior.flac" WAVE  TRACK 13 AUDIO    PERFORMER "Scandal Feat. Patty Smyth"    TITLE "The Warrior"    INDEX 01 00:00:00FILE "14.Judas Priest - Take On The World.flac" WAVE  TRACK 14 AUDIO    PERFORMER "Judas Priest"    TITLE "Take On The World"    INDEX 01 00:00:00FILE "15.Martika - Toy Soldiers.flac" WAVE  TRACK 15 AUDIO    PERFORMER "Martika"    TITLE "Toy Soldiers"    INDEX 01 00:00:00FILE "16.Air Supply - Making Love (Out Of Nothing At All).flac" WAVE  TRACK 16 AUDIO    PERFORMER "Air Supply"    TITLE "Making Love (Out Of Nothing At All)"    INDEX 01 00:00:00FILE "17.Daryl Hall & John Oates - Private Eyes.flac" WAVE  TRACK 17 AUDIO    PERFORMER "Daryl Hall & John Oates"    TITLE "Private Eyes"    INDEX 01 00:00:00FILE "18.Prefab Sprout - Cars And Girls.flac" WAVE  TRACK 18 AUDIO    PERFORMER "Prefab Sprout"    TITLE "Cars And Girls"    INDEX 01 00:00:00FILE "19.The Bangles - Manic Monday.flac" WAVE  TRACK 19 AUDIO    PERFORMER "The Bangles"    TITLE "Manic Monday"    INDEX 01 00:00:00FILE "20.Gloria Estefan - Don't Wanna Lose You.flac" WAVE  TRACK 20 AUDIO    PERFORMER "Gloria Estefan"    TITLE "Don't Wanna Lose You"    INDEX 01 00:00:00

CD2

Треклист:
01. REO Speedwagon - Keep On Loving You (3:22)
02. Meat Loaf - Two Out Of Three Ain't Bad (4:47)
03. Survivor - Burning Heart (3:51)
04. The Alan Parsons Project - Eye In The Sky (4:28)
05. Air Supply - All Out Of Love (3:53)
06. Cheap Trick - The Flame (4:48)
07. Eric Carmen - All By Myself (4:30)
08. Harry Nilsson - Without You (3:21)
09. Bonnie Tyler - Total Eclipse Of The Heart (4:31)
10. Bruce Hornsby & The Range - Mandolin Rain (5:19)
11. Albert Hammond - The Free Electric Band (3:25)
12. Boz Scaggs - Lido Shuffle (3:42)
13. Patti Smith Group - Because The Night (3:23)
14. Mott The Hoople - Roll Away The Stone (3:10)
15. Paul Young - Everything Must Change (4:39)
16. Deacon Blue - When Will You (Make My Telephone Ring)? (4:21)
17. Kansas - Dust In The Wind (3:26)
18. Chicken Shack - I'd Rather Go Blind (3:16)
19. Fleetwood Mac - Need Your Love So Bad (3:52)
20. Status Quo - Don't Stop (3:40)
Duration: 01:19:42

Отчёт EAC

Exact Audio Copy V1.3 from 2. September 2016
EAC extraction logfile from 8. August 2018, 23:31
Various / 100 Hits - The Best - Soft Rock Album - CD2
Used drive : ATAPI iHAS124 Y Adapter: 1 ID: 0
Read mode : SecureUtilize accurate stream : YesDefeat audio cache : NoMake use of C2 pointers : Yes
Read offset correction : 48Overread into Lead-In and Lead-Out : NoFill up missing offset samples with silence : YesDelete leading and trailing silent blocks : NoNull samples used in CRC calculations : YesUsed interface : Native Win32 interface for Win NT & 2000Gap handling : Not detected, thus appended to previous track
Used output format : User Defined EncoderSelected bitrate : 896 kBit/sQuality : HighAdd ID3 tag : NoCommand line compressor : C:\Program Files (x86)\Exact Audio Copy\FLAC\FLAC.EXEAdditional command line options : -6 -V -T "ARTIST=%artist%" -T "TITLE=%title%" -T "ALBUM=%albumtitle%" -T "DATE=%year%" -T "TRACKNUMBER=%tracknr%" -T "GENRE=%genre%" -T "COMMENT=%comment%" -T "BAND=%albuminterpret%" -T "ALBUMARTIST=%albuminterpret%" -T "COMPOSER=%composer%" %haslyrics%--tag-from-file=LYRICS="%lyricsfile%"%haslyrics% -T "DISCNUMBER=%cdnumber%" -T "TOTALDISCS=%totalcds%" -T "TOTALTRACKS=%numtracks%" %hascover%--picture="%coverfile%"%hascover% %source% -o %dest%
TOC of the extracted CD
Track | Start | Length | Start sector | End sector --------------------------------------------------------- 1 | 0:00.00 | 3:21.49 | 0 | 15123 2 | 3:21.49 | 4:47.25 | 15124 | 36673 3 | 8:08.74 | 3:50.69 | 36674 | 53992 4 | 11:59.68 | 4:27.64 | 53993 | 74081 5 | 16:27.57 | 3:53.08 | 74082 | 91564 6 | 20:20.65 | 4:47.49 | 91565 | 113138 7 | 25:08.39 | 4:30.22 | 113139 | 133410 8 | 29:38.61 | 3:21.17 | 133411 | 148502 9 | 33:00.03 | 4:30.43 | 148503 | 168795 10 | 37:30.46 | 5:18.38 | 168796 | 192683 11 | 42:49.09 | 3:25.19 | 192684 | 208077 12 | 46:14.28 | 3:42.07 | 208078 | 224734 13 | 49:56.35 | 3:22.66 | 224735 | 239950 14 | 53:19.26 | 3:10.28 | 239951 | 254228 15 | 56:29.54 | 4:39.08 | 254229 | 275161 16 | 61:08.62 | 4:20.46 | 275162 | 294707 17 | 65:29.33 | 3:25.55 | 294708 | 310137 18 | 68:55.13 | 3:15.45 | 310138 | 324807 19 | 72:10.58 | 3:52.07 | 324808 | 342214 20 | 76:02.65 | 3:39.46 | 342215 | 358685
Track 1
Filename A:\PsPBuRnOuT's MUSIC\100 HITS\- 100 HITS - THE BEST -\100 HITS - THE BEST - SOFT ROCK ALBUM\100 HITS - THE BEST - SOFT ROCK ALBUM - CD2\01.REO Speedwagon - Keep On Loving You.wav
Peak level 85.1 % Extraction speed 9.1 X Track quality 100.0 % Copy CRC 0F33EE29 Track not present in AccurateRip database Copy OK
Track 2
Filename A:\PsPBuRnOuT's MUSIC\100 HITS\- 100 HITS - THE BEST -\100 HITS - THE BEST - SOFT ROCK ALBUM\100 HITS - THE BEST - SOFT ROCK ALBUM - CD2\02.Meat Loaf - Two Out Of Three Ain't Bad.wav
Peak level 94.3 % Extraction speed 10.5 X Track quality 100.0 % Copy CRC 970393E2 Track not present in AccurateRip database Copy OK
Track 3
Filename A:\PsPBuRnOuT's MUSIC\100 HITS\- 100 HITS - THE BEST -\100 HITS - THE BEST - SOFT ROCK ALBUM\100 HITS - THE BEST - SOFT ROCK ALBUM - CD2\03.Survivor - Burning Heart.wav
Peak level 91.1 % Extraction speed 11.4 X Track quality 100.0 % Copy CRC F2317FF1 Track not present in AccurateRip database Copy OK
Track 4
Filename A:\PsPBuRnOuT's MUSIC\100 HITS\- 100 HITS - THE BEST -\100 HITS - THE BEST - SOFT ROCK ALBUM\100 HITS - THE BEST - SOFT ROCK ALBUM - CD2\04.The Alan Parsons Project - Eye In The Sky.wav
Peak level 94.4 % Extraction speed 12.2 X Track quality 100.0 % Copy CRC 1CE650E4 Track not present in AccurateRip database Copy OK
Track 5
Filename A:\PsPBuRnOuT's MUSIC\100 HITS\- 100 HITS - THE BEST -\100 HITS - THE BEST - SOFT ROCK ALBUM\100 HITS - THE BEST - SOFT ROCK ALBUM - CD2\05.Air Supply - All Out Of Love.wav
Peak level 94.4 % Extraction speed 12.5 X Track quality 100.0 % Copy CRC 73C9722E Track not present in AccurateRip database Copy OK
Track 6
Filename A:\PsPBuRnOuT's MUSIC\100 HITS\- 100 HITS - THE BEST -\100 HITS - THE BEST - SOFT ROCK ALBUM\100 HITS - THE BEST - SOFT ROCK ALBUM - CD2\06.Cheap Trick - The Flame.wav
Peak level 94.3 % Extraction speed 13.2 X Track quality 100.0 % Copy CRC 55027462 Track not present in AccurateRip database Copy OK
Track 7
Filename A:\PsPBuRnOuT's MUSIC\100 HITS\- 100 HITS - THE BEST -\100 HITS - THE BEST - SOFT ROCK ALBUM\100 HITS - THE BEST - SOFT ROCK ALBUM - CD2\07.Eric Carmen - All By Myself.wav
Peak level 80.4 % Extraction speed 14.6 X Track quality 100.0 % Copy CRC 2619DC71 Track not present in AccurateRip database Copy OK
Track 8
Filename A:\PsPBuRnOuT's MUSIC\100 HITS\- 100 HITS - THE BEST -\100 HITS - THE BEST - SOFT ROCK ALBUM\100 HITS - THE BEST - SOFT ROCK ALBUM - CD2\08.Harry Nilsson - Without You.wav
Peak level 91.1 % Extraction speed 15.2 X Track quality 100.0 % Copy CRC 747C5E8D Track not present in AccurateRip database Copy OK
Track 9
Filename A:\PsPBuRnOuT's MUSIC\100 HITS\- 100 HITS - THE BEST -\100 HITS - THE BEST - SOFT ROCK ALBUM\100 HITS - THE BEST - SOFT ROCK ALBUM - CD2\09.Bonnie Tyler - Total Eclipse Of The Heart.wav
Peak level 75.8 % Extraction speed 15.2 X Track quality 100.0 % Copy CRC 34679E0B Track not present in AccurateRip database Copy OK
Track 10
Filename A:\PsPBuRnOuT's MUSIC\100 HITS\- 100 HITS - THE BEST -\100 HITS - THE BEST - SOFT ROCK ALBUM\100 HITS - THE BEST - SOFT ROCK ALBUM - CD2\10.Bruce Hornsby & The Range - Mandolin Rain.wav
Peak level 94.3 % Extraction speed 16.2 X Track quality 100.0 % Copy CRC D81B6797 Track not present in AccurateRip database Copy OK
Track 11
Filename A:\PsPBuRnOuT's MUSIC\100 HITS\- 100 HITS - THE BEST -\100 HITS - THE BEST - SOFT ROCK ALBUM\100 HITS - THE BEST - SOFT ROCK ALBUM - CD2\11.Albert Hammond - The Free Electric Band.wav
Peak level 94.3 % Extraction speed 16.2 X Track quality 100.0 % Copy CRC CF1F121C Track not present in AccurateRip database Copy OK
Track 12
Filename A:\PsPBuRnOuT's MUSIC\100 HITS\- 100 HITS - THE BEST -\100 HITS - THE BEST - SOFT ROCK ALBUM\100 HITS - THE BEST - SOFT ROCK ALBUM - CD2\12.Boz Scaggs - Lido Shuffle.wav
Peak level 71.6 % Extraction speed 15.7 X Track quality 99.9 % Copy CRC 1A471070 Track not present in AccurateRip database Copy OK
Track 13
Filename A:\PsPBuRnOuT's MUSIC\100 HITS\- 100 HITS - THE BEST -\100 HITS - THE BEST - SOFT ROCK ALBUM\100 HITS - THE BEST - SOFT ROCK ALBUM - CD2\13.Patti Smith Group - Because The Night.wav
Peak level 82.9 % Extraction speed 17.5 X Track quality 100.0 % Copy CRC 24B22F40 Track not present in AccurateRip database Copy OK
Track 14
Filename A:\PsPBuRnOuT's MUSIC\100 HITS\- 100 HITS - THE BEST -\100 HITS - THE BEST - SOFT ROCK ALBUM\100 HITS - THE BEST - SOFT ROCK ALBUM - CD2\14.Mott The Hoople - Roll Away The Stone.wav
Peak level 85.1 % Extraction speed 18.6 X Track quality 100.0 % Copy CRC 4F54D2F9 Track not present in AccurateRip database Copy OK
Track 15
Filename A:\PsPBuRnOuT's MUSIC\100 HITS\- 100 HITS - THE BEST -\100 HITS - THE BEST - SOFT ROCK ALBUM\100 HITS - THE BEST - SOFT ROCK ALBUM - CD2\15.Paul Young - Everything Must Change.wav
Peak level 94.3 % Extraction speed 17.1 X Track quality 100.0 % Copy CRC 86137F74 Track not present in AccurateRip database Copy OK
Track 16
Filename A:\PsPBuRnOuT's MUSIC\100 HITS\- 100 HITS - THE BEST -\100 HITS - THE BEST - SOFT ROCK ALBUM\100 HITS - THE BEST - SOFT ROCK ALBUM - CD2\16.Deacon Blue - When Will You (Make My Telephone Ring).wav
Peak level 94.3 % Extraction speed 17.3 X Track quality 99.9 % Copy CRC 9CD654BD Track not present in AccurateRip database Copy OK
Track 17
Filename A:\PsPBuRnOuT's MUSIC\100 HITS\- 100 HITS - THE BEST -\100 HITS - THE BEST - SOFT ROCK ALBUM\100 HITS - THE BEST - SOFT ROCK ALBUM - CD2\17.Kansas - Dust In The Wind.wav
Peak level 86.8 % Extraction speed 19.2 X Track quality 100.0 % Copy CRC 93368A51 Track not present in AccurateRip database Copy OK
Track 18
Filename A:\PsPBuRnOuT's MUSIC\100 HITS\- 100 HITS - THE BEST -\100 HITS - THE BEST - SOFT ROCK ALBUM\100 HITS - THE BEST - SOFT ROCK ALBUM - CD2\18.Chicken Shack - I'd Rather Go Blind.wav
Peak level 85.1 % Extraction speed 19.5 X Track quality 100.0 % Copy CRC CF5913CD Track not present in AccurateRip database Copy OK
Track 19
Filename A:\PsPBuRnOuT's MUSIC\100 HITS\- 100 HITS - THE BEST -\100 HITS - THE BEST - SOFT ROCK ALBUM\100 HITS - THE BEST - SOFT ROCK ALBUM - CD2\19.Fleetwood Mac - Need Your Love So Bad.wav
Peak level 94.4 % Extraction speed 21.2 X Track quality 100.0 % Copy CRC 9E573E48 Track not present in AccurateRip database Copy OK
Track 20
Filename A:\PsPBuRnOuT's MUSIC\100 HITS\- 100 HITS - THE BEST -\100 HITS - THE BEST - SOFT ROCK ALBUM\100 HITS - THE BEST - SOFT ROCK ALBUM - CD2\20.Status Quo - Don't Stop.wav
Peak level 86.1 % Extraction speed 17.9 X Track quality 99.9 % Copy CRC F667A851 Track not present in AccurateRip database Copy OK
None of the tracks are present in the AccurateRip database
No errors occurred
End of status report
---- CUETools DB Plugin V2.1.6
[CTDB TOCID: su.h.UHEid.kz83uo5M.SjGGFqM-] foundSubmit result: su.h.UHEid.kz83uo5M.SjGGFqM- has been confirmedTrack | CTDB Status 1 | (2/2) Accurately ripped 2 | (2/2) Accurately ripped 3 | (2/2) Accurately ripped 4 | (2/2) Accurately ripped 5 | (2/2) Accurately ripped 6 | (2/2) Accurately ripped 7 | (2/2) Accurately ripped 8 | (2/2) Accurately ripped 9 | (2/2) Accurately ripped 10 | (2/2) Accurately ripped 11 | (2/2) Accurately ripped 12 | (2/2) Accurately ripped 13 | (2/2) Accurately ripped 14 | (2/2) Accurately ripped 15 | (2/2) Accurately ripped 16 | (2/2) Accurately ripped 17 | (2/2) Accurately ripped 18 | (2/2) Accurately ripped 19 | (1/2) Accurately ripped, or (1/2) differs in 10 samples @00:08:09,00:16:17 20 | (2/2) Accurately ripped

Содержание индексной карты (.CUE)

REM GENRE RockREM DATE 2018REM DISCID 1B12AE14REM DISCNUMBER 02REM TOTALDISCS 05REM COMMENT "Exact Audio Copy V1.3"PERFORMER "Various"TITLE "100 Hits - The Best - Soft Rock Album - CD2"FILE "01.REO Speedwagon - Keep On Loving You.flac" WAVE  TRACK 01 AUDIO    PERFORMER "REO Speedwagon"    TITLE "Keep On Loving You"    INDEX 01 00:00:00FILE "02.Meat Loaf - Two Out Of Three Ain't Bad.flac" WAVE  TRACK 02 AUDIO    PERFORMER "Meat Loaf"    TITLE "Two Out Of Three Ain't Bad"    INDEX 01 00:00:00FILE "03.Survivor - Burning Heart.flac" WAVE  TRACK 03 AUDIO    PERFORMER "Survivor"    TITLE "Burning Heart"    INDEX 01 00:00:00FILE "04.The Alan Parsons Project - Eye In The Sky.flac" WAVE  TRACK 04 AUDIO    PERFORMER "The Alan Parsons Project"    TITLE "Eye In The Sky"    INDEX 01 00:00:00FILE "05.Air Supply - All Out Of Love.flac" WAVE  TRACK 05 AUDIO    PERFORMER "Air Supply"    TITLE "All Out Of Love"    INDEX 01 00:00:00FILE "06.Cheap Trick - The Flame.flac" WAVE  TRACK 06 AUDIO    PERFORMER "Cheap Trick"    TITLE "The Flame"    INDEX 01 00:00:00FILE "07.Eric Carmen - All By Myself.flac" WAVE  TRACK 07 AUDIO    PERFORMER "Eric Carmen"    TITLE "All By Myself"    INDEX 01 00:00:00FILE "08.Harry Nilsson - Without You.flac" WAVE  TRACK 08 AUDIO    PERFORMER "Harry Nilsson"    TITLE "Without You"    INDEX 01 00:00:00FILE "09.Bonnie Tyler - Total Eclipse Of The Heart.flac" WAVE  TRACK 09 AUDIO    PERFORMER "Bonnie Tyler"    TITLE "Total Eclipse Of The Heart"    INDEX 01 00:00:00FILE "10.Bruce Hornsby & The Range - Mandolin Rain.flac" WAVE  TRACK 10 AUDIO    PERFORMER "Bruce Hornsby & The Range"    TITLE "Mandolin Rain"    INDEX 01 00:00:00FILE "11.Albert Hammond - The Free Electric Band.flac" WAVE  TRACK 11 AUDIO    PERFORMER "Albert Hammond"    TITLE "The Free Electric Band"    INDEX 01 00:00:00FILE "12.Boz Scaggs - Lido Shuffle.flac" WAVE  TRACK 12 AUDIO    PERFORMER "Boz Scaggs"    TITLE "Lido Shuffle"    INDEX 01 00:00:00FILE "13.Patti Smith Group - Because The Night.flac" WAVE  TRACK 13 AUDIO    PERFORMER "Patti Smith Group"    TITLE "Because The Night"    INDEX 01 00:00:00FILE "14.Mott The Hoople - Roll Away The Stone.flac" WAVE  TRACK 14 AUDIO    PERFORMER "Mott The Hoople"    TITLE "Roll Away The Stone"    INDEX 01 00:00:00FILE "15.Paul Young - Everything Must Change.flac" WAVE  TRACK 15 AUDIO    PERFORMER "Paul Young"    TITLE "Everything Must Change"    INDEX 01 00:00:00FILE "16.Deacon Blue - When Will You (Make My Telephone Ring).flac" WAVE  TRACK 16 AUDIO    PERFORMER "Deacon Blue"    TITLE "When Will You (Make My Telephone Ring)?"    INDEX 01 00:00:00FILE "17.Kansas - Dust In The Wind.flac" WAVE  TRACK 17 AUDIO    PERFORMER "Kansas"    TITLE "Dust In The Wind"    INDEX 01 00:00:00FILE "18.Chicken Shack - I'd Rather Go Blind.flac" WAVE  TRACK 18 AUDIO    PERFORMER "Chicken Shack"    TITLE "I'd Rather Go Blind"    INDEX 01 00:00:00FILE "19.Fleetwood Mac - Need Your Love So Bad.flac" WAVE  TRACK 19 AUDIO    PERFORMER "Fleetwood Mac"    TITLE "Need Your Love So Bad"    INDEX 01 00:00:00FILE "20.Status Quo - Don't Stop.flac" WAVE  TRACK 20 AUDIO    PERFORMER "Status Quo"    TITLE "Don't Stop"    INDEX 01 00:00:00

CD3

Треклист:
01. Train - Drops Of Jupiter (4:20)
02. The Script - The Man Who Can't Be Moved (4:02)
03. The Fray - You Found Me (4:03)
04. Daniel Merriweather - Red (3:54)
05. Shawn Mullins - Lullaby (4:34)
06. The Calling - Wherever You Will Go (3:28)
07. Daughtry - What About Now (4:12)
08. Gavin DeGraw - I Don't Want To Be (3:38)
09. Lonestar - Amazed (4:01)
10. Avril Lavigne - Complicated (4:06)
11. Wheatus - A Little Respect (3:21)
12. Natalie Imbruglia - Torn (4:06)
13. Suede - Saturday Night (4:30)
14. Toploader - Achilles Heel (3:57)
15. Mark Ronson Feat. Daniel Merriweather - Stop Me (3:39)
16. Anastacia - Left Outside Alone (3:57)
17. Christina Aguilera - The Voice Within (4:25)
18. Ella Henderson - Ghost (3:35)
19. James Arthur - Impossible (3:29)
20. Leona Lewis - Run (4:39)
Duration: 01:19:55

Отчёт EAC

Exact Audio Copy V1.3 from 2. September 2016
EAC extraction logfile from 8. August 2018, 23:56
Various / 100 Hits - The Best - Soft Rock Album - CD3
Used drive : ATAPI iHAS124 Y Adapter: 1 ID: 0
Read mode : SecureUtilize accurate stream : YesDefeat audio cache : NoMake use of C2 pointers : Yes
Read offset correction : 48Overread into Lead-In and Lead-Out : NoFill up missing offset samples with silence : YesDelete leading and trailing silent blocks : NoNull samples used in CRC calculations : YesUsed interface : Native Win32 interface for Win NT & 2000Gap handling : Not detected, thus appended to previous track
Used output format : User Defined EncoderSelected bitrate : 896 kBit/sQuality : HighAdd ID3 tag : NoCommand line compressor : C:\Program Files (x86)\Exact Audio Copy\FLAC\FLAC.EXEAdditional command line options : -6 -V -T "ARTIST=%artist%" -T "TITLE=%title%" -T "ALBUM=%albumtitle%" -T "DATE=%year%" -T "TRACKNUMBER=%tracknr%" -T "GENRE=%genre%" -T "COMMENT=%comment%" -T "BAND=%albuminterpret%" -T "ALBUMARTIST=%albuminterpret%" -T "COMPOSER=%composer%" %haslyrics%--tag-from-file=LYRICS="%lyricsfile%"%haslyrics% -T "DISCNUMBER=%cdnumber%" -T "TOTALDISCS=%totalcds%" -T "TOTALTRACKS=%numtracks%" %hascover%--picture="%coverfile%"%hascover% %source% -o %dest%
TOC of the extracted CD
Track | Start | Length | Start sector | End sector --------------------------------------------------------- 1 | 0:00.00 | 4:20.09 | 0 | 19508 2 | 4:20.09 | 4:01.58 | 19509 | 37641 3 | 8:21.67 | 4:02.47 | 37642 | 55838 4 | 12:24.39 | 3:54.22 | 55839 | 73410 5 | 16:18.61 | 4:33.58 | 73411 | 93943 6 | 20:52.44 | 3:28.19 | 93944 | 109562 7 | 24:20.63 | 4:11.48 | 109563 | 128435 8 | 28:32.36 | 3:38.02 | 128436 | 144787 9 | 32:10.38 | 4:01.01 | 144788 | 162863 10 | 36:11.39 | 4:05.66 | 162864 | 181304 11 | 40:17.30 | 3:20.72 | 181305 | 196376 12 | 43:38.27 | 4:05.59 | 196377 | 214810 13 | 47:44.11 | 4:29.57 | 214811 | 235042 14 | 52:13.68 | 3:57.00 | 235043 | 252817 15 | 56:10.68 | 3:39.11 | 252818 | 269253 16 | 59:50.04 | 3:57.20 | 269254 | 287048 17 | 63:47.24 | 4:24.48 | 287049 | 306896 18 | 68:11.72 | 3:34.40 | 306897 | 322986 19 | 71:46.37 | 3:29.29 | 322987 | 338690 20 | 75:15.66 | 4:38.61 | 338691 | 359601
Track 1
Filename A:\PsPBuRnOuT's MUSIC\100 HITS\- 100 HITS - THE BEST -\100 HITS - THE BEST - SOFT ROCK ALBUM\100 HITS - THE BEST - SOFT ROCK ALBUM - CD3\01.Train - Drops Of Jupiter.wav
Peak level 90.3 % Extraction speed 9.7 X Track quality 100.0 % Copy CRC 612EC190 Track not present in AccurateRip database Copy OK
Track 2
Filename A:\PsPBuRnOuT's MUSIC\100 HITS\- 100 HITS - THE BEST -\100 HITS - THE BEST - SOFT ROCK ALBUM\100 HITS - THE BEST - SOFT ROCK ALBUM - CD3\02.The Script - The Man Who Can't Be Moved.wav
Peak level 78.4 % Extraction speed 10.2 X Track quality 100.0 % Copy CRC 47F11CD4 Track not present in AccurateRip database Copy OK
Track 3
Filename A:\PsPBuRnOuT's MUSIC\100 HITS\- 100 HITS - THE BEST -\100 HITS - THE BEST - SOFT ROCK ALBUM\100 HITS - THE BEST - SOFT ROCK ALBUM - CD3\03.The Fray - You Found Me.wav
Peak level 71.9 % Extraction speed 11.9 X Track quality 100.0 % Copy CRC 95A51A6C Track not present in AccurateRip database Copy OK
Track 4
Filename A:\PsPBuRnOuT's MUSIC\100 HITS\- 100 HITS - THE BEST -\100 HITS - THE BEST - SOFT ROCK ALBUM\100 HITS - THE BEST - SOFT ROCK ALBUM - CD3\04.Daniel Merriweather - Red.wav
Peak level 71.6 % Extraction speed 11.7 X Track quality 100.0 % Copy CRC 40EEF880 Track not present in AccurateRip database Copy OK
Track 5
Filename A:\PsPBuRnOuT's MUSIC\100 HITS\- 100 HITS - THE BEST -\100 HITS - THE BEST - SOFT ROCK ALBUM\100 HITS - THE BEST - SOFT ROCK ALBUM - CD3\05.Shawn Mullins - Lullaby.wav
Peak level 91.0 % Extraction speed 13.3 X Track quality 100.0 % Copy CRC B666DFBD Track not present in AccurateRip database Copy OK
Track 6
Filename A:\PsPBuRnOuT's MUSIC\100 HITS\- 100 HITS - THE BEST -\100 HITS - THE BEST - SOFT ROCK ALBUM\100 HITS - THE BEST - SOFT ROCK ALBUM - CD3\06.The Calling - Wherever You Will Go.wav
Peak level 85.1 % Extraction speed 13.1 X Track quality 100.0 % Copy CRC E70E8D5E Track not present in AccurateRip database Copy OK
Track 7
Filename A:\PsPBuRnOuT's MUSIC\100 HITS\- 100 HITS - THE BEST -\100 HITS - THE BEST - SOFT ROCK ALBUM\100 HITS - THE BEST - SOFT ROCK ALBUM - CD3\07.Daughtry - What About Now.wav
Peak level 82.9 % Extraction speed 12.9 X Track quality 100.0 % Copy CRC 255B8CFB Track not present in AccurateRip database Copy OK
Track 8
Filename A:\PsPBuRnOuT's MUSIC\100 HITS\- 100 HITS - THE BEST -\100 HITS - THE BEST - SOFT ROCK ALBUM\100 HITS - THE BEST - SOFT ROCK ALBUM - CD3\08.Gavin DeGraw - I Don't Want To Be.wav
Peak level 94.3 % Extraction speed 14.7 X Track quality 100.0 % Copy CRC 086EB498 Track not present in AccurateRip database Copy OK
Track 9
Filename A:\PsPBuRnOuT's MUSIC\100 HITS\- 100 HITS - THE BEST -\100 HITS - THE BEST - SOFT ROCK ALBUM\100 HITS - THE BEST - SOFT ROCK ALBUM - CD3\09.Lonestar - Amazed.wav
Peak level 92.7 % Extraction speed 15.4 X Track quality 100.0 % Copy CRC 51C47A71 Track not present in AccurateRip database Copy OK
Track 10
Filename A:\PsPBuRnOuT's MUSIC\100 HITS\- 100 HITS - THE BEST -\100 HITS - THE BEST - SOFT ROCK ALBUM\100 HITS - THE BEST - SOFT ROCK ALBUM - CD3\10.Avril Lavigne - Complicated.wav
Peak level 79.4 % Extraction speed 15.9 X Track quality 100.0 % Copy CRC 90D7677F Track not present in AccurateRip database Copy OK
Track 11
Filename A:\PsPBuRnOuT's MUSIC\100 HITS\- 100 HITS - THE BEST -\100 HITS - THE BEST - SOFT ROCK ALBUM\100 HITS - THE BEST - SOFT ROCK ALBUM - CD3\11.Wheatus - A Little Respect.wav
Peak level 85.1 % Extraction speed 14.5 X Track quality 100.0 % Copy CRC C409E943 Track not present in AccurateRip database Copy OK
Track 12
Filename A:\PsPBuRnOuT's MUSIC\100 HITS\- 100 HITS - THE BEST -\100 HITS - THE BEST - SOFT ROCK ALBUM\100 HITS - THE BEST - SOFT ROCK ALBUM - CD3\12.Natalie Imbruglia - Torn.wav
Peak level 98.8 % Extraction speed 16.6 X Track quality 100.0 % Copy CRC 42ACEA42 Track not present in AccurateRip database Copy OK
Track 13
Filename A:\PsPBuRnOuT's MUSIC\100 HITS\- 100 HITS - THE BEST -\100 HITS - THE BEST - SOFT ROCK ALBUM\100 HITS - THE BEST - SOFT ROCK ALBUM - CD3\13.Suede - Saturday Night.wav
Peak level 79.3 % Extraction speed 15.4 X Track quality 100.0 % Copy CRC 8946D0FE Track not present in AccurateRip database Copy OK
Track 14
Filename A:\PsPBuRnOuT's MUSIC\100 HITS\- 100 HITS - THE BEST -\100 HITS - THE BEST - SOFT ROCK ALBUM\100 HITS - THE BEST - SOFT ROCK ALBUM - CD3\14.Toploader - Achilles Heel.wav
Peak level 76.7 % Extraction speed 17.9 X Track quality 100.0 % Copy CRC BDD19D06 Track not present in AccurateRip database Copy OK
Track 15
Filename A:\PsPBuRnOuT's MUSIC\100 HITS\- 100 HITS - THE BEST -\100 HITS - THE BEST - SOFT ROCK ALBUM\100 HITS - THE BEST - SOFT ROCK ALBUM - CD3\15.Mark Ronson Feat. Daniel Merriweather - Stop Me.wav
Peak level 76.3 % Extraction speed 18.0 X Track quality 100.0 % Copy CRC CC16EFB7 Track not present in AccurateRip database Copy OK
Track 16
Filename A:\PsPBuRnOuT's MUSIC\100 HITS\- 100 HITS - THE BEST -\100 HITS - THE BEST - SOFT ROCK ALBUM\100 HITS - THE BEST - SOFT ROCK ALBUM - CD3\16.Anastacia - Left Outside Alone.wav
Peak level 65.9 % Extraction speed 16.4 X Track quality 100.0 % Copy CRC 87E48C58 Track not present in AccurateRip database Copy OK
Track 17
Filename A:\PsPBuRnOuT's MUSIC\100 HITS\- 100 HITS - THE BEST -\100 HITS - THE BEST - SOFT ROCK ALBUM\100 HITS - THE BEST - SOFT ROCK ALBUM - CD3\17.Christina Aguilera - The Voice Within.wav
Peak level 79.2 % Extraction speed 17.6 X Track quality 100.0 % Copy CRC 4A008CF0 Track not present in AccurateRip database Copy OK
Track 18
Filename A:\PsPBuRnOuT's MUSIC\100 HITS\- 100 HITS - THE BEST -\100 HITS - THE BEST - SOFT ROCK ALBUM\100 HITS - THE BEST - SOFT ROCK ALBUM - CD3\18.Ella Henderson - Ghost.wav
Peak level 77.6 % Extraction speed 20.7 X Track quality 100.0 % Copy CRC A775E65C Track not present in AccurateRip database Copy OK
Track 19
Filename A:\PsPBuRnOuT's MUSIC\100 HITS\- 100 HITS - THE BEST -\100 HITS - THE BEST - SOFT ROCK ALBUM\100 HITS - THE BEST - SOFT ROCK ALBUM - CD3\19.James Arthur - Impossible.wav
Peak level 73.2 % Extraction speed 19.8 X Track quality 99.8 % Copy CRC A6B7FF1E Track not present in AccurateRip database Copy OK
Track 20
Filename A:\PsPBuRnOuT's MUSIC\100 HITS\- 100 HITS - THE BEST -\100 HITS - THE BEST - SOFT ROCK ALBUM\100 HITS - THE BEST - SOFT ROCK ALBUM - CD3\20.Leona Lewis - Run.wav
Peak level 69.1 % Extraction speed 15.8 X Track quality 99.7 % Copy CRC D68359EE Track not present in AccurateRip database Copy OK
None of the tracks are present in the AccurateRip database
No errors occurred
End of status report
---- CUETools DB Plugin V2.1.6
[CTDB TOCID: WBvmkEFlnGWqu8Iz1Fw3IBkUdLs-] foundSubmit result: WBvmkEFlnGWqu8Iz1Fw3IBkUdLs- has been confirmedTrack | CTDB Status 1 | (2/2) Accurately ripped 2 | (2/2) Accurately ripped 3 | (2/2) Accurately ripped 4 | (2/2) Accurately ripped 5 | (2/2) Accurately ripped 6 | (2/2) Accurately ripped 7 | (2/2) Accurately ripped 8 | (2/2) Accurately ripped 9 | (2/2) Accurately ripped 10 | (2/2) Accurately ripped 11 | (2/2) Accurately ripped 12 | (2/2) Accurately ripped 13 | (2/2) Accurately ripped 14 | (2/2) Accurately ripped 15 | (2/2) Accurately ripped 16 | (2/2) Accurately ripped 17 | (2/2) Accurately ripped 18 | (2/2) Accurately ripped 19 | (2/2) Accurately ripped 20 | (2/2) Accurately ripped

Содержание индексной карты (.CUE)

REM GENRE RockREM DATE 2018REM DISCID 1D12BA14REM DISCNUMBER 03REM TOTALDISCS 05REM COMMENT "Exact Audio Copy V1.3"PERFORMER "Various"TITLE "100 Hits - The Best - Soft Rock Album - CD3"FILE "01.Train - Drops Of Jupiter.flac" WAVE  TRACK 01 AUDIO    PERFORMER "Train"    TITLE "Drops Of Jupiter"    INDEX 01 00:00:00FILE "02.The Script - The Man Who Can't Be Moved.flac" WAVE  TRACK 02 AUDIO    PERFORMER "The Script"    TITLE "The Man Who Can't Be Moved"    INDEX 01 00:00:00FILE "03.The Fray - You Found Me.flac" WAVE  TRACK 03 AUDIO    PERFORMER "The Fray"    TITLE "You Found Me"    INDEX 01 00:00:00FILE "04.Daniel Merriweather - Red.flac" WAVE  TRACK 04 AUDIO    PERFORMER "Daniel Merriweather"    TITLE "Red"    INDEX 01 00:00:00FILE "05.Shawn Mullins - Lullaby.flac" WAVE  TRACK 05 AUDIO    PERFORMER "Shawn Mullins"    TITLE "Lullaby"    INDEX 01 00:00:00FILE "06.The Calling - Wherever You Will Go.flac" WAVE  TRACK 06 AUDIO    PERFORMER "The Calling"    TITLE "Wherever You Will Go"    INDEX 01 00:00:00FILE "07.Daughtry - What About Now.flac" WAVE  TRACK 07 AUDIO    PERFORMER "Daughtry"    TITLE "What About Now"    INDEX 01 00:00:00FILE "08.Gavin DeGraw - I Don't Want To Be.flac" WAVE  TRACK 08 AUDIO    PERFORMER "Gavin DeGraw"    TITLE "I Don't Want To Be"    INDEX 01 00:00:00FILE "09.Lonestar - Amazed.flac" WAVE  TRACK 09 AUDIO    PERFORMER "Lonestar"    TITLE "Amazed"    INDEX 01 00:00:00FILE "10.Avril Lavigne - Complicated.flac" WAVE  TRACK 10 AUDIO    PERFORMER "Avril Lavigne"    TITLE "Complicated"    INDEX 01 00:00:00FILE "11.Wheatus - A Little Respect.flac" WAVE  TRACK 11 AUDIO    PERFORMER "Wheatus"    TITLE "A Little Respect"    INDEX 01 00:00:00FILE "12.Natalie Imbruglia - Torn.flac" WAVE  TRACK 12 AUDIO    PERFORMER "Natalie Imbruglia"    TITLE "Torn"    INDEX 01 00:00:00FILE "13.Suede - Saturday Night.flac" WAVE  TRACK 13 AUDIO    PERFORMER "Suede"    TITLE "Saturday Night"    INDEX 01 00:00:00FILE "14.Toploader - Achilles Heel.flac" WAVE  TRACK 14 AUDIO    PERFORMER "Toploader"    TITLE "Achilles Heel"    INDEX 01 00:00:00FILE "15.Mark Ronson Feat. Daniel Merriweather - Stop Me.flac" WAVE  TRACK 15 AUDIO    PERFORMER "Mark Ronson Feat. Daniel Merriweather"    TITLE "Stop Me"    INDEX 01 00:00:00FILE "16.Anastacia - Left Outside Alone.flac" WAVE  TRACK 16 AUDIO    PERFORMER "Anastacia"    TITLE "Left Outside Alone"    INDEX 01 00:00:00FILE "17.Christina Aguilera - The Voice Within.flac" WAVE  TRACK 17 AUDIO    PERFORMER "Christina Aguilera"    TITLE "The Voice Within"    INDEX 01 00:00:00FILE "18.Ella Henderson - Ghost.flac" WAVE  TRACK 18 AUDIO    PERFORMER "Ella Henderson"    TITLE "Ghost"    INDEX 01 00:00:00FILE "19.James Arthur - Impossible.flac" WAVE  TRACK 19 AUDIO    PERFORMER "James Arthur"    TITLE "Impossible"    INDEX 01 00:00:00FILE "20.Leona Lewis - Run.flac" WAVE  TRACK 20 AUDIO    PERFORMER "Leona Lewis"    TITLE "Run"    INDEX 01 00:00:00

CD4

Треклист:
01. Kenny Loggins - Danger Zone (3:32)
02. Cheap Trick - Mighty Wings (From ''Top Gun'' Original Sondtrack) (3:52)
03. Loverboy - Heaven In Your Eyes (4:04)
04. Survivor - Eye Of The Tiger (3:48)
05. Europe - Carrie (4:32)
06. Rick Springfield - Jessie's Girl (3:14)
07. REO Speedwagon - Take It On The Run (4:02)
08. Daryl Hall & John Oates - Out Of Touch (4:09)
09. Roachford - Cuddly Toy (3:50)
10. Mr. Mister - Kyrie (4:14)
11. Men At Work - Down Under (3:40)
12. The Alan Parsons Project - Games People Play (3:34)
13. Eddie Money With Ronnie Spector - Take Me Home Tonight - Be My Baby (3:32)
14. The Hooters - Satellite (4:17)
15. H20 - Just Outside Heaven (4:19)
16. Paul Young - Love Of The Common People (3:43)
17. Sad Cafe - Every Day Hurts (4:00)
18. Spandau Ballet - Through The Barricades (5:21)
19. Michael Bolton - Time, Love And Tenderness (4:19)
20. Cyndi Lauper - True Colors (3:46)
Duration: 01:19:48

Отчёт EAC

Exact Audio Copy V1.3 from 2. September 2016
EAC extraction logfile from 9. August 2018, 0:21
Various / 100 Hits - The Best - Soft Rock Album - CD4
Used drive : ATAPI iHAS124 Y Adapter: 1 ID: 0
Read mode : SecureUtilize accurate stream : YesDefeat audio cache : NoMake use of C2 pointers : Yes
Read offset correction : 48Overread into Lead-In and Lead-Out : NoFill up missing offset samples with silence : YesDelete leading and trailing silent blocks : NoNull samples used in CRC calculations : YesUsed interface : Native Win32 interface for Win NT & 2000Gap handling : Not detected, thus appended to previous track
Used output format : User Defined EncoderSelected bitrate : 896 kBit/sQuality : HighAdd ID3 tag : NoCommand line compressor : C:\Program Files (x86)\Exact Audio Copy\FLAC\FLAC.EXEAdditional command line options : -6 -V -T "ARTIST=%artist%" -T "TITLE=%title%" -T "ALBUM=%albumtitle%" -T "DATE=%year%" -T "TRACKNUMBER=%tracknr%" -T "GENRE=%genre%" -T "COMMENT=%comment%" -T "BAND=%albuminterpret%" -T "ALBUMARTIST=%albuminterpret%" -T "COMPOSER=%composer%" %haslyrics%--tag-from-file=LYRICS="%lyricsfile%"%haslyrics% -T "DISCNUMBER=%cdnumber%" -T "TOTALDISCS=%totalcds%" -T "TOTALTRACKS=%numtracks%" %hascover%--picture="%coverfile%"%hascover% %source% -o %dest%
TOC of the extracted CD
Track | Start | Length | Start sector | End sector --------------------------------------------------------- 1 | 0:00.00 | 3:31.68 | 0 | 15892 2 | 3:31.68 | 3:52.29 | 15893 | 33321 3 | 7:24.22 | 4:04.05 | 33322 | 51626 4 | 11:28.27 | 3:48.12 | 51627 | 68738 5 | 15:16.39 | 4:32.00 | 68739 | 89138 6 | 19:48.39 | 3:13.73 | 89139 | 103686 7 | 23:02.37 | 4:01.49 | 103687 | 121810 8 | 27:04.11 | 4:08.45 | 121811 | 140455 9 | 31:12.56 | 3:49.47 | 140456 | 157677 10 | 35:02.28 | 4:14.25 | 157678 | 176752 11 | 39:16.53 | 3:40.12 | 176753 | 193264 12 | 42:56.65 | 3:34.32 | 193265 | 209346 13 | 46:31.22 | 3:32.33 | 209347 | 225279 14 | 50:03.55 | 4:16.52 | 225280 | 244531 15 | 54:20.32 | 4:19.08 | 244532 | 263964 16 | 58:39.40 | 3:42.59 | 263965 | 280673 17 | 62:22.24 | 3:59.56 | 280674 | 298654 18 | 66:22.05 | 5:21.03 | 298655 | 322732 19 | 71:43.08 | 4:18.57 | 322733 | 342139 20 | 76:01.65 | 3:46.16 | 342140 | 359105
Track 1
Filename A:\PsPBuRnOuT's MUSIC\100 HITS\- 100 HITS - THE BEST -\100 HITS - THE BEST - SOFT ROCK ALBUM\100 HITS - THE BEST - SOFT ROCK ALBUM - CD4\01.Kenny Loggins - Danger Zone.wav
Peak level 79.4 % Extraction speed 15.7 X Track quality 99.8 % Copy CRC B78DF723 Track not present in AccurateRip database Copy OK
Track 2
Filename A:\PsPBuRnOuT's MUSIC\100 HITS\- 100 HITS - THE BEST -\100 HITS - THE BEST - SOFT ROCK ALBUM\100 HITS - THE BEST - SOFT ROCK ALBUM - CD4\02.Cheap Trick - Mighty Wings (From ''Top Gun'' Original Sondtrack).wav
Peak level 84.1 % Extraction speed 18.2 X Track quality 100.0 % Copy CRC 7AF64108 Track not present in AccurateRip database Copy OK
Track 3
Filename A:\PsPBuRnOuT's MUSIC\100 HITS\- 100 HITS - THE BEST -\100 HITS - THE BEST - SOFT ROCK ALBUM\100 HITS - THE BEST - SOFT ROCK ALBUM - CD4\03.Loverboy - Heaven In Your Eyes.wav
Peak level 78.5 % Extraction speed 17.3 X Track quality 99.9 % Copy CRC DE227960 Track not present in AccurateRip database Copy OK
Track 4
Filename A:\PsPBuRnOuT's MUSIC\100 HITS\- 100 HITS - THE BEST -\100 HITS - THE BEST - SOFT ROCK ALBUM\100 HITS - THE BEST - SOFT ROCK ALBUM - CD4\04.Survivor - Eye Of The Tiger.wav
Peak level 94.3 % Extraction speed 16.5 X Track quality 99.9 % Copy CRC 7905E1E1 Track not present in AccurateRip database Copy OK
Track 5
Filename A:\PsPBuRnOuT's MUSIC\100 HITS\- 100 HITS - THE BEST -\100 HITS - THE BEST - SOFT ROCK ALBUM\100 HITS - THE BEST - SOFT ROCK ALBUM - CD4\05.Europe - Carrie.wav
Peak level 94.3 % Extraction speed 18.3 X Track quality 100.0 % Copy CRC C9221B75 Track not present in AccurateRip database Copy OK
Track 6
Filename A:\PsPBuRnOuT's MUSIC\100 HITS\- 100 HITS - THE BEST -\100 HITS - THE BEST - SOFT ROCK ALBUM\100 HITS - THE BEST - SOFT ROCK ALBUM - CD4\06.Rick Springfield - Jessie's Girl.wav
Peak level 85.1 % Extraction speed 25.1 X Track quality 100.0 % Copy CRC 14DE7281 Track not present in AccurateRip database Copy OK
Track 7
Filename A:\PsPBuRnOuT's MUSIC\100 HITS\- 100 HITS - THE BEST -\100 HITS - THE BEST - SOFT ROCK ALBUM\100 HITS - THE BEST - SOFT ROCK ALBUM - CD4\07.REO Speedwagon - Take It On The Run.wav
Peak level 94.3 % Extraction speed 27.8 X Track quality 100.0 % Copy CRC A61DAB1A Track not present in AccurateRip database Copy OK
Track 8
Filename A:\PsPBuRnOuT's MUSIC\100 HITS\- 100 HITS - THE BEST -\100 HITS - THE BEST - SOFT ROCK ALBUM\100 HITS - THE BEST - SOFT ROCK ALBUM - CD4\08.Daryl Hall & John Oates - Out Of Touch.wav
Peak level 94.3 % Extraction speed 29.3 X Track quality 100.0 % Copy CRC 6398863B Track not present in AccurateRip database Copy OK
Track 9
Filename A:\PsPBuRnOuT's MUSIC\100 HITS\- 100 HITS - THE BEST -\100 HITS - THE BEST - SOFT ROCK ALBUM\100 HITS - THE BEST - SOFT ROCK ALBUM - CD4\09.Roachford - Cuddly Toy.wav
Peak level 93.3 % Extraction speed 28.1 X Track quality 100.0 % Copy CRC A5A9EA69 Track not present in AccurateRip database Copy OK
Track 10
Filename A:\PsPBuRnOuT's MUSIC\100 HITS\- 100 HITS - THE BEST -\100 HITS - THE BEST - SOFT ROCK ALBUM\100 HITS - THE BEST - SOFT ROCK ALBUM - CD4\10.Mr. Mister - Kyrie.wav
Peak level 79.4 % Extraction speed 31.3 X Track quality 100.0 % Copy CRC 65F61332 Track not present in AccurateRip database Copy OK
Track 11
Filename A:\PsPBuRnOuT's MUSIC\100 HITS\- 100 HITS - THE BEST -\100 HITS - THE BEST - SOFT ROCK ALBUM\100 HITS - THE BEST - SOFT ROCK ALBUM - CD4\11.Men At Work - Down Under.wav
Peak level 94.3 % Extraction speed 31.0 X Track quality 100.0 % Copy CRC F9A89527 Track not present in AccurateRip database Copy OK
Track 12
Filename A:\PsPBuRnOuT's MUSIC\100 HITS\- 100 HITS - THE BEST -\100 HITS - THE BEST - SOFT ROCK ALBUM\100 HITS - THE BEST - SOFT ROCK ALBUM - CD4\12.The Alan Parsons Project - Games People Play.wav
Peak level 94.3 % Extraction speed 30.6 X Track quality 100.0 % Copy CRC 2CB5AF23 Track not present in AccurateRip database Copy OK
Track 13
Filename A:\PsPBuRnOuT's MUSIC\100 HITS\- 100 HITS - THE BEST -\100 HITS - THE BEST - SOFT ROCK ALBUM\100 HITS - THE BEST - SOFT ROCK ALBUM - CD4\13.Eddie Money With Ronnie Spector - Take Me Home Tonight - Be My Baby.wav
Peak level 94.3 % Extraction speed 18.9 X Track quality 99.9 % Copy CRC 0BBE2F84 Track not present in AccurateRip database Copy OK
Track 14
Filename A:\PsPBuRnOuT's MUSIC\100 HITS\- 100 HITS - THE BEST -\100 HITS - THE BEST - SOFT ROCK ALBUM\100 HITS - THE BEST - SOFT ROCK ALBUM - CD4\14.The Hooters - Satellite.wav
Peak level 77.2 % Extraction speed 27.9 X Track quality 99.9 % Copy CRC 54D9FA67 Track not present in AccurateRip database Copy OK
Track 15
Filename A:\PsPBuRnOuT's MUSIC\100 HITS\- 100 HITS - THE BEST -\100 HITS - THE BEST - SOFT ROCK ALBUM\100 HITS - THE BEST - SOFT ROCK ALBUM - CD4\15.H20 - Just Outside Heaven.wav
Peak level 94.3 % Extraction speed 28.8 X Track quality 100.0 % Copy CRC 0AC9B1FE Track not present in AccurateRip database Copy OK
Track 16
Filename A:\PsPBuRnOuT's MUSIC\100 HITS\- 100 HITS - THE BEST -\100 HITS - THE BEST - SOFT ROCK ALBUM\100 HITS - THE BEST - SOFT ROCK ALBUM - CD4\16.Paul Young - Love Of The Common People.wav
Peak level 94.3 % Extraction speed 21.3 X Track quality 99.9 % Copy CRC EA2C3635 Track not present in AccurateRip database Copy OK
Track 17
Filename A:\PsPBuRnOuT's MUSIC\100 HITS\- 100 HITS - THE BEST -\100 HITS - THE BEST - SOFT ROCK ALBUM\100 HITS - THE BEST - SOFT ROCK ALBUM - CD4\17.Sad Cafe - Every Day Hurts.wav
Peak level 92.2 % Extraction speed 21.2 X Track quality 99.9 % Copy CRC B08CF262 Track not present in AccurateRip database Copy OK
Track 18
Filename A:\PsPBuRnOuT's MUSIC\100 HITS\- 100 HITS - THE BEST -\100 HITS - THE BEST - SOFT ROCK ALBUM\100 HITS - THE BEST - SOFT ROCK ALBUM - CD4\18.Spandau Ballet - Through The Barricades.wav
Peak level 87.2 % Extraction speed 6.6 X Track quality 99.4 % Copy CRC 9F5EC6B2 Track not present in AccurateRip database Copy OK
Track 19
Filename A:\PsPBuRnOuT's MUSIC\100 HITS\- 100 HITS - THE BEST -\100 HITS - THE BEST - SOFT ROCK ALBUM\100 HITS - THE BEST - SOFT ROCK ALBUM - CD4\19.Michael Bolton - Time, Love And Tenderness.wav
Peak level 78.5 % Extraction speed 26.5 X Track quality 99.9 % Copy CRC 8A8DF9F8 Track not present in AccurateRip database Copy OK
Track 20
Filename A:\PsPBuRnOuT's MUSIC\100 HITS\- 100 HITS - THE BEST -\100 HITS - THE BEST - SOFT ROCK ALBUM\100 HITS - THE BEST - SOFT ROCK ALBUM - CD4\20.Cyndi Lauper - True Colors.wav
Peak level 94.3 % Extraction speed 7.8 X Track quality 99.3 % Copy CRC FC1A4284 Track not present in AccurateRip database Copy OK
None of the tracks are present in the AccurateRip database
No errors occurred
End of status report
---- CUETools DB Plugin V2.1.6
[CTDB TOCID: FFseLaud9cJZnrYFZRbqpD7yTzw-] foundSubmit result: FFseLaud9cJZnrYFZRbqpD7yTzw- has been submittedTrack | CTDB Status 1 | (3/3) Accurately ripped 2 | (3/3) Accurately ripped 3 | (3/3) Accurately ripped 4 | (3/3) Accurately ripped 5 | (3/3) Accurately ripped 6 | (3/3) Accurately ripped 7 | (3/3) Accurately ripped 8 | (3/3) Accurately ripped 9 | (3/3) Accurately ripped 10 | (3/3) Accurately ripped 11 | (3/3) Accurately ripped 12 | (3/3) Accurately ripped 13 | (3/3) Accurately ripped 14 | (3/3) Accurately ripped 15 | (3/3) Accurately ripped 16 | (0/3) No match 17 | (3/3) Accurately ripped 18 | (0/3) No match 19 | (3/3) Accurately ripped 20 | (3/3) Accurately ripped

Содержание индексной карты (.CUE)

REM GENRE RockREM DATE 2018REM DISCID 2212B414REM DISCNUMBER 04REM TOTALDISCS 05REM COMMENT "Exact Audio Copy V1.3"PERFORMER "Various"TITLE "100 Hits - The Best - Soft Rock Album - CD4"FILE "01.Kenny Loggins - Danger Zone.flac" WAVE  TRACK 01 AUDIO    PERFORMER "Kenny Loggins"    TITLE "Danger Zone"    INDEX 01 00:00:00FILE "02.Cheap Trick - Mighty Wings (From ''Top Gun'' Original Sondtrack).flac" WAVE  TRACK 02 AUDIO    PERFORMER "Cheap Trick"    TITLE "Mighty Wings (From ''Top Gun'' Original Sondtrack)"    INDEX 01 00:00:00FILE "03.Loverboy - Heaven In Your Eyes.flac" WAVE  TRACK 03 AUDIO    PERFORMER "Loverboy"    TITLE "Heaven In Your Eyes"    INDEX 01 00:00:00FILE "04.Survivor - Eye Of The Tiger.flac" WAVE  TRACK 04 AUDIO    PERFORMER "Survivor"    TITLE "Eye Of The Tiger"    INDEX 01 00:00:00FILE "05.Europe - Carrie.flac" WAVE  TRACK 05 AUDIO    PERFORMER "Europe"    TITLE "Carrie"    INDEX 01 00:00:00FILE "06.Rick Springfield - Jessie's Girl.flac" WAVE  TRACK 06 AUDIO    PERFORMER "Rick Springfield"    TITLE "Jessie's Girl"    INDEX 01 00:00:00FILE "07.REO Speedwagon - Take It On The Run.flac" WAVE  TRACK 07 AUDIO    PERFORMER "REO Speedwagon"    TITLE "Take It On The Run"    INDEX 01 00:00:00FILE "08.Daryl Hall & John Oates - Out Of Touch.flac" WAVE  TRACK 08 AUDIO    PERFORMER "Daryl Hall & John Oates"    TITLE "Out Of Touch"    INDEX 01 00:00:00FILE "09.Roachford - Cuddly Toy.flac" WAVE  TRACK 09 AUDIO    PERFORMER "Roachford"    TITLE "Cuddly Toy"    INDEX 01 00:00:00FILE "10.Mr. Mister - Kyrie.flac" WAVE  TRACK 10 AUDIO    PERFORMER "Mr. Mister"    TITLE "Kyrie"    INDEX 01 00:00:00FILE "11.Men At Work - Down Under.flac" WAVE  TRACK 11 AUDIO    PERFORMER "Men At Work"    TITLE "Down Under"    INDEX 01 00:00:00FILE "12.The Alan Parsons Project - Games People Play.flac" WAVE  TRACK 12 AUDIO    PERFORMER "The Alan Parsons Project"    TITLE "Games People Play"    INDEX 01 00:00:00FILE "13.Eddie Money With Ronnie Spector - Take Me Home Tonight - Be My Baby.flac" WAVE  TRACK 13 AUDIO    PERFORMER "Eddie Money With Ronnie Spector"    TITLE "Take Me Home Tonight - Be My Baby"    INDEX 01 00:00:00FILE "14.The Hooters - Satellite.flac" WAVE  TRACK 14 AUDIO    PERFORMER "The Hooters"    TITLE "Satellite"    INDEX 01 00:00:00FILE "15.H20 - Just Outside Heaven.flac" WAVE  TRACK 15 AUDIO    PERFORMER "H20"    TITLE "Just Outside Heaven"    INDEX 01 00:00:00FILE "16.Paul Young - Love Of The Common People.flac" WAVE  TRACK 16 AUDIO    PERFORMER "Paul Young"    TITLE "Love Of The Common People"    INDEX 01 00:00:00FILE "17.Sad Cafe - Every Day Hurts.flac" WAVE  TRACK 17 AUDIO    PERFORMER "Sad Cafe"    TITLE "Every Day Hurts"    INDEX 01 00:00:00FILE "18.Spandau Ballet - Through The Barricades.flac" WAVE  TRACK 18 AUDIO    PERFORMER "Spandau Ballet"    TITLE "Through The Barricades"    INDEX 01 00:00:00FILE "19.Michael Bolton - Time, Love And Tenderness.flac" WAVE  TRACK 19 AUDIO    PERFORMER "Michael Bolton"    TITLE "Time, Love And Tenderness"    INDEX 01 00:00:00FILE "20.Cyndi Lauper - True Colors.flac" WAVE  TRACK 20 AUDIO    PERFORMER "Cyndi Lauper"    TITLE "True Colors"    INDEX 01 00:00:00

CD5

Треклист:
01. Belinda Carlisle - Heaven Is A Place On Earth (4:04)
02. Spandau Ballet - Fight For Ourselves (4:22)
03. Roachford - Family Man (3:47)
04. The Bangles - Eternal Flame (3:55)
05. Martika - Love... Thy Will Be Done (4:22)
06. Jennifer Rush - The Power Of Love (4:27)
07. Dee C. Lee - See The Day (4:19)
08. Beverley Craven - Promise Me (3:36)
09. Michael Bolton - When A Man Loves A Woman (3:51)
10. Lou Reed - Perfect Day (3:43)
11. Jeff Buckley - Hallelujah (4:16)
12. Phantom Planet - California (Tchad Blake Mix) (3:15)
13. Natalie Imbruglia - Shiver (3:43)
14. Sophie B. Hawkins - As I Lay Me Down (4:08)
15. DJ Sammy & Yanou Feat. Do - Heaven (Candlelight Mix) (4:03)
16. The Calling - Our Lives (3:53)
17. Manic Street Preachers - Little Baby Nothing (4:13)
18. Primal Scream - (I'm Gonna) Cry Myself Blind (4:26)
19. Republica - Ready To Go (3:40)
20. Status Quo - The Party Ain't Over Yet (3:51)
Duration: 01:19:51

Отчёт EAC

Exact Audio Copy V1.3 from 2. September 2016
EAC extraction logfile from 8. August 2018, 16:29
Various / 100 Hits - The Best - Soft Rock Album - CD5
Used drive : ATAPI iHAS124 Y Adapter: 1 ID: 0
Read mode : SecureUtilize accurate stream : YesDefeat audio cache : NoMake use of C2 pointers : Yes
Read offset correction : 48Overread into Lead-In and Lead-Out : NoFill up missing offset samples with silence : YesDelete leading and trailing silent blocks : NoNull samples used in CRC calculations : YesUsed interface : Native Win32 interface for Win NT & 2000Gap handling : Not detected, thus appended to previous track
Used output format : User Defined EncoderSelected bitrate : 896 kBit/sQuality : HighAdd ID3 tag : NoCommand line compressor : C:\Program Files (x86)\Exact Audio Copy\FLAC\FLAC.EXEAdditional command line options : -6 -V -T "ARTIST=%artist%" -T "TITLE=%title%" -T "ALBUM=%albumtitle%" -T "DATE=%year%" -T "TRACKNUMBER=%tracknr%" -T "GENRE=%genre%" -T "COMMENT=%comment%" -T "BAND=%albuminterpret%" -T "ALBUMARTIST=%albuminterpret%" -T "COMPOSER=%composer%" %haslyrics%--tag-from-file=LYRICS="%lyricsfile%"%haslyrics% -T "DISCNUMBER=%cdnumber%" -T "TOTALDISCS=%totalcds%" -T "TOTALTRACKS=%numtracks%" %hascover%--picture="%coverfile%"%hascover% %source% -o %dest%
TOC of the extracted CD
Track | Start | Length | Start sector | End sector --------------------------------------------------------- 1 | 0:00.00 | 4:04.34 | 0 | 18333 2 | 4:04.34 | 4:21.54 | 18334 | 37962 3 | 8:26.13 | 3:46.44 | 37963 | 54956 4 | 12:12.57 | 3:54.68 | 54957 | 72574 5 | 16:07.50 | 4:21.61 | 72575 | 92210 6 | 20:29.36 | 4:26.51 | 92211 | 112211 7 | 24:56.12 | 4:18.46 | 112212 | 131607 8 | 29:14.58 | 3:35.71 | 131608 | 147803 9 | 32:50.54 | 3:50.52 | 147804 | 165105 10 | 36:41.31 | 3:43.15 | 165106 | 181845 11 | 40:24.46 | 4:15.61 | 181846 | 201031 12 | 44:40.32 | 3:14.43 | 201032 | 215624 13 | 47:55.00 | 3:42.56 | 215625 | 232330 14 | 51:37.56 | 4:07.48 | 232331 | 250903 15 | 55:45.29 | 4:02.52 | 250904 | 269105 16 | 59:48.06 | 3:53.23 | 269106 | 286603 17 | 63:41.29 | 4:12.66 | 286604 | 305569 18 | 67:54.20 | 4:26.23 | 305570 | 325542 19 | 72:20.43 | 3:39.66 | 325543 | 342033 20 | 76:00.34 | 3:50.70 | 342034 | 359353
Track 1
Filename A:\PsPBuRnOuT's MUSIC\100 HITS\- 100 HITS - THE BEST -\100 HITS - THE BEST - SOFT ROCK ALBUM\100 HITS - THE BEST - SOFT ROCK ALBUM - CD5\01.Belinda Carlisle - Heaven Is A Place On Earth.wav
Peak level 96.0 % Extraction speed 16.4 X Track quality 100.0 % Copy CRC 997BC05C Track not present in AccurateRip database Copy OK
Track 2
Filename A:\PsPBuRnOuT's MUSIC\100 HITS\- 100 HITS - THE BEST -\100 HITS - THE BEST - SOFT ROCK ALBUM\100 HITS - THE BEST - SOFT ROCK ALBUM - CD5\02.Spandau Ballet - Fight For Ourselves.wav
Peak level 94.3 % Extraction speed 16.6 X Track quality 100.0 % Copy CRC 3D6A80D3 Track not present in AccurateRip database Copy OK
Track 3
Filename A:\PsPBuRnOuT's MUSIC\100 HITS\- 100 HITS - THE BEST -\100 HITS - THE BEST - SOFT ROCK ALBUM\100 HITS - THE BEST - SOFT ROCK ALBUM - CD5\03.Roachford - Family Man.wav
Peak level 94.3 % Extraction speed 15.4 X Track quality 99.9 % Copy CRC BCB7E618 Track not present in AccurateRip database Copy OK
Track 4
Filename A:\PsPBuRnOuT's MUSIC\100 HITS\- 100 HITS - THE BEST -\100 HITS - THE BEST - SOFT ROCK ALBUM\100 HITS - THE BEST - SOFT ROCK ALBUM - CD5\04.The Bangles - Eternal Flame.wav
Peak level 99.9 % Extraction speed 17.4 X Track quality 100.0 % Copy CRC 644089C6 Track not present in AccurateRip database Copy OK
Track 5
Filename A:\PsPBuRnOuT's MUSIC\100 HITS\- 100 HITS - THE BEST -\100 HITS - THE BEST - SOFT ROCK ALBUM\100 HITS - THE BEST - SOFT ROCK ALBUM - CD5\05.Martika - Love... Thy Will Be Done.wav
Peak level 94.3 % Extraction speed 18.0 X Track quality 100.0 % Copy CRC E300165C Track not present in AccurateRip database Copy OK
Track 6
Filename A:\PsPBuRnOuT's MUSIC\100 HITS\- 100 HITS - THE BEST -\100 HITS - THE BEST - SOFT ROCK ALBUM\100 HITS - THE BEST - SOFT ROCK ALBUM - CD5\06.Jennifer Rush - The Power Of Love.wav
Peak level 85.9 % Extraction speed 19.2 X Track quality 100.0 % Copy CRC FA34F4E0 Track not present in AccurateRip database Copy OK
Track 7
Filename A:\PsPBuRnOuT's MUSIC\100 HITS\- 100 HITS - THE BEST -\100 HITS - THE BEST - SOFT ROCK ALBUM\100 HITS - THE BEST - SOFT ROCK ALBUM - CD5\07.Dee C. Lee - See The Day.wav
Peak level 82.2 % Extraction speed 27.2 X Track quality 100.0 % Copy CRC B4BF47F4 Track not present in AccurateRip database Copy OK
Track 8
Filename A:\PsPBuRnOuT's MUSIC\100 HITS\- 100 HITS - THE BEST -\100 HITS - THE BEST - SOFT ROCK ALBUM\100 HITS - THE BEST - SOFT ROCK ALBUM - CD5\08.Beverley Craven - Promise Me.wav
Peak level 94.3 % Extraction speed 28.4 X Track quality 100.0 % Copy CRC E9759DEB Track not present in AccurateRip database Copy OK
Track 9
Filename A:\PsPBuRnOuT's MUSIC\100 HITS\- 100 HITS - THE BEST -\100 HITS - THE BEST - SOFT ROCK ALBUM\100 HITS - THE BEST - SOFT ROCK ALBUM - CD5\09.Michael Bolton - When A Man Loves A Woman.wav
Peak level 98.8 % Extraction speed 25.5 X Track quality 99.9 % Copy CRC D2ECF6DC Track not present in AccurateRip database Copy OK
Track 10
Filename A:\PsPBuRnOuT's MUSIC\100 HITS\- 100 HITS - THE BEST -\100 HITS - THE BEST - SOFT ROCK ALBUM\100 HITS - THE BEST - SOFT ROCK ALBUM - CD5\10.Lou Reed - Perfect Day.wav
Peak level 94.3 % Extraction speed 25.3 X Track quality 100.0 % Copy CRC EC0DD5AD Track not present in AccurateRip database Copy OK
Track 11
Filename A:\PsPBuRnOuT's MUSIC\100 HITS\- 100 HITS - THE BEST -\100 HITS - THE BEST - SOFT ROCK ALBUM\100 HITS - THE BEST - SOFT ROCK ALBUM - CD5\11.Jeff Buckley - Hallelujah.wav
Peak level 94.3 % Extraction speed 30.3 X Track quality 100.0 % Copy CRC A2420AFE Track not present in AccurateRip database Copy OK
Track 12
Filename A:\PsPBuRnOuT's MUSIC\100 HITS\- 100 HITS - THE BEST -\100 HITS - THE BEST - SOFT ROCK ALBUM\100 HITS - THE BEST - SOFT ROCK ALBUM - CD5\12.Phantom Planet - California (Tchad Blake Mix).wav
Peak level 74.1 % Extraction speed 32.5 X Track quality 100.0 % Copy CRC EFA8275A Track not present in AccurateRip database Copy OK
Track 13
Filename A:\PsPBuRnOuT's MUSIC\100 HITS\- 100 HITS - THE BEST -\100 HITS - THE BEST - SOFT ROCK ALBUM\100 HITS - THE BEST - SOFT ROCK ALBUM - CD5\13.Natalie Imbruglia - Shiver.wav
Peak level 63.8 % Extraction speed 23.0 X Track quality 99.9 % Copy CRC 74DC5B62 Track not present in AccurateRip database Copy OK
Track 14
Filename A:\PsPBuRnOuT's MUSIC\100 HITS\- 100 HITS - THE BEST -\100 HITS - THE BEST - SOFT ROCK ALBUM\100 HITS - THE BEST - SOFT ROCK ALBUM - CD5\14.Sophie B. Hawkins - As I Lay Me Down.wav
Peak level 91.1 % Extraction speed 16.8 X Track quality 99.9 % Copy CRC 09995C1C Track not present in AccurateRip database Copy OK
Track 15
Filename A:\PsPBuRnOuT's MUSIC\100 HITS\- 100 HITS - THE BEST -\100 HITS - THE BEST - SOFT ROCK ALBUM\100 HITS - THE BEST - SOFT ROCK ALBUM - CD5\15.DJ Sammy & Yanou Feat. Do - Heaven (Candlelight Mix).wav
Peak level 78.0 % Extraction speed 16.6 X Track quality 99.9 % Copy CRC 7A689D95 Track not present in AccurateRip database Copy OK
Track 16
Filename A:\PsPBuRnOuT's MUSIC\100 HITS\- 100 HITS - THE BEST -\100 HITS - THE BEST - SOFT ROCK ALBUM\100 HITS - THE BEST - SOFT ROCK ALBUM - CD5\16.The Calling - Our Lives.wav
Peak level 74.9 % Extraction speed 11.1 X Track quality 99.7 % Copy CRC 1B2D648E Track not present in AccurateRip database Copy OK
Track 17
Filename A:\PsPBuRnOuT's MUSIC\100 HITS\- 100 HITS - THE BEST -\100 HITS - THE BEST - SOFT ROCK ALBUM\100 HITS - THE BEST - SOFT ROCK ALBUM - CD5\17.Manic Street Preachers - Little Baby Nothing.wav
Peak level 84.1 % Extraction speed 13.6 X Track quality 99.8 % Copy CRC 31028DEB Track not present in AccurateRip database Copy OK
Track 18
Filename A:\PsPBuRnOuT's MUSIC\100 HITS\- 100 HITS - THE BEST -\100 HITS - THE BEST - SOFT ROCK ALBUM\100 HITS - THE BEST - SOFT ROCK ALBUM - CD5\18.Primal Scream - (I'm Gonna) Cry Myself Blind.wav
Peak level 94.3 % Extraction speed 16.2 X Track quality 99.8 % Copy CRC 8C3E7FF4 Track not present in AccurateRip database Copy OK
Track 19
Filename A:\PsPBuRnOuT's MUSIC\100 HITS\- 100 HITS - THE BEST -\100 HITS - THE BEST - SOFT ROCK ALBUM\100 HITS - THE BEST - SOFT ROCK ALBUM - CD5\19.Republica - Ready To Go.wav
Peak level 75.1 % Extraction speed 8.8 X Track quality 99.7 % Copy CRC 49F36491 Track not present in AccurateRip database Copy OK
Track 20
Filename A:\PsPBuRnOuT's MUSIC\100 HITS\- 100 HITS - THE BEST -\100 HITS - THE BEST - SOFT ROCK ALBUM\100 HITS - THE BEST - SOFT ROCK ALBUM - CD5\20.Status Quo - The Party Ain't Over Yet.wav
Peak level 90.5 % Extraction speed 8.9 X Track quality 99.8 % Copy CRC BC5F3FDF Track not present in AccurateRip database Copy OK
None of the tracks are present in the AccurateRip database
No errors occurred
End of status report
---- CUETools DB Plugin V2.1.6
[CTDB TOCID: i.YOEM1qs9B2j9zvo8i2BnTYmz4-] foundSubmit result: i.YOEM1qs9B2j9zvo8i2BnTYmz4- has been confirmedTrack | CTDB Status 1 | (1/1) Accurately ripped 2 | (1/1) Accurately ripped 3 | (1/1) Accurately ripped 4 | (1/1) Accurately ripped 5 | (1/1) Accurately ripped 6 | (1/1) Accurately ripped 7 | (1/1) Accurately ripped 8 | (1/1) Accurately ripped 9 | (1/1) Accurately ripped 10 | (1/1) Accurately ripped 11 | (1/1) Accurately ripped 12 | (1/1) Accurately ripped 13 | (1/1) Accurately ripped 14 | (1/1) Accurately ripped 15 | (1/1) Accurately ripped 16 | (1/1) Accurately ripped 17 | (1/1) Accurately ripped 18 | (1/1) Accurately ripped 19 | (1/1) Accurately ripped 20 | (1/1) Accurately ripped

Содержание индексной карты (.CUE)

REM GENRE RockREM DATE 2018REM DISCID 3A12B714REM DISCNUMBER 05REM TOTALDISCS 05REM COMMENT "Exact Audio Copy V1.3"PERFORMER "Various"TITLE "100 Hits - The Best - Soft Rock Album - CD5"FILE "01.Belinda Carlisle - Heaven Is A Place On Earth.flac" WAVE  TRACK 01 AUDIO    PERFORMER "Belinda Carlisle"    TITLE "Heaven Is A Place On Earth"    INDEX 01 00:00:00FILE "02.Spandau Ballet - Fight For Ourselves.flac" WAVE  TRACK 02 AUDIO    PERFORMER "Spandau Ballet"    TITLE "Fight For Ourselves"    INDEX 01 00:00:00FILE "03.Roachford - Family Man.flac" WAVE  TRACK 03 AUDIO    PERFORMER "Roachford"    TITLE "Family Man"    INDEX 01 00:00:00FILE "04.The Bangles - Eternal Flame.flac" WAVE  TRACK 04 AUDIO    PERFORMER "The Bangles"    TITLE "Eternal Flame"    INDEX 01 00:00:00FILE "05.Martika - Love... Thy Will Be Done.flac" WAVE  TRACK 05 AUDIO    PERFORMER "Martika"    TITLE "Love... Thy Will Be Done"    INDEX 01 00:00:00FILE "06.Jennifer Rush - The Power Of Love.flac" WAVE  TRACK 06 AUDIO    PERFORMER "Jennifer Rush"    TITLE "The Power Of Love"    INDEX 01 00:00:00FILE "07.Dee C. Lee - See The Day.flac" WAVE  TRACK 07 AUDIO    PERFORMER "Dee C. Lee"    TITLE "See The Day"    INDEX 01 00:00:00FILE "08.Beverley Craven - Promise Me.flac" WAVE  TRACK 08 AUDIO    PERFORMER "Beverley Craven"    TITLE "Promise Me"    INDEX 01 00:00:00FILE "09.Michael Bolton - When A Man Loves A Woman.flac" WAVE  TRACK 09 AUDIO    PERFORMER "Michael Bolton"    TITLE "When A Man Loves A Woman"    INDEX 01 00:00:00FILE "10.Lou Reed - Perfect Day.flac" WAVE  TRACK 10 AUDIO    PERFORMER "Lou Reed"    TITLE "Perfect Day"    INDEX 01 00:00:00FILE "11.Jeff Buckley - Hallelujah.flac" WAVE  TRACK 11 AUDIO    PERFORMER "Jeff Buckley"    TITLE "Hallelujah"    INDEX 01 00:00:00FILE "12.Phantom Planet - California (Tchad Blake Mix).flac" WAVE  TRACK 12 AUDIO    PERFORMER "Phantom Planet"    TITLE "California (Tchad Blake Mix)"    INDEX 01 00:00:00FILE "13.Natalie Imbruglia - Shiver.flac" WAVE  TRACK 13 AUDIO    PERFORMER "Natalie Imbruglia"    TITLE "Shiver"    INDEX 01 00:00:00FILE "14.Sophie B. Hawkins - As I Lay Me Down.flac" WAVE  TRACK 14 AUDIO    PERFORMER "Sophie B. Hawkins"    TITLE "As I Lay Me Down"    INDEX 01 00:00:00FILE "15.DJ Sammy & Yanou Feat. Do - Heaven (Candlelight Mix).flac" WAVE  TRACK 15 AUDIO    PERFORMER "DJ Sammy & Yanou Feat. Do"    TITLE "Heaven (Candlelight Mix)"    INDEX 01 00:00:00FILE "16.The Calling - Our Lives.flac" WAVE  TRACK 16 AUDIO    PERFORMER "The Calling"    TITLE "Our Lives"    INDEX 01 00:00:00FILE "17.Manic Street Preachers - Little Baby Nothing.flac" WAVE  TRACK 17 AUDIO    PERFORMER "Manic Street Preachers"    TITLE "Little Baby Nothing"    INDEX 01 00:00:00FILE "18.Primal Scream - (I'm Gonna) Cry Myself Blind.flac" WAVE  TRACK 18 AUDIO    PERFORMER "Primal Scream"    TITLE "(I'm Gonna) Cry Myself Blind"    INDEX 01 00:00:00FILE "19.Republica - Ready To Go.flac" WAVE  TRACK 19 AUDIO    PERFORMER "Republica"    TITLE "Ready To Go"    INDEX 01 00:00:00FILE "20.Status Quo - The Party Ain't Over Yet.flac" WAVE  TRACK 20 AUDIO    PERFORMER "Status Quo"    TITLE "The Party Ain't Over Yet"    INDEX 01 00:00:00
Вы не можете начинать темы
Вы не можете отвечать на сообщения
Вы не можете редактировать свои сообщения
Вы не можете удалять свои сообщения
Вы не можете голосовать в опросах
Вы не можете прикреплять файлы к сообщениям
Вы можете скачивать файлы
!ВНИМАНИЕ!

Сайт не предоставляет электронные версии произведений, а занимается лишь коллекционированием и каталогизацией ссылок, присылаемых и публикуемых на форуме нашими читателями. Если вы являетесь правообладателем какого-либо представленного материала и не желаете, чтобы ссылка на него находилась в нашем каталоге, свяжитесь с нами, и мы незамедлительно удалим ее. Файлы для обмена на трекере предоставлены пользователями сайта, и администрация не несет ответственности за их содержание. Просьба не заливать файлы, защищенные авторскими правами, а также файлы нелегального содержания!

Искали программы, игры, дополнения, музыка mp3, аниме, аудио книги, журналы? Добро пожаловать на свободный торрент трекер Torrents, у нас можно скачать бесплатно, без смс и регистрации и прочих ограничений лучшие, отборные сборки программ, игр. Скачать торрентом не составит труда даже не опытному пользователю. Раздачи ежедневно обновляются, только лучшие и качественные раздачи, подробные описания и скриншоты. Огромная коллекция программ для работы со звуком, графикой, дизайном, а так же множество плагинов и инструментов к ним с подробной инструкцией и рекомендациями. Прошивки для навигаторов, карты. Разнообразные игры, для Windows, Linux. В коллекцие есть и старые игры любых жанров, Rpg, Action, Shooter, strategy Множество дополнений, модификаций, сценариев для популярных игр в жанре экш, рпг, гонки, стратегии, логические игры. Множество аддонов и сценариев для Microsoft Flight Simulator Большая коллекция книг, учебников. Если нет возможности купить печатное издание - смело скачивайте цифровую версию книги или, быть может, журнала. Не любите читать - можно загрузить бесплатно аудикнигу. Для веб дизайнеров и программистов так же найдется множество специализированного софта, таких как: редакторы с подсветкой, среды программирования, компоненты, системы управления базами данных, разнообразные скрипты и шаблоны. Не так давно у нас появился материал для автолюбителей и владельцев мото - оригинальные и неоригинальные каталоги запчастей, книги и журналы по ремонту и обслуживанию, видеоуроки, статьи по чип тюнингу, прошивкам. Процедура получения контента элементарная, достаточно просто скачать торрент файл и добавить его в загрузку в вашем торрент клиенте. Если у вас нет специального торрент клиента, вы можете его скачать у нас.

CHRISTOFLE rare boite argent massif sterling 925 | Bretelle donna uomo straccali suspenders regolabili elastiche, | Densetsu no Yūsha no Densetsu