(Rock\'n\'Roll) [CD] VA - Kings Of Rock\'n\'Roll: 30 Track Collection - 1991, FLAC (image+.cue), lossless 

Цитировать
VA - Kings Of Rock'n'Roll: 30 Track Collection
Жанр: Rock'n'Roll
Носитель: CD
Страна-производитель диска (релиза): EU
Год издания: 1991?
Издатель (лейбл): Tring International PLC/Double Play
Номер по каталогу: GRF008
Страна исполнителя (группы): USA
Аудиокодек: FLAC (*.flac)
Тип рипа: image+.cue
Битрейт аудио: lossless
Продолжительность: 01:11:46
Источник (релизер): alexpika
Наличие сканов в содержимом раздачи: да
Треклист:
01. Johnny & The Hurricanes - Red River Rock (Mack, KIng, Mendelsohn) 02:07
02. Bill Haley - Rock Around The Clock (Freedman, DeKnight) 02:14
03. Little Richard - Long Tall Sally (Johnson, Blackwell, Penniman) 02:07
04. The Coasters - Yakety Yak (Leiber, Stoller) 01:41
05. Duane Eddy - Rebel Rouser (Eddy, Hazlewood) 02:17
06. Lloyd Price - Stagger Lee (Trad. Logan, Price) 02:52
07. Little Richard - Lucille (Collins, Penniman) 02:19
08. Frankie Ford - Sea Cruise (Smith, Vincent) 02:41
09. Del Shannon - Hats Off To Larry (Shannon) 01:57
10. Little Richard - Ooh My Soul (Penniman) 02:21
11. Chubby Checker - Let's Twist Again (Mann, Appell) 02:22
12. The Crystals - Da Doo Ron Ron (Berry, Greenwich, Spector) 02:19
13. Sam The Sham & The Pharaohs - Wooly Bully (Samudio) 02:20
14. The Shamps - Tequila (Rio) 02:07
15. The Shangri-las - Leader Of The Pack (Morton, Barry, Greenwich) 02:49
16. Del Shannon - Runaway (Crook, Shannon) 02:32
17. Bill Haley - See You Later Alligator (Guidry) 01:47
18. Danny & The Juniors - Rock & Roll Is Here To Stay (White) 02:33
19. Fats Domino - Blueberry Hill (Lewis, Rose, Stock) 03:02
20. Chubby Checker - The Twist (Ballard) 02:37
21. Gene Chandler - Duke Of Earl (Dixon, Williams, Edwards) 02:30
22. Piano Smith - Rockin' Pneumonia & The Boogie Woogie Flu (Smith, Vincent) 02:15
23. Little Richard - Good Golly Miss Molly (Blackwell, Marascalco) 02:08
24. Ray Peterson - Tell Laura I Love Her (Barry, Raleigh) 02:50
25. Danny & The Juniors - At The Hop (Singer, Medora, White) 02:38
26. Lloyd Price - Personality (Logan, Price) 02:26
27. Johnny & The Hurricanes - Rockin Goose (King, Mack Fowler) 01:49
28. Little Richard - Tutti Fruti - (Penniman, LaBostrie, Lubin) 02:28
29. Fats Domino - Ain't That A Shame (Domino, Bartholomew) 02:30
30. Bill Haley - Shake Rattle & Roll (Calhoun) 02:52

Лог создания рипа

Exact Audio Copy V1.0 beta 3 from 29. August 2011
EAC extraction logfile from 25. December 2016, 10:43
Various Artists / Kings of Rock'n'Roll
Used drive : TSSTcorpCDDVDW SH-216DB Adapter: 0 ID: 0
Read mode : SecureUtilize accurate stream : YesDefeat audio cache : YesMake use of C2 pointers : No
Read offset correction : 6Overread into Lead-In and Lead-Out : NoFill up missing offset samples with silence : YesDelete leading and trailing silent blocks : NoNull samples used in CRC calculations : YesUsed interface : Native Win32 interface for Win NT & 2000
Used output format : User Defined EncoderSelected bitrate : 1024 kBit/sQuality : HighAdd ID3 tag : NoCommand line compressor : C:\Program Files (x86)\Exact Audio Copy\Flac\flac.exeAdditional command line options : -V -8 -T "Date=%year%" -T "Genre=%genre%" %source%
TOC of the extracted CD
Track | Start | Length | Start sector | End sector --------------------------------------------------------- 1 | 0:00.32 | 2:09.33 | 32 | 9739 2 | 2:09.65 | 2:12.00 | 9740 | 19639 3 | 4:21.65 | 2:07.25 | 19640 | 29189 4 | 6:29.15 | 1:42.17 | 29190 | 36856 5 | 8:11.32 | 2:17.40 | 36857 | 47171 6 | 10:28.72 | 2:47.18 | 47172 | 59714 7 | 13:16.15 | 2:19.20 | 59715 | 70159 8 | 15:35.35 | 2:40.62 | 70160 | 82221 9 | 18:16.22 | 1:59.05 | 82222 | 91151 10 | 20:15.27 | 2:22.43 | 91152 | 101844 11 | 22:37.70 | 2:24.42 | 101845 | 112686 12 | 25:02.37 | 2:14.70 | 112687 | 122806 13 | 27:17.32 | 2:22.70 | 122807 | 133526 14 | 29:40.27 | 2:07.05 | 133527 | 143056 15 | 31:47.32 | 2:50.58 | 143057 | 155864 16 | 34:38.15 | 2:31.15 | 155865 | 167204 17 | 37:09.30 | 1:46.50 | 167205 | 175204 18 | 38:56.05 | 2:31.40 | 175205 | 186569 19 | 41:27.45 | 3:02.72 | 186570 | 200291 20 | 44:30.42 | 2:38.28 | 200292 | 212169 21 | 47:08.70 | 2:29.72 | 212170 | 223416 22 | 49:38.67 | 2:15.38 | 223417 | 233579 23 | 51:54.30 | 2:08.67 | 233580 | 243246 24 | 54:03.22 | 2:50.28 | 243247 | 256024 25 | 56:53.50 | 2:40.62 | 256025 | 268086 26 | 59:34.37 | 2:29.40 | 268087 | 279301 27 | 62:04.02 | 1:49.63 | 279302 | 287539 28 | 63:53.65 | 2:30.05 | 287540 | 298794 29 | 66:23.70 | 2:30.35 | 298795 | 310079 30 | 68:54.30 | 2:52.10 | 310080 | 322989
Range status and errors
Selected range
Filename L:\Private\My Audio Ripps\ CD - RIPS\Kings Of Rock'n'Roll - 30 Track Collection - Double Play\Various Artists - Kings of Rock'n'Roll.wav
Peak level 98.2 % Extraction speed 2.4 X Range quality 100.0 % Test CRC 8A18D514 Copy CRC 8A18D514 Copy OK
No errors occurred
AccurateRip summary
Track 1 accurately ripped (confidence 2) [588EE459] (AR v2)Track 2 accurately ripped (confidence 2) [7F62B7A9] (AR v2)Track 3 accurately ripped (confidence 2) [30D2A70F] (AR v2)Track 4 accurately ripped (confidence 2) [487E2700] (AR v2)Track 5 accurately ripped (confidence 2) [768A8A5C] (AR v2)Track 6 accurately ripped (confidence 2) [4E7D0E32] (AR v2)Track 7 accurately ripped (confidence 2) [114EFD65] (AR v2)Track 8 accurately ripped (confidence 2) [29B3779E] (AR v2)Track 9 accurately ripped (confidence 2) [AAB2BE60] (AR v2)Track 10 accurately ripped (confidence 2) [5ED6FC13] (AR v2)Track 11 accurately ripped (confidence 2) [C78D7D0E] (AR v2)Track 12 accurately ripped (confidence 2) [CDF3D3D6] (AR v2)Track 13 accurately ripped (confidence 2) [5603CF9E] (AR v2)Track 14 accurately ripped (confidence 2) [8B3EC467] (AR v2)Track 15 accurately ripped (confidence 2) [85EF6EE5] (AR v2)Track 16 accurately ripped (confidence 2) [3F0DB265] (AR v2)Track 17 accurately ripped (confidence 2) [628BFF82] (AR v2)Track 18 accurately ripped (confidence 2) [ACD3F569] (AR v2)Track 19 accurately ripped (confidence 2) [02EC6D2F] (AR v2)Track 20 accurately ripped (confidence 2) [8067D6AC] (AR v2)Track 21 accurately ripped (confidence 2) [5A0E17D1] (AR v2)Track 22 accurately ripped (confidence 2) [1F392098] (AR v2)Track 23 accurately ripped (confidence 2) [C35B9F06] (AR v2)Track 24 accurately ripped (confidence 2) [3036B33C] (AR v2)Track 25 accurately ripped (confidence 2) [868D312B] (AR v2)Track 26 accurately ripped (confidence 2) [9F069B07] (AR v2)Track 27 accurately ripped (confidence 2) [8572A17E] (AR v2)Track 28 accurately ripped (confidence 2) [07FA9EDD] (AR v2)Track 29 accurately ripped (confidence 2) [54686CCC] (AR v2)Track 30 accurately ripped (confidence 2) [0BD8ED30] (AR v2)
All tracks accurately ripped
End of status report
==== Log checksum B0B529362345CF4815F7F9D00DBFFB5BF39EC70F2535C48C1E0C57FEB3881079 ====

Содержание индексной карты (.CUE)

REM GENRE Rock'n'RollREM DATE 1991REM DISCID C610D21EREM COMMENT "ExactAudioCopy v1.0b3"PERFORMER "Various Artists"TITLE "Kings of Rock'n'Roll"FILE "Various Artists - Kings of Rock'n'Roll.flac" WAVE  TRACK 01 AUDIO    TITLE "Red River Rock"    PERFORMER "Johnny & The Hurricanes"    INDEX 00 00:00:00    INDEX 01 00:00:32  TRACK 02 AUDIO    TITLE "Rock Around the Clock"    PERFORMER "Bill Haley"    INDEX 00 02:09:47    INDEX 01 02:09:65  TRACK 03 AUDIO    TITLE "Long Tall Sally"    PERFORMER "Little Richard"    INDEX 00 04:21:37    INDEX 01 04:21:65  TRACK 04 AUDIO    TITLE "Yakety Yak"    PERFORMER "The Coasters"    INDEX 00 06:28:15    INDEX 01 06:29:15  TRACK 05 AUDIO    TITLE "Rebel Rouser"    PERFORMER "Duane Eddy"    INDEX 00 08:10:62    INDEX 01 08:11:32  TRACK 06 AUDIO    TITLE "Stagger Lee"    PERFORMER "Lloyd Price"    INDEX 00 10:28:22    INDEX 01 10:28:72  TRACK 07 AUDIO    TITLE "Lucille"    PERFORMER "Little Richard"    INDEX 00 13:14:22    INDEX 01 13:16:15  TRACK 08 AUDIO    TITLE "Sea Cruise"    PERFORMER "Frankie Ford"    INDEX 00 15:33:65    INDEX 01 15:35:35  TRACK 09 AUDIO    TITLE "Hats Off to Larry"    PERFORMER "Del Shannon"    INDEX 00 18:14:40    INDEX 01 18:16:22  TRACK 10 AUDIO    TITLE "Ooh My Soul"    PERFORMER "Little Richard"    INDEX 00 20:13:35    INDEX 01 20:15:27  TRACK 11 AUDIO    TITLE "Let's Twist Again"    PERFORMER "Chubby Checker"    INDEX 00 22:36:67    INDEX 01 22:37:70  TRACK 12 AUDIO    TITLE "Da Doo Ron Ron"    PERFORMER "The Crystals"    INDEX 00 25:00:35    INDEX 01 25:02:37  TRACK 13 AUDIO    TITLE "Wooly Bully"    PERFORMER "Sam The Sham & The Pharaohs"    INDEX 00 27:16:30    INDEX 01 27:17:32  TRACK 14 AUDIO    TITLE "Tequila"    PERFORMER "The Champs"    INDEX 00 29:38:62    INDEX 01 29:40:27  TRACK 15 AUDIO    TITLE "Leader of the Pack"    PERFORMER "The Shangri-Las"    INDEX 00 31:45:32    INDEX 01 31:47:32  TRACK 16 AUDIO    TITLE "Runaway"    PERFORMER "Del Shannon"    INDEX 00 34:35:57    INDEX 01 34:38:15  TRACK 17 AUDIO    TITLE "See You Later Alligator"    PERFORMER "Bill Haley"    INDEX 00 37:08:30    INDEX 01 37:09:30  TRACK 18 AUDIO    TITLE "Rock & Roll Is Her"    PERFORMER "Danny & The Juniors"    INDEX 00 38:55:12    INDEX 01 38:56:05  TRACK 19 AUDIO    TITLE "Blueberry Hill"    PERFORMER "Fats Domino"    INDEX 00 41:26:30    INDEX 01 41:27:45  TRACK 20 AUDIO    TITLE "The Twist"    PERFORMER "Chubby Checker"    INDEX 00 44:29:15    INDEX 01 44:30:42  TRACK 21 AUDIO    TITLE "Duke of Earl"    PERFORMER "Gene Chandler"    INDEX 00 47:08:22    INDEX 01 47:08:70  TRACK 22 AUDIO    TITLE "Rockin' Pneumonia & The Boo"    PERFORMER "Piano Smith"    INDEX 00 49:37:20    INDEX 01 49:38:67  TRACK 23 AUDIO    TITLE "Good Golly Miss Molly"    PERFORMER "Little Richard"    INDEX 00 51:53:45    INDEX 01 51:54:30  TRACK 24 AUDIO    TITLE "Tell Laura I Love Her"    PERFORMER "Ray Peterson"    INDEX 00 54:02:50    INDEX 01 54:03:22  TRACK 25 AUDIO    TITLE "At the Hop"    PERFORMER "Danny & The Juniors"    INDEX 00 56:53:12    INDEX 01 56:53:50  TRACK 26 AUDIO    TITLE "Personality"    PERFORMER "Lloyd Price"    INDEX 00 59:31:42    INDEX 01 59:34:37  TRACK 27 AUDIO    TITLE "Rockin' Goose"    PERFORMER "Johnny & The Hurricanes"    INDEX 00 62:01:55    INDEX 01 62:04:02  TRACK 28 AUDIO    TITLE "Tutti Frutti"    PERFORMER "Little Richard"    INDEX 00 63:51:65    INDEX 01 63:53:65  TRACK 29 AUDIO    TITLE "Ain't That a Shame"    PERFORMER "Fats Domino"    INDEX 00 66:22:50    INDEX 01 66:23:70  TRACK 30 AUDIO    TITLE "Shake Rattle & Roll"    PERFORMER "Bill Haley"    INDEX 00 68:52:55    INDEX 01 68:54:30

Лог проверки качества

-----------------------
DON'T MODIFY THIS FILE
-----------------------
PERFORMER: auCDtect Task Manager, ver. 1.5.1RC4 build 1.5.1.5Copyright (c) 2008-2010 y-soft. All rights reservedhttp://y-soft.org
ANALYZER: auCDtect: CD records authenticity detector, version 0.8.2Copyright (c) 2004 Oleg Berngardt. All rights reserved.Copyright (c) 2004 Alexander Djourik. All rights reserved.
FILE: Various Artists - Kings of Rock'n'Roll.flac Size: 419423481 Hash: 3980F7D099D766618F3AE98F72545C08 Accuracy: -m0 Conclusion: MPEG 95% Signature: FF17EB1BFA319FD5CF2A3AE02080EBC4D1F56E81

DR log

foobar2000 1.3.9 / Замер динамического диапазона (DR) 1.1.1Дата отчёта:  2016-12-27 17:27:21
--------------------------------------------------------------------------------Анализ: Bill Haley / Kings of Rock'n'Roll--------------------------------------------------------------------------------
DR Пики RMS Продолжительность трека--------------------------------------------------------------------------------DR10 -2.09 дБ -13.50 дБ 2:12 2-Rock Around the ClockDR11 -2.17 дБ -13.83 дБ 1:47 17-See You Later AlligatorDR10 -2.06 дБ -12.73 дБ 2:52 30-Shake Rattle & Roll--------------------------------------------------------------------------------
Количество треков: 3Реальные значения DR: DR10
Частота: 44100 ГцКаналов: 2Разрядность: 16Битрейт: 779 кбит/сКодек: FLAC================================================================================
--------------------------------------------------------------------------------Анализ: Chubby Checker / Kings of Rock'n'Roll--------------------------------------------------------------------------------
DR Пики RMS Продолжительность трека--------------------------------------------------------------------------------DR11 -1.22 дБ -13.45 дБ 2:25 11-Let's Twist AgainDR10 -1.21 дБ -13.63 дБ 2:38 20-The Twist--------------------------------------------------------------------------------
Количество треков: 2Реальные значения DR: DR11
Частота: 44100 ГцКаналов: 2Разрядность: 16Битрейт: 779 кбит/сКодек: FLAC================================================================================
--------------------------------------------------------------------------------Анализ: Danny & The Juniors / Kings of Rock'n'Roll--------------------------------------------------------------------------------
DR Пики RMS Продолжительность трека--------------------------------------------------------------------------------DR10 -2.58 дБ -13.80 дБ 2:32 18-Rock & Roll Is HerDR13 -1.22 дБ -15.63 дБ 2:41 25-At the Hop--------------------------------------------------------------------------------
Количество треков: 2Реальные значения DR: DR11
Частота: 44100 ГцКаналов: 2Разрядность: 16Битрейт: 779 кбит/сКодек: FLAC================================================================================
--------------------------------------------------------------------------------Анализ: Del Shannon / Kings of Rock'n'Roll--------------------------------------------------------------------------------
DR Пики RMS Продолжительность трека--------------------------------------------------------------------------------DR10 -2.35 дБ -13.50 дБ 1:59 9-Hats Off to LarryDR12 -0.95 дБ -14.70 дБ 2:31 16-Runaway--------------------------------------------------------------------------------
Количество треков: 2Реальные значения DR: DR11
Частота: 44100 ГцКаналов: 2Разрядность: 16Битрейт: 779 кбит/сКодек: FLAC================================================================================
--------------------------------------------------------------------------------Анализ: Duane Eddy / Kings of Rock'n'Roll (1) Fats Domino / Kings of Rock'n'Roll (2-3)--------------------------------------------------------------------------------
DR Пики RMS Продолжительность трека--------------------------------------------------------------------------------DR10 -1.18 дБ -13.26 дБ 2:18 5-Rebel RouserDR11 -2.20 дБ -14.05 дБ 3:03 19-Blueberry HillDR12 -1.23 дБ -14.58 дБ 2:30 29-Ain't That a Shame--------------------------------------------------------------------------------
Количество треков: 3Реальные значения DR: DR11
Частота: 44100 ГцКаналов: 2Разрядность: 16Битрейт: 779 кбит/сКодек: FLAC================================================================================
--------------------------------------------------------------------------------Анализ: Little Richard / Kings of Rock'n'Roll--------------------------------------------------------------------------------
DR Пики RMS Продолжительность трека--------------------------------------------------------------------------------DR10 -1.93 дБ -12.86 дБ 2:07 3-Long Tall SallyDR10 -1.58 дБ -13.80 дБ 2:19 7-LucilleDR10 -2.00 дБ -12.79 дБ 2:23 10-Ooh My SoulDR9 -1.20 дБ -12.58 дБ 2:09 23-Good Golly Miss MollyDR9 -3.01 дБ -13.09 дБ 2:30 28-Tutti Frutti--------------------------------------------------------------------------------
Количество треков: 5Реальные значения DR: DR10
Частота: 44100 ГцКаналов: 2Разрядность: 16Битрейт: 779 кбит/сКодек: FLAC================================================================================
--------------------------------------------------------------------------------Анализ: Lloyd Price / Kings of Rock'n'Roll--------------------------------------------------------------------------------
DR Пики RMS Продолжительность трека--------------------------------------------------------------------------------DR11 -1.68 дБ -13.67 дБ 2:47 6-Stagger LeeDR10 -2.14 дБ -13.88 дБ 2:30 26-Personality--------------------------------------------------------------------------------
Количество треков: 2Реальные значения DR: DR11
Частота: 44100 ГцКаналов: 2Разрядность: 16Битрейт: 779 кбит/сКодек: FLAC================================================================================
--------------------------------------------------------------------------------Анализ: Piano Smith / Kings of Rock'n'Roll (1) Ray Peterson / Kings of Rock'n'Roll (2)--------------------------------------------------------------------------------
DR Пики RMS Продолжительность трека--------------------------------------------------------------------------------DR15 -1.02 дБ -19.07 дБ 2:16 22-Rockin' Pneumonia & The BooDR10 -2.53 дБ -14.35 дБ 2:50 24-Tell Laura I Love Her--------------------------------------------------------------------------------
Количество треков: 2Реальные значения DR: DR12
Частота: 44100 ГцКаналов: 2Разрядность: 16Битрейт: 779 кбит/сКодек: FLAC================================================================================
--------------------------------------------------------------------------------Анализ: Sam The Sham & The Pharaohs / Kings of Rock'n'Roll (1) The Champs / Kings of Rock'n'Roll (2)--------------------------------------------------------------------------------
DR Пики RMS Продолжительность трека--------------------------------------------------------------------------------DR11 -1.49 дБ -13.98 дБ 2:23 13-Wooly BullyDR12 -2.12 дБ -16.82 дБ 2:07 14-Tequila--------------------------------------------------------------------------------
Количество треков: 2Реальные значения DR: DR11
Частота: 44100 ГцКаналов: 2Разрядность: 16Битрейт: 779 кбит/сКодек: FLAC================================================================================
--------------------------------------------------------------------------------Анализ: The Coasters / Kings of Rock'n'Roll (1) The Crystals / Kings of Rock'n'Roll (2) The Shangri-Las / Kings of Rock'n'Roll (3)--------------------------------------------------------------------------------
DR Пики RMS Продолжительность трека--------------------------------------------------------------------------------DR11 -0.96 дБ -13.75 дБ 1:42 4-Yakety YakDR11 -0.63 дБ -13.44 дБ 2:15 12-Da Doo Ron RonDR9 -2.51 дБ -13.49 дБ 2:51 15-Leader of the Pack--------------------------------------------------------------------------------
Количество треков: 3Реальные значения DR: DR11
Частота: 44100 ГцКаналов: 2Разрядность: 16Битрейт: 779 кбит/сКодек: FLAC================================================================================
Доп. информация
Вы не можете начинать темы
Вы не можете отвечать на сообщения
Вы не можете редактировать свои сообщения
Вы не можете удалять свои сообщения
Вы не можете голосовать в опросах
Вы не можете прикреплять файлы к сообщениям
Вы можете скачивать файлы
!ВНИМАНИЕ!

Сайт не предоставляет электронные версии произведений, а занимается лишь коллекционированием и каталогизацией ссылок, присылаемых и публикуемых на форуме нашими читателями. Если вы являетесь правообладателем какого-либо представленного материала и не желаете, чтобы ссылка на него находилась в нашем каталоге, свяжитесь с нами, и мы незамедлительно удалим ее. Файлы для обмена на трекере предоставлены пользователями сайта, и администрация не несет ответственности за их содержание. Просьба не заливать файлы, защищенные авторскими правами, а также файлы нелегального содержания!

Искали программы, игры, дополнения, музыка mp3, аниме, аудио книги, журналы? Добро пожаловать на свободный торрент трекер Torrents, у нас можно скачать бесплатно, без смс и регистрации и прочих ограничений лучшие, отборные сборки программ, игр. Скачать торрентом не составит труда даже не опытному пользователю. Раздачи ежедневно обновляются, только лучшие и качественные раздачи, подробные описания и скриншоты. Огромная коллекция программ для работы со звуком, графикой, дизайном, а так же множество плагинов и инструментов к ним с подробной инструкцией и рекомендациями. Прошивки для навигаторов, карты. Разнообразные игры, для Windows, Linux. В коллекцие есть и старые игры любых жанров, Rpg, Action, Shooter, strategy Множество дополнений, модификаций, сценариев для популярных игр в жанре экш, рпг, гонки, стратегии, логические игры. Множество аддонов и сценариев для Microsoft Flight Simulator Большая коллекция книг, учебников. Если нет возможности купить печатное издание - смело скачивайте цифровую версию книги или, быть может, журнала. Не любите читать - можно загрузить бесплатно аудикнигу. Для веб дизайнеров и программистов так же найдется множество специализированного софта, таких как: редакторы с подсветкой, среды программирования, компоненты, системы управления базами данных, разнообразные скрипты и шаблоны. Не так давно у нас появился материал для автолюбителей и владельцев мото - оригинальные и неоригинальные каталоги запчастей, книги и журналы по ремонту и обслуживанию, видеоуроки, статьи по чип тюнингу, прошивкам. Процедура получения контента элементарная, достаточно просто скачать торрент файл и добавить его в загрузку в вашем торрент клиенте. Если у вас нет специального торрент клиента, вы можете его скачать у нас.

Eps 8 Empire Season 5 | Noblesse 426 - Chapter 426 Dec 08, 2016 | テッドの迷宮