(Rock & Roll, Rockabilly) [CD] VA - Hommage Au Roi Du Rock \'N Roll Par Scotty Moore Live At Abbey Road (with Mark Knopfler, Eric Clapton, Albert Lee, Steve Gibbons, David Gilmour and etc.) - 2005, FLAC (image+.cue), lossless 

Цитировать
Hommage Au Roi Du Rock 'N Roll Par Scotty Moore Live At Abbey Road
Жанр: Rock & Roll, Rockabilly
Носитель: CD
Страна-производитель диска (релиза): France
Год издания: 2005
Издатель (лейбл): TF1 Video
Страна исполнителя (группы): GB & USA
Аудиокодек: FLAC (*.flac)
Тип рипа: image+.cue
Битрейт аудио: lossless
Продолжительность: 01:04:47
Источник (релизер): Alex Fal
Наличие сканов в содержимом раздачи: да
Треклист:
[01] Mark Knopfler - Blue Moon Of Kentucky [02:18]
[02] Mike Sanchez - My Baby Left Me [02:42]
[03] Eric Clapton - That's Alright Mama [02:12]
[04] Steve Gibbons - Heartbreak Hotel [02:50]
[05] Albert Lee - Trying To Get To You [02:48]
[06] Mark Knopfler - Let's Play House [02:41]
[07] Paul Ansell - Shake, Rattle & Roll [02:43]
[08] Paul Ansell - One Night With You [02:38]
[09 Steve Gibbons - Don't Be Cruel [01:55]
[10] Eric Clapton - Money Honey [02:56]
[11] Mike Sanchez - All Shook Up [01:56]
[12] Mike Sanchez - Lawdy Miss Claudy [02:08]
[13] Martin Taylor - Blue Moon [03:40]
[14] Paul Ansell - I Forgot To Remember To Forget [02:36]
[15] Paul Ansell - Ready Teddy [01:57]
[16] Martin Taylor - Heartbreak Hotel [02:59]
[17] David Gilmour - Don't [04:33]
[18] Steve Gibbons - Jailhouse Rock [02:36]
[19] Paul Ansell - Good Rocking Tonight [02:24]
[20] Steve Gibbons - I Don't Care If The Sun Don't Shine [02:27]
[21] Albert Lee - You're So Square, Baby I Don't Care [2:50]
[22] Albert Lee - Blue Suede Shoes [03:22]
[23] Martin Taylor - Tennessee Waltz [03:57]
[24] Eric Clapton - Mystery Train [02:52]
Видео-версия этого концерта на трекере http://rutracker.org/forum/viewtopic.php?t=2215923

Лог создания рипа

Exact Audio Copy V1.2 from 12. August 2016
EAC extraction logfile from 16. September 2018, 13:16
Various Artists / Hommage au roi du rock and roll
Used drive : ASUS SDRW-08D1S-U Adapter: 1 ID: 1
Read mode : SecureUtilize accurate stream : YesDefeat audio cache : YesMake use of C2 pointers : No
Read offset correction : 667Overread into Lead-In and Lead-Out : NoFill up missing offset samples with silence : YesDelete leading and trailing silent blocks : NoNull samples used in CRC calculations : YesUsed interface : Native Win32 interface for Win NT & 2000
Used output format : User Defined EncoderSelected bitrate : 128 kBit/sQuality : HighAdd ID3 tag : NoCommand line compressor : C:\Program Files (x86)\Exact Audio Copy\Flac\flac.exeAdditional command line options : -V -8 -T "Date=%year%" -T "Genre=%genre%" %source%
TOC of the extracted CD
Track | Start | Length | Start sector | End sector --------------------------------------------------------- 1 | 0:00.00 | 2:17.41 | 0 | 10315 2 | 2:17.41 | 2:41.61 | 10316 | 22451 3 | 4:59.27 | 2:12.18 | 22452 | 32369 4 | 7:11.45 | 2:50.33 | 32370 | 45152 5 | 10:02.03 | 2:48.00 | 45153 | 57752 6 | 12:50.03 | 2:40.62 | 57753 | 69814 7 | 15:30.65 | 2:42.72 | 69815 | 82036 8 | 18:13.62 | 2:37.69 | 82037 | 93880 9 | 20:51.56 | 1:55.20 | 93881 | 102525 10 | 22:47.01 | 2:55.49 | 102526 | 115699 11 | 25:42.50 | 1:55.59 | 115700 | 124383 12 | 27:38.34 | 2:08.21 | 124384 | 134004 13 | 29:46.55 | 3:03.74 | 134005 | 147803 14 | 32:50.54 | 2:35.52 | 147804 | 159480 15 | 35:26.31 | 1:56.66 | 159481 | 168246 16 | 37:23.22 | 2:58.38 | 168247 | 181634 17 | 40:21.60 | 4:32.68 | 181635 | 202102 18 | 44:54.53 | 2:35.42 | 202103 | 213769 19 | 47:30.20 | 2:24.01 | 213770 | 224570 20 | 49:54.21 | 2:27.36 | 224571 | 235631 21 | 52:21.57 | 2:15.23 | 235632 | 245779 22 | 54:37.05 | 3:21.40 | 245780 | 260894 23 | 57:58.45 | 3:56.44 | 260895 | 278638 24 | 61:55.14 | 2:51.50 | 278639 | 291513
Range status and errors
Selected range
Filename C:\Users\Олег\Desktop\Hommage Au Roi Du Rock 'N Roll Par Scotty Moore Live At Abbey Road\Various Artists - Hommage au roi du rock and roll.wav
Peak level 100.0 % Extraction speed 4.2 X Range quality 100.0 % Test CRC 3C0E4F64 Copy CRC 3C0E4F64 Copy OK
No errors occurred
AccurateRip summary
Track 1 accurately ripped (confidence 2) [C661A7D2] (AR v2)Track 2 accurately ripped (confidence 1) [8247249B] (AR v2)Track 3 accurately ripped (confidence 1) [A95433D5] (AR v2)Track 4 accurately ripped (confidence 1) [E453F73B] (AR v2)Track 5 accurately ripped (confidence 1) [ED6CEC10] (AR v2)Track 6 accurately ripped (confidence 2) [E420DE24] (AR v2)Track 7 accurately ripped (confidence 1) [DD257000] (AR v2)Track 8 accurately ripped (confidence 1) [C82A4FB5] (AR v2)Track 9 accurately ripped (confidence 1) [D5821196] (AR v2)Track 10 accurately ripped (confidence 1) [95DBB7A7] (AR v2)Track 11 accurately ripped (confidence 1) [5D433575] (AR v2)Track 12 accurately ripped (confidence 1) [CF9E9C6B] (AR v2)Track 13 accurately ripped (confidence 1) [9CE6F52A] (AR v2)Track 14 accurately ripped (confidence 1) [E400A428] (AR v2)Track 15 accurately ripped (confidence 1) [F73B43E4] (AR v2)Track 16 accurately ripped (confidence 1) [D25E635A] (AR v2)Track 17 accurately ripped (confidence 1) [6D8AA824] (AR v2)Track 18 accurately ripped (confidence 1) [DF86F951] (AR v2)Track 19 accurately ripped (confidence 1) [D351A5BC] (AR v2)Track 20 accurately ripped (confidence 1) [5DBC66A3] (AR v2)Track 21 accurately ripped (confidence 1) [7685AAC4] (AR v2)Track 22 accurately ripped (confidence 1) [56EF0E81] (AR v2)Track 23 accurately ripped (confidence 1) [EC159AFB] (AR v2)Track 24 accurately ripped (confidence 1) [AE2E0A6F] (AR v2)
All tracks accurately ripped
End of status report
---- CUETools DB Plugin V2.1.6
[CTDB TOCID: T7H6tpq9Jf31y6sSXdMwZl.o5F4-] foundSubmit result: T7H6tpq9Jf31y6sSXdMwZl.o5F4- has been confirmedTrack | CTDB Status 1 | (4/4) Accurately ripped 2 | (4/4) Accurately ripped 3 | (4/4) Accurately ripped 4 | (4/4) Accurately ripped 5 | (4/4) Accurately ripped 6 | (4/4) Accurately ripped 7 | (4/4) Accurately ripped 8 | (4/4) Accurately ripped 9 | (4/4) Accurately ripped 10 | (4/4) Accurately ripped 11 | (4/4) Accurately ripped 12 | (4/4) Accurately ripped 13 | (4/4) Accurately ripped 14 | (4/4) Accurately ripped 15 | (4/4) Accurately ripped 16 | (4/4) Accurately ripped 17 | (4/4) Accurately ripped 18 | (4/4) Accurately ripped 19 | (4/4) Accurately ripped 20 | (4/4) Accurately ripped 21 | (4/4) Accurately ripped 22 | (4/4) Accurately ripped 23 | (4/4) Accurately ripped 24 | (4/4) Accurately ripped
==== Log checksum D8C85971A198A071AB4531606BE2CC902B2447B620996AB05E74B0BFF19FC52B ====

Содержание индексной карты (.CUE)

REM GENRE "Rock & Roll"REM DATE 2005REM DISCID 610F2E18REM COMMENT "ExactAudioCopy v1.2"PERFORMER "Various Artists"TITLE "Hommage au roi du rock and roll"REM COMPOSER ""FILE "Various Artists - Hommage au roi du rock and roll.flac" WAVE  TRACK 01 AUDIO    TITLE "Blue Moon of Kentucky"    PERFORMER "Mark Knopfler"    REM COMPOSER ""    INDEX 01 00:00:00  TRACK 02 AUDIO    TITLE " My Baby Left Me"    PERFORMER "Mike Sanchez"    REM COMPOSER ""    INDEX 01 02:17:41  TRACK 03 AUDIO    TITLE "That's Alright Mama"    PERFORMER "Eric Clapton"    REM COMPOSER ""    INDEX 01 04:59:27  TRACK 04 AUDIO    TITLE "Heartbreak Hotel"    PERFORMER "Steve Gibbons"    REM COMPOSER ""    INDEX 01 07:11:45  TRACK 05 AUDIO    TITLE "Trying To Get To You"    PERFORMER "Albert Lee"    REM COMPOSER ""    INDEX 01 10:02:03  TRACK 06 AUDIO    TITLE "Let's Play House"    PERFORMER "Mark Knopfler"    REM COMPOSER ""    INDEX 01 12:50:03  TRACK 07 AUDIO    TITLE " Shake, Rattle & Roll"    PERFORMER "Paul Ansell"    REM COMPOSER ""    INDEX 01 15:30:65  TRACK 08 AUDIO    TITLE "One Night With You"    PERFORMER "Paul Ansell"    REM COMPOSER ""    INDEX 01 18:13:62  TRACK 09 AUDIO    TITLE "Don't Be Cruel"    PERFORMER "Steve Gibbons"    REM COMPOSER ""    INDEX 01 20:51:56  TRACK 10 AUDIO    TITLE "Money Honey"    PERFORMER "Eric Clapton"    REM COMPOSER ""    INDEX 01 22:47:01  TRACK 11 AUDIO    TITLE "All Shook Up"    PERFORMER "Mike Sanchez"    REM COMPOSER ""    INDEX 01 25:42:50  TRACK 12 AUDIO    TITLE "Lawdy Miss Claudy"    PERFORMER "Mike Sanchez"    REM COMPOSER ""    INDEX 01 27:38:34  TRACK 13 AUDIO    TITLE "Blue Moon"    PERFORMER "Martin Taylor"    REM COMPOSER ""    INDEX 01 29:46:55  TRACK 14 AUDIO    TITLE "I Forgot To Remember To Forget"    PERFORMER "Paul Ansell"    REM COMPOSER ""    INDEX 01 32:50:54  TRACK 15 AUDIO    TITLE "Ready Teddy"    PERFORMER "Paul Ansell"    REM COMPOSER ""    INDEX 01 35:26:31  TRACK 16 AUDIO    TITLE "Heartbreak Hotel"    PERFORMER "Martin Taylor"    REM COMPOSER ""    INDEX 01 37:23:22  TRACK 17 AUDIO    TITLE "Don't"    PERFORMER "David Gilmour"    REM COMPOSER ""    INDEX 01 40:21:60  TRACK 18 AUDIO    TITLE "Jailhouse Rock"    PERFORMER "Steve Gibbons"    REM COMPOSER ""    INDEX 01 44:54:53  TRACK 19 AUDIO    TITLE "Good Rocking Tonight"    PERFORMER "Paul Ansell"    REM COMPOSER ""    INDEX 01 47:30:20  TRACK 20 AUDIO    TITLE "I Don't Care If The Sun Don't Shine"    PERFORMER "Steve Gibbons"    REM COMPOSER ""    INDEX 01 49:54:21  TRACK 21 AUDIO    TITLE "You're So Square, Baby I Don't Care"    PERFORMER "Albert Lee"    REM COMPOSER ""    INDEX 01 52:21:57  TRACK 22 AUDIO    TITLE "Blue Suede Shoes"    PERFORMER "Albert Lee"    REM COMPOSER ""    INDEX 01 54:37:05  TRACK 23 AUDIO    TITLE "Tennessee Waltz"    PERFORMER "Martin Taylor"    REM COMPOSER ""    INDEX 01 57:58:45  TRACK 24 AUDIO    TITLE "Mystery Train"    PERFORMER "Eric Clapton"    REM COMPOSER ""    INDEX 01 61:55:14
Доп. информация:

Об альбоме (сборнике)

В 2004году состоялся концерт, посвященный 50-летию рок-н-ролла, на знаменитой лондонской студии Abbey Road. На концерте, организованном Скотти Муром (Scotty Moore), записавшим в 1954 году с Элвисом Пресли (Elvis Presley) песню "That's Alright, Mama", которая считается отправной точкой появления рок-н-ролла, выступили Ринго Старр (Ringo Starr), Дэвид Гилмор (David Gilmour), Кит Ричардс (Keith Richards), Рон Вуд (Ron Wood), Билл Уайман (Bill Wyman) и Марк Нопфлер (Mark Knopfler). К Муру присоединились многие известные гитаристы. Помимо Гилмора, Нопфлера, Вуда и Уаймана это Эрик Клэптон (Eric Clapton), Стив Гиббонс (Steve Gibbons), Майк Санчес (Mike Sanchez) и многие другие.
http://www.discogs.com/Various-Hommage-Au-Roi-Du-Rock-N-Roll-Par-Scotty-Moore-Li...release/12062280
Вы не можете начинать темы
Вы не можете отвечать на сообщения
Вы не можете редактировать свои сообщения
Вы не можете удалять свои сообщения
Вы не можете голосовать в опросах
Вы не можете прикреплять файлы к сообщениям
Вы можете скачивать файлы
!ВНИМАНИЕ!

Сайт не предоставляет электронные версии произведений, а занимается лишь коллекционированием и каталогизацией ссылок, присылаемых и публикуемых на форуме нашими читателями. Если вы являетесь правообладателем какого-либо представленного материала и не желаете, чтобы ссылка на него находилась в нашем каталоге, свяжитесь с нами, и мы незамедлительно удалим ее. Файлы для обмена на трекере предоставлены пользователями сайта, и администрация не несет ответственности за их содержание. Просьба не заливать файлы, защищенные авторскими правами, а также файлы нелегального содержания!

Искали программы, игры, дополнения, музыка mp3, аниме, аудио книги, журналы? Добро пожаловать на свободный торрент трекер Torrents, у нас можно скачать бесплатно, без смс и регистрации и прочих ограничений лучшие, отборные сборки программ, игр. Скачать торрентом не составит труда даже не опытному пользователю. Раздачи ежедневно обновляются, только лучшие и качественные раздачи, подробные описания и скриншоты. Огромная коллекция программ для работы со звуком, графикой, дизайном, а так же множество плагинов и инструментов к ним с подробной инструкцией и рекомендациями. Прошивки для навигаторов, карты. Разнообразные игры, для Windows, Linux. В коллекцие есть и старые игры любых жанров, Rpg, Action, Shooter, strategy Множество дополнений, модификаций, сценариев для популярных игр в жанре экш, рпг, гонки, стратегии, логические игры. Множество аддонов и сценариев для Microsoft Flight Simulator Большая коллекция книг, учебников. Если нет возможности купить печатное издание - смело скачивайте цифровую версию книги или, быть может, журнала. Не любите читать - можно загрузить бесплатно аудикнигу. Для веб дизайнеров и программистов так же найдется множество специализированного софта, таких как: редакторы с подсветкой, среды программирования, компоненты, системы управления базами данных, разнообразные скрипты и шаблоны. Не так давно у нас появился материал для автолюбителей и владельцев мото - оригинальные и неоригинальные каталоги запчастей, книги и журналы по ремонту и обслуживанию, видеоуроки, статьи по чип тюнингу, прошивкам. Процедура получения контента элементарная, достаточно просто скачать торрент файл и добавить его в загрузку в вашем торрент клиенте. Если у вас нет специального торрент клиента, вы можете его скачать у нас.

Richard Burgi | Dead Air | 30 Rock Serie TV Streaming Download