(Cumbia, Psychedelic Rock) [CD] VA - The Roots Of Chicha (Psychedelic Cumbias From Peru) - 2007, FLAC (tracks+.cue), lossless 

Цитировать
The Roots Of Chicha (Psychedelic Cumbias From Peru)
Жанр: Cumbia, Psychedelic Rock
Носитель: CD
Страна-производитель диска (релиза): US
Год издания: 2007
Издатель (лейбл): Barbès Records
Номер по каталогу: BR0016
Страна исполнителя (группы): Peru
Аудиокодек: FLAC (*.flac)
Тип рипа: tracks+.cue
Битрейт аудио: lossless
Продолжительность: 00:57:31
Источник (релизер): вафля
Наличие сканов в содержимом раздачи: нет
Треклист:
01. Los Mirlos - Sonido Amazonico (2:35)
02. Juaneco Y Su Combo - Linda Nena (3:45)
03. Los Hijos Del Sol - Cari±ito (4:05)
04. Los Destellos - A Patricia (3:14)
05. Los Diablos Rojos - Sacalo Sacalo (3:04)
06. Juaneco Y Su Combo - Ya Se Ha Muerto mi Abuelo (4:09)
07. Los Mirlos - El Miagro Verde (2:43)
08. Los Destellos - Para Elisa (2:46)
09. Los Hijos Del Sol - Linda Mu±equita (4:44)
10. Los Mirlos - Muchachita del Oriente (3:19)
11. Los Destellos - Elsa (3:38)
12. Juaneco Y Su Combo - Vacilando con Ayahuesca (3:31)
13. Los Diablos Rojos - El Guapo (3:23)
14. Eusebio y Su Banjo - Mi Morena Rebelde (3:21)
15. Los Hijos Del Sol - Si Me Quieres (3:09)
16. Juaneco Y Su Combo - Me Robaron mi Runa Mula (3:07)
17. Los Mirlos - La Danza de Los Mirlos (2:49)

Лог создания рипа

X Lossless Decoder version 20080926 (93.3)
XLD extraction logfile from 2008-11-02 19:39:08 -0800
Various / The Roots of Chicha
Used drive : MATSHITA DVD-R UJ-845E (revision DMP2)
Use cdparanoia mode : YES (CDParanoia III 10.2 engine)Disable audio cache : OK for the drive with cache less than 2750KBMake use of C2 pointers : NORead offset correction : 102Max retry count : 100
TOC of the extracted CD Track | Start | Length | Start sector | End sector --------------------------------------------------------- 1 | 00:00:00 | 02:35:00 | 0 | 11624 2 | 02:35:00 | 03:45:01 | 11625 | 28500 3 | 06:20:01 | 04:05:38 | 28501 | 46913 4 | 10:25:39 | 03:14:24 | 46914 | 61487 5 | 13:39:63 | 03:04:35 | 61488 | 75322 6 | 16:44:23 | 04:09:60 | 75323 | 94057 7 | 20:54:08 | 02:43:46 | 94058 | 106328 8 | 23:37:54 | 02:46:38 | 106329 | 118816 9 | 26:24:17 | 04:44:63 | 118817 | 140179 10 | 31:09:05 | 03:19:04 | 140180 | 155108 11 | 34:28:09 | 03:38:59 | 155109 | 171517 12 | 38:06:68 | 03:31:48 | 171518 | 187390 13 | 41:38:41 | 03:23:61 | 187391 | 202676 14 | 45:02:27 | 03:21:26 | 202677 | 217777 15 | 48:23:53 | 03:09:18 | 217778 | 231970 16 | 51:32:71 | 03:07:67 | 231971 | 246062 17 | 54:40:63 | 02:49:63 | 246063 | 258800
Track 01 Filename : /Volumes/My Book /VA - Roots Of Chicha/01 - Los Mirlos - Sonido Amazonico.flac
CRC32 hash (test run) : A349EC5F CRC32 hash : A349EC5F CRC32 hash (skip zero) : 15890D41 AccurateRip signature : 070F12D3 ->Accurately ripped! (confidence 3) Statistics Read error : 0 Skipped (treated as error) : 0 Edge jitter error (maybe fixed) : 1 Atom jitter error (maybe fixed) : 0 Drift error (maybe fixed) : 0 Dropped bytes error (maybe fixed) : 0 Duplicated bytes error (maybe fixed) : 1 Inconsistency in error sectors : 0
Track 02 Filename : /Volumes/My Book /VA - Roots Of Chicha/02 - Juaneco y Su Combo - Linda Nena.flac
CRC32 hash (test run) : D3A5C582 CRC32 hash : D3A5C582 CRC32 hash (skip zero) : 588E80A6 AccurateRip signature : E23290CB ->Accurately ripped! (confidence 3) Statistics Read error : 0 Skipped (treated as error) : 0 Edge jitter error (maybe fixed) : 3 Atom jitter error (maybe fixed) : 1 Drift error (maybe fixed) : 0 Dropped bytes error (maybe fixed) : 0 Duplicated bytes error (maybe fixed) : 2 Inconsistency in error sectors : 0
Track 03 Filename : /Volumes/My Book /VA - Roots Of Chicha/03 - Los Hijos del Sol - Cariñito.flac
CRC32 hash (test run) : A342B587 CRC32 hash : A342B587 CRC32 hash (skip zero) : 4950478B AccurateRip signature : 545849D6 ->Accurately ripped! (confidence 3) Statistics Read error : 0 Skipped (treated as error) : 0 Edge jitter error (maybe fixed) : 1 Atom jitter error (maybe fixed) : 0 Drift error (maybe fixed) : 0 Dropped bytes error (maybe fixed) : 0 Duplicated bytes error (maybe fixed) : 1 Inconsistency in error sectors : 0
Track 04 Filename : /Volumes/My Book /VA - Roots Of Chicha/04 - Los Destellos - A Patricia.flac
CRC32 hash (test run) : 7FA50003 CRC32 hash : 7FA50003 CRC32 hash (skip zero) : 824600F7 AccurateRip signature : 2D6C42D3 ->Accurately ripped! (confidence 3) Statistics Read error : 0 Skipped (treated as error) : 0 Edge jitter error (maybe fixed) : 1 Atom jitter error (maybe fixed) : 0 Drift error (maybe fixed) : 0 Dropped bytes error (maybe fixed) : 0 Duplicated bytes error (maybe fixed) : 1 Inconsistency in error sectors : 0
Track 05 Filename : /Volumes/My Book /VA - Roots Of Chicha/05 - Los Diablos Rojos - Sacalo Sacalo.flac
CRC32 hash (test run) : CEF871F8 CRC32 hash : CEF871F8 CRC32 hash (skip zero) : 2809CB40 AccurateRip signature : F7B825A5 ->Accurately ripped! (confidence 3) Statistics Read error : 0 Skipped (treated as error) : 0 Edge jitter error (maybe fixed) : 3 Atom jitter error (maybe fixed) : 1 Drift error (maybe fixed) : 0 Dropped bytes error (maybe fixed) : 0 Duplicated bytes error (maybe fixed) : 2 Inconsistency in error sectors : 0
Track 06 Filename : /Volumes/My Book /VA - Roots Of Chicha/06 - Juaneco y Su Combo - Ya Se Ha Muerto Mi Abuelo.flac
CRC32 hash (test run) : 3734EF5E CRC32 hash : 3734EF5E CRC32 hash (skip zero) : E24FD087 AccurateRip signature : EB765A3E ->Accurately ripped! (confidence 3) Statistics Read error : 0 Skipped (treated as error) : 0 Edge jitter error (maybe fixed) : 2 Atom jitter error (maybe fixed) : 1 Drift error (maybe fixed) : 0 Dropped bytes error (maybe fixed) : 0 Duplicated bytes error (maybe fixed) : 2 Inconsistency in error sectors : 0
Track 07 Filename : /Volumes/My Book /VA - Roots Of Chicha/07 - Los Mirlos - El Milagro Verde.flac
CRC32 hash (test run) : 54839FFE CRC32 hash : 54839FFE CRC32 hash (skip zero) : 2F7F9322 AccurateRip signature : 9ABBC512 ->Accurately ripped! (confidence 3) Statistics Read error : 0 Skipped (treated as error) : 0 Edge jitter error (maybe fixed) : 2 Atom jitter error (maybe fixed) : 0 Drift error (maybe fixed) : 0 Dropped bytes error (maybe fixed) : 0 Duplicated bytes error (maybe fixed) : 2 Inconsistency in error sectors : 0
Track 08 Filename : /Volumes/My Book /VA - Roots Of Chicha/08 - Los Destellos - Para Elisa.flac
CRC32 hash (test run) : ED23386D CRC32 hash : ED23386D CRC32 hash (skip zero) : 3E2EB2D2 AccurateRip signature : D79CCF64 ->Accurately ripped! (confidence 3) Statistics Read error : 0 Skipped (treated as error) : 0 Edge jitter error (maybe fixed) : 3 Atom jitter error (maybe fixed) : 1 Drift error (maybe fixed) : 0 Dropped bytes error (maybe fixed) : 0 Duplicated bytes error (maybe fixed) : 2 Inconsistency in error sectors : 0
Track 09 Filename : /Volumes/My Book /VA - Roots Of Chicha/09 - Los Hijos del Sol - Linda Muñequita.flac
CRC32 hash (test run) : 6D0BDAF4 CRC32 hash : 6D0BDAF4 CRC32 hash (skip zero) : 92A808BE AccurateRip signature : C67A3CCF ->Accurately ripped! (confidence 3) Statistics Read error : 0 Skipped (treated as error) : 0 Edge jitter error (maybe fixed) : 2 Atom jitter error (maybe fixed) : 0 Drift error (maybe fixed) : 0 Dropped bytes error (maybe fixed) : 0 Duplicated bytes error (maybe fixed) : 2 Inconsistency in error sectors : 0
Track 10 Filename : /Volumes/My Book /VA - Roots Of Chicha/10 - Los Mirlos - Muchachita del Oriente.flac
CRC32 hash (test run) : 81E4384C CRC32 hash : 81E4384C CRC32 hash (skip zero) : 68FBA275 AccurateRip signature : BFD27B97 ->Accurately ripped! (confidence 3) Statistics Read error : 0 Skipped (treated as error) : 0 Edge jitter error (maybe fixed) : 2 Atom jitter error (maybe fixed) : 1 Drift error (maybe fixed) : 0 Dropped bytes error (maybe fixed) : 0 Duplicated bytes error (maybe fixed) : 1 Inconsistency in error sectors : 0
Track 11 Filename : /Volumes/My Book /VA - Roots Of Chicha/11 - Los Destellos - Elsa.flac
CRC32 hash (test run) : 8F284497 CRC32 hash : 8F284497 CRC32 hash (skip zero) : A2DC86FB AccurateRip signature : A469A058 ->Accurately ripped! (confidence 3) Statistics Read error : 0 Skipped (treated as error) : 0 Edge jitter error (maybe fixed) : 2 Atom jitter error (maybe fixed) : 1 Drift error (maybe fixed) : 0 Dropped bytes error (maybe fixed) : 0 Duplicated bytes error (maybe fixed) : 1 Inconsistency in error sectors : 0
Track 12 Filename : /Volumes/My Book /VA - Roots Of Chicha/12 - Juaneco y su Combo - Vacilando con Ayahuesca.flac
CRC32 hash (test run) : D16F3B00 CRC32 hash : D16F3B00 CRC32 hash (skip zero) : 2D9BDDED AccurateRip signature : CB906089 ->Accurately ripped! (confidence 3) Statistics Read error : 0 Skipped (treated as error) : 0 Edge jitter error (maybe fixed) : 1 Atom jitter error (maybe fixed) : 0 Drift error (maybe fixed) : 0 Dropped bytes error (maybe fixed) : 0 Duplicated bytes error (maybe fixed) : 1 Inconsistency in error sectors : 0
Track 13 Filename : /Volumes/My Book /VA - Roots Of Chicha/13 - Los Diablos Rojos - El Guapo.flac
CRC32 hash (test run) : 3B5383A1 CRC32 hash : 3B5383A1 CRC32 hash (skip zero) : 93B62510 AccurateRip signature : EB4C01A5 ->Accurately ripped! (confidence 3) Statistics Read error : 0 Skipped (treated as error) : 0 Edge jitter error (maybe fixed) : 0 Atom jitter error (maybe fixed) : 0 Drift error (maybe fixed) : 0 Dropped bytes error (maybe fixed) : 0 Duplicated bytes error (maybe fixed) : 0 Inconsistency in error sectors : 0
Track 14 Filename : /Volumes/My Book /VA - Roots Of Chicha/14 - Eusebio y su Banjo - Mi Morena Rebelde.flac
CRC32 hash (test run) : D0387B8F CRC32 hash : D0387B8F CRC32 hash (skip zero) : EC8D07E4 AccurateRip signature : 96580DCB ->Accurately ripped! (confidence 3) Statistics Read error : 0 Skipped (treated as error) : 0 Edge jitter error (maybe fixed) : 2 Atom jitter error (maybe fixed) : 2 Drift error (maybe fixed) : 0 Dropped bytes error (maybe fixed) : 0 Duplicated bytes error (maybe fixed) : 0 Inconsistency in error sectors : 0
Track 15 Filename : /Volumes/My Book /VA - Roots Of Chicha/15 - Los Hijos del Sol - Si Me Quieres.flac
CRC32 hash (test run) : 64021FFB CRC32 hash : 64021FFB CRC32 hash (skip zero) : 1161B295 AccurateRip signature : 5C7DA16E ->Accurately ripped! (confidence 3) Statistics Read error : 0 Skipped (treated as error) : 0 Edge jitter error (maybe fixed) : 1 Atom jitter error (maybe fixed) : 0 Drift error (maybe fixed) : 0 Dropped bytes error (maybe fixed) : 0 Duplicated bytes error (maybe fixed) : 1 Inconsistency in error sectors : 0
Track 16 Filename : /Volumes/My Book /VA - Roots Of Chicha/16 - Juaneco y Su Combo - Me Robaron mi Runa Mula.flac
CRC32 hash (test run) : 9172E551 CRC32 hash : 9172E551 CRC32 hash (skip zero) : 0F793598 AccurateRip signature : FB6DC831 ->Accurately ripped! (confidence 3) Statistics Read error : 0 Skipped (treated as error) : 0 Edge jitter error (maybe fixed) : 1 Atom jitter error (maybe fixed) : 1 Drift error (maybe fixed) : 0 Dropped bytes error (maybe fixed) : 0 Duplicated bytes error (maybe fixed) : 0 Inconsistency in error sectors : 0
Track 17 Filename : /Volumes/My Book /VA - Roots Of Chicha/17 - Los Mirlos - La Danza de los Mirlos.flac
CRC32 hash (test run) : 38974422 CRC32 hash : 38974422 CRC32 hash (skip zero) : 242223D1 AccurateRip signature : 35C9E5AC ->Accurately ripped! (confidence 3) Statistics Read error : 0 Skipped (treated as error) : 0 Edge jitter error (maybe fixed) : 1 Atom jitter error (maybe fixed) : 0 Drift error (maybe fixed) : 0 Dropped bytes error (maybe fixed) : 0 Duplicated bytes error (maybe fixed) : 1 Inconsistency in error sectors : 0
No errors occurred
End of status report

Содержание индексной карты (.CUE)

TITLE "The Roots of Chicha"PERFORMER "Various"REM GENRE "Psychedelic"REM DATE 2007FILE "01 - Los Mirlos - Sonido Amazonico.wav" WAVE  TRACK 01 AUDIO    TITLE "Los Mirlos - Sonido Amazonico"    INDEX 01 00:00:00FILE "02 - Juaneco y Su Combo - Linda Nena.wav" WAVE  TRACK 02 AUDIO    TITLE "Juaneco y Su Combo - Linda Nena"    INDEX 01 00:00:00FILE "03 - Los Hijos del Sol - Cariñito.wav" WAVE  TRACK 03 AUDIO    TITLE "Los Hijos del Sol - Cariñito"    INDEX 01 00:00:00FILE "04 - Los Destellos - A Patricia.wav" WAVE  TRACK 04 AUDIO    TITLE "Los Destellos - A Patricia"    INDEX 01 00:00:00FILE "05 - Los Diablos Rojos - Sacalo Sacalo.wav" WAVE  TRACK 05 AUDIO    TITLE "Los Diablos Rojos - Sacalo Sacalo"    INDEX 01 00:00:00FILE "06 - Juaneco y Su Combo - Ya Se Ha Muerto Mi Abuelo.wav" WAVE  TRACK 06 AUDIO    TITLE "Juaneco y Su Combo - Ya Se Ha Muerto Mi Abuelo"    INDEX 01 00:00:00FILE "07 - Los Mirlos - El Milagro Verde.wav" WAVE  TRACK 07 AUDIO    TITLE "Los Mirlos - El Milagro Verde"    INDEX 01 00:00:00FILE "08 - Los Destellos - Para Elisa.wav" WAVE  TRACK 08 AUDIO    TITLE "Los Destellos - Para Elisa"    INDEX 01 00:00:00  TRACK 09 AUDIO    TITLE "Los Hijos del Sol - Linda Muñequita"    INDEX 00 02:45:29FILE "09 - Los Hijos del Sol - Linda Muñequita.wav" WAVE    INDEX 01 00:00:00FILE "10 - Los Mirlos - Muchachita del Oriente.wav" WAVE  TRACK 10 AUDIO    TITLE "Los Mirlos - Muchachita del Oriente"    INDEX 01 00:00:00  TRACK 11 AUDIO    TITLE "Los Destellos - Elsa"    INDEX 00 03:17:36FILE "11 - Los Destellos - Elsa.wav" WAVE    INDEX 01 00:00:00FILE "12 - Juaneco y su Combo - Vacilando con Ayahuesca.wav" WAVE  TRACK 12 AUDIO    TITLE "Juaneco y su Combo - Vacilando con Ayahuesca"    INDEX 01 00:00:00FILE "13 - Los Diablos Rojos - El Guapo.wav" WAVE  TRACK 13 AUDIO    TITLE "Los Diablos Rojos - El Guapo"    INDEX 01 00:00:00FILE "14 - Eusebio y su Banjo - Mi Morena Rebelde.wav" WAVE  TRACK 14 AUDIO    TITLE "Eusebio y su Banjo - Mi Morena Rebelde"    INDEX 01 00:00:00FILE "15 - Los Hijos del Sol - Si Me Quieres.wav" WAVE  TRACK 15 AUDIO    TITLE "Los Hijos del Sol - Si Me Quieres"    INDEX 01 00:00:00FILE "16 - Juaneco y Su Combo - Me Robaron mi Runa Mula.wav" WAVE  TRACK 16 AUDIO    TITLE "Juaneco y Su Combo - Me Robaron mi Runa Mula"    INDEX 01 00:00:00  TRACK 17 AUDIO    TITLE "Los Mirlos - La Danza de los Mirlos"    INDEX 00 03:06:54FILE "17 - Los Mirlos - La Danza de los Mirlos.wav" WAVE    INDEX 01 00:00:00
Вы не можете начинать темы
Вы не можете отвечать на сообщения
Вы не можете редактировать свои сообщения
Вы не можете удалять свои сообщения
Вы не можете голосовать в опросах
Вы не можете прикреплять файлы к сообщениям
Вы можете скачивать файлы
!ВНИМАНИЕ!

Сайт не предоставляет электронные версии произведений, а занимается лишь коллекционированием и каталогизацией ссылок, присылаемых и публикуемых на форуме нашими читателями. Если вы являетесь правообладателем какого-либо представленного материала и не желаете, чтобы ссылка на него находилась в нашем каталоге, свяжитесь с нами, и мы незамедлительно удалим ее. Файлы для обмена на трекере предоставлены пользователями сайта, и администрация не несет ответственности за их содержание. Просьба не заливать файлы, защищенные авторскими правами, а также файлы нелегального содержания!

Искали программы, игры, дополнения, музыка mp3, аниме, аудио книги, журналы? Добро пожаловать на свободный торрент трекер Torrents, у нас можно скачать бесплатно, без смс и регистрации и прочих ограничений лучшие, отборные сборки программ, игр. Скачать торрентом не составит труда даже не опытному пользователю. Раздачи ежедневно обновляются, только лучшие и качественные раздачи, подробные описания и скриншоты. Огромная коллекция программ для работы со звуком, графикой, дизайном, а так же множество плагинов и инструментов к ним с подробной инструкцией и рекомендациями. Прошивки для навигаторов, карты. Разнообразные игры, для Windows, Linux. В коллекцие есть и старые игры любых жанров, Rpg, Action, Shooter, strategy Множество дополнений, модификаций, сценариев для популярных игр в жанре экш, рпг, гонки, стратегии, логические игры. Множество аддонов и сценариев для Microsoft Flight Simulator Большая коллекция книг, учебников. Если нет возможности купить печатное издание - смело скачивайте цифровую версию книги или, быть может, журнала. Не любите читать - можно загрузить бесплатно аудикнигу. Для веб дизайнеров и программистов так же найдется множество специализированного софта, таких как: редакторы с подсветкой, среды программирования, компоненты, системы управления базами данных, разнообразные скрипты и шаблоны. Не так давно у нас появился материал для автолюбителей и владельцев мото - оригинальные и неоригинальные каталоги запчастей, книги и журналы по ремонту и обслуживанию, видеоуроки, статьи по чип тюнингу, прошивкам. Процедура получения контента элементарная, достаточно просто скачать торрент файл и добавить его в загрузку в вашем торрент клиенте. Если у вас нет специального торрент клиента, вы можете его скачать у нас.

Adult Coloring Book Relax And Rewind Inspirational Quotes | Tantei Team KZ Jiken Note | Gangster