(Rock & Roll) [CD] VA - The Rock \'N\' Roll Era - 1960 [Time-Life Music, TL 516/02, Germany] - 1991, FLAC (tracks+.cue), lossless 

Цитировать
The Rock 'N' Roll Era - 1960
Жанр: Rock & Roll
Носитель: CD
Страна-производитель диска (релиза): Germany
Год издания: 1991
Издатель (лейбл): Time-Life Music
Номер по каталогу: TL 516/02
Аудиокодек: FLAC (*.flac)
Тип рипа: tracks+.cue
Битрейт аудио: lossless
Продолжительность: 00:57:03
Источник (релизер): Naftamusic
Наличие сканов в содержимом раздачи: да

Треклист:
01. Eddie Cochran - Three Steps To Heaven
02. Roy Orbison - Only The Lonely
03. Neil Sedaka - Stairway To Heaven
04. Adam Faith - Poor Me
05. Duane Eddy - Because They're Young
06. Jimmy Jones - Good Timin'
07. Johnny Preston - Running Bear
08. Fats Domino - Walkin' To New Orleans
09. Johnny Burnette - Dreamin'
10. The Platters - Harbour Lights
11. Billy Fury - Colette
12. Ricky Valance - Tell Laura I Love Her
13. The Shadows - Apache
14. Connie Francis - Everybody's Somebody's Fool
15. Marv Johnson - You Got What It Takes
16. Johnny Kidd And The Pirates - Shakin' All Over
17. The Ventures - Perfidia
18. Brian Hyland - Itsy Bitsy Teeny Weeny Yellow Polka Dot Bikini
19. Johnny Tillotson - Poetry In Motion
20. Sam Cooke - Chain Gang
21. Johnny And The Hurricanes - Beatnik Fly
22. Jack Scott - What In The World's Come Over You
23. Billy Bland - Let The Little Girl Dance
24. The Drifters - Save The Last Dance For Me

Лог создания рипа

Exact Audio Copy V1.0 beta 3 from 29. August 2011
EAC extraction logfile from 12. December 2012, 1:10
Various Artists / The Rock 'N' Roll Era
Used drive : PLEXTOR DVDR PX-891SA Adapter: 0 ID: 4
Read mode : SecureUtilize accurate stream : YesDefeat audio cache : YesMake use of C2 pointers : No
Read offset correction : 6Overread into Lead-In and Lead-Out : NoFill up missing offset samples with silence : YesDelete leading and trailing silent blocks : NoNull samples used in CRC calculations : YesUsed interface : Native Win32 interface for Win NT & 2000Gap handling : Appended to previous track
Used output format : User Defined EncoderSelected bitrate : 1024 kBit/sQuality : HighAdd ID3 tag : NoCommand line compressor : C:\Program Files (x86)\Exact Audio Copy\FLAC\FLAC.EXEAdditional command line options : -0 -V -T "ARTIST=%artist%" -T "TITLE=%title%" -T "ALBUM=%albumtitle%" -T "DATE=%year%" -T "TRACKNUMBER=%tracknr%" -T "TOTALTRACKS=%numtracks%" -T "GENRE=%genre%" -T "COMMENT=Naftamusic Release!" %source%
TOC of the extracted CD
Track | Start | Length | Start sector | End sector --------------------------------------------------------- 1 | 0:00.00 | 2:24.30 | 0 | 10829 2 | 2:24.30 | 2:28.05 | 10830 | 21934 3 | 4:52.35 | 2:41.40 | 21935 | 34049 4 | 7:34.00 | 1:47.57 | 34050 | 42131 5 | 9:21.57 | 1:59.00 | 42132 | 51056 6 | 11:20.57 | 2:09.25 | 51057 | 60756 7 | 13:30.07 | 2:38.18 | 60757 | 72624 8 | 16:08.25 | 2:02.27 | 72625 | 81801 9 | 18:10.52 | 2:19.58 | 81802 | 92284 10 | 20:30.35 | 3:09.70 | 92285 | 106529 11 | 23:40.30 | 1:52.32 | 106530 | 114961 12 | 25:32.62 | 2:43.73 | 114962 | 127259 13 | 28:16.60 | 2:55.35 | 127260 | 140419 14 | 31:12.20 | 2:40.32 | 140420 | 152451 15 | 33:52.52 | 2:38.68 | 152452 | 164369 16 | 36:31.45 | 2:20.50 | 164370 | 174919 17 | 38:52.20 | 2:06.17 | 174920 | 184386 18 | 40:58.37 | 2:23.38 | 184387 | 195149 19 | 43:22.00 | 2:31.70 | 195150 | 206544 20 | 45:53.70 | 2:34.05 | 206545 | 218099 21 | 48:28.00 | 2:11.05 | 218100 | 227929 22 | 50:39.05 | 2:45.00 | 227930 | 240304 23 | 53:24.05 | 2:19.10 | 240305 | 250739 24 | 55:43.15 | 2:25.67 | 250740 | 261681
Track 1
Filename F:\Nafta Releases\VA - The Rock'N'Roll Era 1960 (1991)[FLAC] - Naftamusic\01 - Eddie Cochran - Three Steps To Heaven.wav
Pre-gap length 0:00:02.00
Peak level 83.3 % Extraction speed 2.5 X Track quality 99.9 % Test CRC 3A66E9B7 Copy CRC 3A66E9B7 Accurately ripped (confidence 7) [D3CDE1AE] (AR v1) Copy OK
Track 2
Filename F:\Nafta Releases\VA - The Rock'N'Roll Era 1960 (1991)[FLAC] - Naftamusic\02 - Roy Orbison - Only The Lonely.wav
Pre-gap length 0:00:02.65
Peak level 74.2 % Extraction speed 2.6 X Track quality 99.9 % Test CRC 52F1B897 Copy CRC 52F1B897 Accurately ripped (confidence 7) [900EBCAD] (AR v1) Copy OK
Track 3
Filename F:\Nafta Releases\VA - The Rock'N'Roll Era 1960 (1991)[FLAC] - Naftamusic\03 - Neil Sedaka - Stairway To Heaven.wav
Pre-gap length 0:00:02.70
Peak level 54.2 % Extraction speed 3.9 X Track quality 100.0 % Test CRC 99E0B308 Copy CRC 99E0B308 Accurately ripped (confidence 7) [10A8C501] (AR v1) Copy OK
Track 4
Filename F:\Nafta Releases\VA - The Rock'N'Roll Era 1960 (1991)[FLAC] - Naftamusic\04 - Adam Faith - Poor Me.wav
Pre-gap length 0:00:03.00
Peak level 72.3 % Extraction speed 3.7 X Track quality 100.0 % Test CRC 890DE194 Copy CRC 890DE194 Accurately ripped (confidence 7) [4BFB8E1B] (AR v1) Copy OK
Track 5
Filename F:\Nafta Releases\VA - The Rock'N'Roll Era 1960 (1991)[FLAC] - Naftamusic\05 - Duane Eddy - Because They're Young.wav
Pre-gap length 0:00:03.05
Peak level 63.2 % Extraction speed 4.0 X Track quality 100.0 % Test CRC AB95C547 Copy CRC AB95C547 Accurately ripped (confidence 7) [87731182] (AR v1) Copy OK
Track 6
Filename F:\Nafta Releases\VA - The Rock'N'Roll Era 1960 (1991)[FLAC] - Naftamusic\06 - Jimmy Kones - Good Timin'.wav
Pre-gap length 0:00:02.62
Peak level 67.1 % Extraction speed 4.2 X Track quality 100.0 % Test CRC 5D8743E8 Copy CRC 5D8743E8 Accurately ripped (confidence 7) [8BE1BB6C] (AR v1) Copy OK
Track 7
Filename F:\Nafta Releases\VA - The Rock'N'Roll Era 1960 (1991)[FLAC] - Naftamusic\07 - Johnny Preston - Running Bear.wav
Pre-gap length 0:00:02.47
Peak level 61.4 % Extraction speed 4.6 X Track quality 100.0 % Test CRC C18D2936 Copy CRC C18D2936 Accurately ripped (confidence 7) [736CA0F2] (AR v1) Copy OK
Track 8
Filename F:\Nafta Releases\VA - The Rock'N'Roll Era 1960 (1991)[FLAC] - Naftamusic\08 - Fats Domino - Walkin' To New Orleans.wav
Pre-gap length 0:00:02.68
Peak level 82.7 % Extraction speed 4.4 X Track quality 100.0 % Test CRC CEAA0C46 Copy CRC CEAA0C46 Accurately ripped (confidence 7) [038820FE] (AR v1) Copy OK
Track 9
Filename F:\Nafta Releases\VA - The Rock'N'Roll Era 1960 (1991)[FLAC] - Naftamusic\09 - Johnny Burnette - Dreamin'.wav
Pre-gap length 0:00:02.72
Peak level 79.4 % Extraction speed 3.5 X Track quality 99.9 % Test CRC EC5FD9B5 Copy CRC EC5FD9B5 Accurately ripped (confidence 7) [FE6D88AF] (AR v1) Copy OK
Track 10
Filename F:\Nafta Releases\VA - The Rock'N'Roll Era 1960 (1991)[FLAC] - Naftamusic\10 - The Platters - Harbour Lights.wav
Pre-gap length 0:00:02.68
Peak level 91.7 % Extraction speed 5.2 X Track quality 100.0 % Test CRC 375E7D75 Copy CRC 375E7D75 Accurately ripped (confidence 7) [6EF9CEA6] (AR v1) Copy OK
Track 11
Filename F:\Nafta Releases\VA - The Rock'N'Roll Era 1960 (1991)[FLAC] - Naftamusic\11 - Billy Fury - Colette.wav
Pre-gap length 0:00:03.00
Peak level 64.2 % Extraction speed 4.8 X Track quality 100.0 % Test CRC BE02F3FF Copy CRC BE02F3FF Accurately ripped (confidence 7) [4030FD97] (AR v1) Copy OK
Track 12
Filename F:\Nafta Releases\VA - The Rock'N'Roll Era 1960 (1991)[FLAC] - Naftamusic\12 - Ricky Valance - Tell Laura I Love Her.wav
Pre-gap length 0:00:02.60
Peak level 64.4 % Extraction speed 4.1 X Track quality 99.9 % Test CRC 77ABE0CD Copy CRC 77ABE0CD Accurately ripped (confidence 7) [58994995] (AR v1) Copy OK
Track 13
Filename F:\Nafta Releases\VA - The Rock'N'Roll Era 1960 (1991)[FLAC] - Naftamusic\13 - The Shadows - Apache.wav
Pre-gap length 0:00:02.65
Peak level 74.2 % Extraction speed 5.6 X Track quality 100.0 % Test CRC 00497B7C Copy CRC 00497B7C Accurately ripped (confidence 7) [23F29C23] (AR v1) Copy OK
Track 14
Filename F:\Nafta Releases\VA - The Rock'N'Roll Era 1960 (1991)[FLAC] - Naftamusic\14 - Connie Francis - Everybody's Somebody's Fool.wav
Pre-gap length 0:00:02.65
Peak level 71.7 % Extraction speed 5.7 X Track quality 100.0 % Test CRC 016CADDC Copy CRC 016CADDC Accurately ripped (confidence 7) [A7C4F70D] (AR v1) Copy OK
Track 15
Filename F:\Nafta Releases\VA - The Rock'N'Roll Era 1960 (1991)[FLAC] - Naftamusic\15 - Marv Johnson - You Got What It Takes.wav
Pre-gap length 0:00:02.67
Peak level 86.4 % Extraction speed 5.8 X Track quality 100.0 % Test CRC F61E5157 Copy CRC F61E5157 Accurately ripped (confidence 7) [845F74BF] (AR v1) Copy OK
Track 16
Filename F:\Nafta Releases\VA - The Rock'N'Roll Era 1960 (1991)[FLAC] - Naftamusic\16 - Johnny Kidd And The Pirates - Shakin' All Over.wav
Pre-gap length 0:00:02.53
Peak level 65.2 % Extraction speed 5.8 X Track quality 100.0 % Test CRC 1043AA81 Copy CRC 1043AA81 Accurately ripped (confidence 7) [F56D880A] (AR v1) Copy OK
Track 17
Filename F:\Nafta Releases\VA - The Rock'N'Roll Era 1960 (1991)[FLAC] - Naftamusic\17 - The Ventures - Perfidia.wav
Pre-gap length 0:00:02.50
Peak level 89.4 % Extraction speed 5.8 X Track quality 100.0 % Test CRC 505AA9BF Copy CRC 505AA9BF Accurately ripped (confidence 7) [CCCD7C0B] (AR v1) Copy OK
Track 18
Filename F:\Nafta Releases\VA - The Rock'N'Roll Era 1960 (1991)[FLAC] - Naftamusic\18 - Brian Hyland - Itsy Bitsy Teeny Weeny Yellow Polka Dot Bikini.wav
Pre-gap length 0:00:02.70
Peak level 78.7 % Extraction speed 6.1 X Track quality 100.0 % Test CRC 77369F21 Copy CRC 77369F21 Accurately ripped (confidence 7) [9DB1B001] (AR v1) Copy OK
Track 19
Filename F:\Nafta Releases\VA - The Rock'N'Roll Era 1960 (1991)[FLAC] - Naftamusic\19 - Johnny Tillotson - Poetry In Motion.wav
Pre-gap length 0:00:02.65
Peak level 60.3 % Extraction speed 6.3 X Track quality 100.0 % Test CRC B91B8E44 Copy CRC B91B8E44 Accurately ripped (confidence 7) [82189B5D] (AR v1) Copy OK
Track 20
Filename F:\Nafta Releases\VA - The Rock'N'Roll Era 1960 (1991)[FLAC] - Naftamusic\20 - Sam Cooke - Chain Gang.wav
Pre-gap length 0:00:02.72
Peak level 57.4 % Extraction speed 6.3 X Track quality 100.0 % Test CRC 0139C922 Copy CRC 0139C922 Accurately ripped (confidence 7) [22ADD662] (AR v1) Copy OK
Track 21
Filename F:\Nafta Releases\VA - The Rock'N'Roll Era 1960 (1991)[FLAC] - Naftamusic\21 - Johnny And The Hurricanes - Beatnik Fly.wav
Pre-gap length 0:00:03.00
Peak level 84.7 % Extraction speed 6.4 X Track quality 100.0 % Test CRC DEF18BD0 Copy CRC DEF18BD0 Accurately ripped (confidence 7) [56DAB787] (AR v1) Copy OK
Track 22
Filename F:\Nafta Releases\VA - The Rock'N'Roll Era 1960 (1991)[FLAC] - Naftamusic\22 - Jack Scott - What In The World's Come Over You.wav
Pre-gap length 0:00:03.03
Peak level 87.6 % Extraction speed 5.0 X Track quality 99.9 % Test CRC 596A1D6F Copy CRC 596A1D6F Accurately ripped (confidence 7) [9DA11B29] (AR v1) Copy OK
Track 23
Filename F:\Nafta Releases\VA - The Rock'N'Roll Era 1960 (1991)[FLAC] - Naftamusic\23 - Billy Bland - Let The Little Girl Dance.wav
Pre-gap length 0:00:03.00
Peak level 59.9 % Extraction speed 4.8 X Track quality 99.9 % Test CRC 533DAA29 Copy CRC 533DAA29 Accurately ripped (confidence 7) [0EE8A3BE] (AR v1) Copy OK
Track 24
Filename F:\Nafta Releases\VA - The Rock'N'Roll Era 1960 (1991)[FLAC] - Naftamusic\24 - The Drifters - Save The Last Dance For Me.wav
Pre-gap length 0:00:02.55
Peak level 60.8 % Extraction speed 6.8 X Track quality 100.0 % Test CRC E9DE0A4E Copy CRC E9DE0A4E Accurately ripped (confidence 7) [2AD77223] (AR v1) Copy OK
All tracks accurately ripped
No errors occurred
End of status report
==== Log checksum 5D8CF246C5AB0206CEDE52AF74C36EA7D3A0C6FB549901BD28CB8D66437CFAFC ====

Содержание индексной карты (.CUE)

REM GENRE "Rock & Roll"REM DATE 1991REM DISCID 380DA118REM COMMENT "ExactAudioCopy v1.0b3"PERFORMER "Various Artists"TITLE "The Rock 'N' Roll Era - 1960"FILE "01 - Eddie Cochran - Three Steps To Heaven.wav" WAVE  TRACK 01 AUDIO    TITLE "Three Steps To Heaven"    PERFORMER "Eddie Cochran"    INDEX 01 00:00:00  TRACK 02 AUDIO    TITLE "Only The Lonely"    PERFORMER "Roy Orbison"    INDEX 00 02:21:40FILE "02 - Roy Orbison - Only The Lonely.wav" WAVE    INDEX 01 00:00:00  TRACK 03 AUDIO    TITLE "Stairway To Heaven"    PERFORMER "Neil Sedaka"    INDEX 00 02:25:10FILE "03 - Neil Sedaka - Stairway To Heaven.wav" WAVE    INDEX 01 00:00:00  TRACK 04 AUDIO    TITLE "Poor Me"    PERFORMER "Adam Faith"    INDEX 00 02:38:40FILE "04 - Adam Faith - Poor Me.wav" WAVE    INDEX 01 00:00:00  TRACK 05 AUDIO    TITLE "Because They're Young"    PERFORMER "Duane Eddy"    INDEX 00 01:44:52FILE "05 - Duane Eddy - Because They're Young.wav" WAVE    INDEX 01 00:00:00  TRACK 06 AUDIO    TITLE "Good Timin'"    PERFORMER "Jimmy Jones"    INDEX 00 01:56:13FILE "06 - Jimmy Jones - Good Timin'.wav" WAVE    INDEX 01 00:00:00  TRACK 07 AUDIO    TITLE "Running Bear"    PERFORMER "Johnny Preston"    INDEX 00 02:06:53FILE "07 - Johnny Preston - Running Bear.wav" WAVE    INDEX 01 00:00:00  TRACK 08 AUDIO    TITLE "Walkin' To New Orleans"    PERFORMER "Fats Domino"    INDEX 00 02:35:25FILE "08 - Fats Domino - Walkin' To New Orleans.wav" WAVE    INDEX 01 00:00:00  TRACK 09 AUDIO    TITLE "Dreamin'"    PERFORMER "Johnny Burnette"    INDEX 00 01:59:30FILE "09 - Johnny Burnette - Dreamin'.wav" WAVE    INDEX 01 00:00:00  TRACK 10 AUDIO    TITLE "Harbour Lights"    PERFORMER "The Platters"    INDEX 00 02:16:65FILE "10 - The Platters - Harbour Lights.wav" WAVE    INDEX 01 00:00:00  TRACK 11 AUDIO    TITLE "Colette"    PERFORMER "Billy Fury"    INDEX 00 03:06:70FILE "11 - Billy Fury - Colette.wav" WAVE    INDEX 01 00:00:00  TRACK 12 AUDIO    TITLE "Tell Laura I Love Her"    PERFORMER "Ricky Valance"    INDEX 00 01:49:47FILE "12 - Ricky Valance - Tell Laura I Love Her.wav" WAVE    INDEX 01 00:00:00  TRACK 13 AUDIO    TITLE "Apache"    PERFORMER "The Shadows"    INDEX 00 02:41:08FILE "13 - The Shadows - Apache.wav" WAVE    INDEX 01 00:00:00  TRACK 14 AUDIO    TITLE "Everybody's Somebody's Fool"    PERFORMER "Connie Francis"    INDEX 00 02:52:45FILE "14 - Connie Francis - Everybody's Somebody's Fool.wav" WAVE    INDEX 01 00:00:00  TRACK 15 AUDIO    TITLE "You Got What It Takes"    PERFORMER "Marv Johnson"    INDEX 00 02:37:40FILE "15 - Marv Johnson - You Got What It Takes.wav" WAVE    INDEX 01 00:00:00  TRACK 16 AUDIO    TITLE "Shakin' All Over"    PERFORMER "Johnny Kidd And The Pirates"    INDEX 00 02:36:15FILE "16 - Johnny Kidd And The Pirates - Shakin' All Over.wav" WAVE    INDEX 01 00:00:00  TRACK 17 AUDIO    TITLE "Perfidia"    PERFORMER "The Ventures"    INDEX 00 02:18:00FILE "17 - The Ventures - Perfidia.wav" WAVE    INDEX 01 00:00:00  TRACK 18 AUDIO    TITLE "Itsy Bitsy Teeny Weeny Yellow Polka Dot Bikini"    PERFORMER "Brian Hyland"    INDEX 00 02:03:22FILE "18 - Brian Hyland - Itsy Bitsy Teeny Weeny Yellow Polka Dot Bikini.wav" WAVE    INDEX 01 00:00:00  TRACK 19 AUDIO    TITLE "Poetry In Motion"    PERFORMER "Johnny Tillotson"    INDEX 00 02:20:48FILE "19 - Johnny Tillotson - Poetry In Motion.wav" WAVE    INDEX 01 00:00:00  TRACK 20 AUDIO    TITLE "Chain Gang"    PERFORMER "Sam Cooke"    INDEX 00 02:28:73FILE "20 - Sam Cooke - Chain Gang.wav" WAVE    INDEX 01 00:00:00  TRACK 21 AUDIO    TITLE "Beatnik Fly"    PERFORMER "Johnny And The Hurricanes"    INDEX 00 02:31:05FILE "21 - Johnny And The Hurricanes - Beatnik Fly.wav" WAVE    INDEX 01 00:00:00  TRACK 22 AUDIO    TITLE "What In The World's Come Over You"    PERFORMER "Jack Scott"    INDEX 00 02:08:02FILE "22 - Jack Scott - What In The World's Come Over You.wav" WAVE    INDEX 01 00:00:00  TRACK 23 AUDIO    TITLE "Let The Little Girl Dance"    PERFORMER "Billy Bland"    INDEX 00 02:42:00FILE "23 - Billy Bland - Let The Little Girl Dance.wav" WAVE    INDEX 01 00:00:00  TRACK 24 AUDIO    TITLE "Save The Last Dance For Me"    PERFORMER "The Drifters"    INDEX 00 02:16:30FILE "24 - The Drifters - Save The Last Dance For Me.wav" WAVE    INDEX 01 00:00:00

AccurateRip

[CUETools log; Date: 07.10.2018 11:08:41; Version: 2.1.5][CTDB TOCID: az3B6nn_Fgq9hMflHQCjDwALztI-] found.Track | CTDB Status  1   | (58/62) Accurately ripped  2   | (60/62) Accurately ripped  3   | (60/62) Accurately ripped  4   | (60/62) Accurately ripped  5   | (60/62) Accurately ripped  6   | (60/62) Accurately ripped  7   | (60/62) Accurately ripped  8   | (60/62) Accurately ripped  9   | (60/62) Accurately ripped 10   | (60/62) Accurately ripped 11   | (60/62) Accurately ripped 12   | (59/62) Accurately ripped 13   | (60/62) Accurately ripped 14   | (60/62) Accurately ripped 15   | (60/62) Accurately ripped 16   | (60/62) Accurately ripped 17   | (60/62) Accurately ripped 18   | (60/62) Accurately ripped 19   | (60/62) Accurately ripped 20   | (60/62) Accurately ripped 21   | (60/62) Accurately ripped 22   | (60/62) Accurately ripped 23   | (60/62) Accurately ripped 24   | (60/62) Accurately ripped[AccurateRip ID: 003155ca-035b2da6-380da118] found.Track   [  CRC   |   V2   ] Status 01     [d3cde1ae|b6542983] (07+04/22) Accurately ripped 02     [900ebcad|5d641399] (07+04/22) Accurately ripped 03     [10a8c501|9e835cd9] (07+04/22) Accurately ripped 04     [4bfb8e1b|c9c0cc4e] (07+04/22) Accurately ripped 05     [87731182|05049a9c] (07+04/22) Accurately ripped 06     [8be1bb6c|675c907f] (07+04/22) Accurately ripped 07     [736ca0f2|ef0c453c] (07+04/22) Accurately ripped 08     [038820fe|7f1b7a12] (07+04/22) Accurately ripped 09     [fe6d88af|33dc6fe2] (07+04/22) Accurately ripped 10     [6ef9cea6|186e18cd] (07+04/22) Accurately ripped 11     [4030fd97|73f25979] (07+04/22) Accurately ripped 12     [58994995|5f091e1f] (07+04/22) Accurately ripped 13     [23f29c23|9b0d7e77] (07+04/22) Accurately ripped 14     [a7c4f70d|be277bbd] (07+04/22) Accurately ripped 15     [845f74bf|0ed7a525] (07+04/22) Accurately ripped 16     [f56d880a|cd829a7a] (07+04/22) Accurately ripped 17     [cccd7c0b|a09b1ed6] (07+04/22) Accurately ripped 18     [9db1b001|85a0b7f7] (07+04/22) Accurately ripped 19     [82189b5d|288ba8b9] (07+04/22) Accurately ripped 20     [22add662|f0c5944d] (07+04/22) Accurately ripped 21     [56dab787|b03bd9d2] (07+04/22) Accurately ripped 22     [9da11b29|60eb2c80] (07+04/22) Accurately ripped 23     [0ee8a3be|52c81579] (07+04/22) Accurately ripped 24     [2ad77223|5bb2a5e5] (07+04/22) Accurately rippedOffsetted by -669: 01     [90412847] (03/22) Accurately ripped 02     [ef6db308] (03/22) Accurately ripped 03     [113cd452] (03/22) Accurately ripped 04     [ae87ae77] (03/22) Accurately ripped 05     [cbfdb812] (03/22) Accurately ripped 06     [f0ca693d] (03/22) Accurately ripped 07     [f86c8a2c] (03/22) Accurately ripped 08     [02ba725c] (03/22) Accurately ripped 09     [9260e34b] (03/22) Accurately ripped 10     [56238556] (03/22) Accurately ripped 11     [61a35bbd] (03/22) Accurately ripped 12     [aae7719b] (03/22) Accurately ripped 13     [a90b90ab] (03/22) Accurately ripped 14     [0f894224] (03/22) Accurately ripped 15     [54cdd242] (03/22) Accurately ripped 16     [98b0c2ee] (03/22) Accurately ripped 17     [8dd3963d] (03/22) Accurately ripped 18     [d0361c77] (03/22) Accurately ripped 19     [2080ce95] (03/22) Accurately ripped 20     [bf4c5208] (03/22) Accurately ripped 21     [ed0a2e36] (03/22) Accurately ripped 22     [ab233b5d] (03/22) Accurately ripped 23     [b2d17262] (03/22) Accurately ripped 24     [f23c0637] (03/22) Accurately ripped
Track Peak [ CRC32 ] [W/O NULL] [ LOG ] -- 91,7 [4724EA7F] [38FB289B] 01 83,3 [3A66E9B7] [C796B0C4] CRC32 02 74,2 [52F1B897] [DD6FAAC1] CRC32 03 54,2 [99E0B308] [6A83C187] CRC32 04 72,3 [890DE194] [A6E8C9DB] CRC32 05 63,2 [AB95C547] [887D3E66] CRC32 06 67,0 [5D8743E8] [72A14620] CRC32 07 61,4 [C18D2936] [35D0F304] CRC32 08 82,7 [CEAA0C46] [1FAC372D] CRC32 09 79,4 [EC5FD9B5] [3D89D067] CRC32 10 91,7 [375E7D75] [B1D4E491] CRC32 11 64,2 [BE02F3FF] [5D6C2143] CRC32 12 64,4 [77ABE0CD] [EB3057D2] CRC32 13 74,2 [00497B7C] [10C335A1] CRC32 14 71,7 [016CADDC] [C450E0E7] CRC32 15 86,4 [F61E5157] [B4E49C08] CRC32 16 65,2 [1043AA81] [0AA937F1] CRC32 17 89,4 [505AA9BF] [4A4711B9] CRC32 18 78,7 [77369F21] [8162AABB] CRC32 19 60,3 [B91B8E44] [015128A9] CRC32 20 57,4 [0139C922] [B2EBDA82] CRC32 21 84,7 [DEF18BD0] [A5DD387F] CRC32 22 87,6 [596A1D6F] [36ABFB11] CRC32 23 59,9 [533DAA29] [6C4D722C] CRC32 24 60,8 [E9DE0A4E] [CFD0DAF9] CRC32
Вы не можете начинать темы
Вы не можете отвечать на сообщения
Вы не можете редактировать свои сообщения
Вы не можете удалять свои сообщения
Вы не можете голосовать в опросах
Вы не можете прикреплять файлы к сообщениям
Вы можете скачивать файлы
!ВНИМАНИЕ!

Сайт не предоставляет электронные версии произведений, а занимается лишь коллекционированием и каталогизацией ссылок, присылаемых и публикуемых на форуме нашими читателями. Если вы являетесь правообладателем какого-либо представленного материала и не желаете, чтобы ссылка на него находилась в нашем каталоге, свяжитесь с нами, и мы незамедлительно удалим ее. Файлы для обмена на трекере предоставлены пользователями сайта, и администрация не несет ответственности за их содержание. Просьба не заливать файлы, защищенные авторскими правами, а также файлы нелегального содержания!

Искали программы, игры, дополнения, музыка mp3, аниме, аудио книги, журналы? Добро пожаловать на свободный торрент трекер Torrents, у нас можно скачать бесплатно, без смс и регистрации и прочих ограничений лучшие, отборные сборки программ, игр. Скачать торрентом не составит труда даже не опытному пользователю. Раздачи ежедневно обновляются, только лучшие и качественные раздачи, подробные описания и скриншоты. Огромная коллекция программ для работы со звуком, графикой, дизайном, а так же множество плагинов и инструментов к ним с подробной инструкцией и рекомендациями. Прошивки для навигаторов, карты. Разнообразные игры, для Windows, Linux. В коллекцие есть и старые игры любых жанров, Rpg, Action, Shooter, strategy Множество дополнений, модификаций, сценариев для популярных игр в жанре экш, рпг, гонки, стратегии, логические игры. Множество аддонов и сценариев для Microsoft Flight Simulator Большая коллекция книг, учебников. Если нет возможности купить печатное издание - смело скачивайте цифровую версию книги или, быть может, журнала. Не любите читать - можно загрузить бесплатно аудикнигу. Для веб дизайнеров и программистов так же найдется множество специализированного софта, таких как: редакторы с подсветкой, среды программирования, компоненты, системы управления базами данных, разнообразные скрипты и шаблоны. Не так давно у нас появился материал для автолюбителей и владельцев мото - оригинальные и неоригинальные каталоги запчастей, книги и журналы по ремонту и обслуживанию, видеоуроки, статьи по чип тюнингу, прошивкам. Процедура получения контента элементарная, достаточно просто скачать торрент файл и добавить его в загрузку в вашем торрент клиенте. Если у вас нет специального торрент клиента, вы можете его скачать у нас.

Feel The Fear And Do It Anyway | The Shawshank Redemption (1994) | Staff Support