(Rock & Roll) [CD] VA - The Rock \'N\' Roll Era - 1955-1956 [Time-Life Music, TL 516/07, Germany] - 1992, FLAC (tracks+.cue), lossless 

Цитировать
The Rock 'N' Roll Era - 1955-1956
Жанр: Rock & Roll
Носитель: CD
Страна-производитель диска (релиза): Germany
Год издания: 1992
Издатель (лейбл): Time-Life Music
Номер по каталогу: TL 516/07
Аудиокодек: FLAC (*.flac)
Тип рипа: tracks+.cue
Битрейт аудио: lossless
Продолжительность: 00:58:56
Источник (релизер): Naftamusic
Наличие сканов в содержимом раздачи: да

Треклист:
01. Bill Haley And His Comets - Rock Around The Clock
02. Little Richard - Long Tall Sally
03. Carl Perkins - Blue Suede Shoes
04. Pat Boone - Ain't That A Shame
05. The Platters - The Great Pretender
06. Bill Haley And His Comets - Shake Rattle And Roll
07. Gene Vincent - Be Bop A Lula
08. The Platters - Only You
09. Bill Haley And His Comets - The Saints Rock 'n' Roll
10. Tommy Steele - Rock With The Caveman
11. Georgia Gibbs - Tweedle Dee
12. Pat Boone - I'll Be Home
13. Frankie Lymon And The Teenagers - Why Do Fools Fall In Love
14. Bill Haley And His Comets - See You Later Alligator
15. Fats Domino - I'm In Love Again
16. Freddy Bell And The Bellboys - Giddy-Up-A-Ding-Dong
17. Jim Lowe - The Green Door
18. Bill Haley And His Comets - Rock-A-Beatin' Boogie
19. Tommy Steele - Singing The Blues
20. Pat Boone - I Almost Lost My Mind
21. The Platters - My Prayer
22. Lonnie Donegan - Rock Island Line
23. The Crew Cuts - Earth Angel
24. Fats Domino - Blueberry Hill

Лог создания рипа

Exact Audio Copy V1.0 beta 3 from 29. August 2011
EAC extraction logfile from 11. December 2012, 0:25
Various Artists / The Rock'N'Roll Era
Used drive : PLEXTOR DVDR PX-891SA Adapter: 0 ID: 4
Read mode : SecureUtilize accurate stream : YesDefeat audio cache : YesMake use of C2 pointers : No
Read offset correction : 6Overread into Lead-In and Lead-Out : NoFill up missing offset samples with silence : YesDelete leading and trailing silent blocks : NoNull samples used in CRC calculations : YesUsed interface : Native Win32 interface for Win NT & 2000Gap handling : Appended to previous track
Used output format : User Defined EncoderSelected bitrate : 1024 kBit/sQuality : HighAdd ID3 tag : NoCommand line compressor : C:\Program Files (x86)\Exact Audio Copy\FLAC\FLAC.EXEAdditional command line options : -0 -V -T "ARTIST=%artist%" -T "TITLE=%title%" -T "ALBUM=%albumtitle%" -T "DATE=%year%" -T "TRACKNUMBER=%tracknr%" -T "TOTALTRACKS=%numtracks%" -T "GENRE=%genre%" -T "COMMENT=Naftamusic Release!" %source%
TOC of the extracted CD
Track | Start | Length | Start sector | End sector --------------------------------------------------------- 1 | 0:00.00 | 2:13.10 | 0 | 9984 2 | 2:13.10 | 2:11.02 | 9985 | 19811 3 | 4:24.12 | 2:16.43 | 19812 | 30054 4 | 6:40.55 | 2:26.45 | 30055 | 41049 5 | 9:07.25 | 2:40.72 | 41050 | 53121 6 | 11:48.22 | 2:32.35 | 53122 | 64556 7 | 14:20.57 | 2:36.68 | 64557 | 76324 8 | 16:57.50 | 2:38.50 | 76325 | 88224 9 | 19:36.25 | 3:28.45 | 88225 | 103869 10 | 23:04.70 | 1:56.40 | 103870 | 112609 11 | 25:01.35 | 2:33.10 | 112610 | 124094 12 | 27:34.45 | 3:01.42 | 124095 | 137711 13 | 30:36.12 | 2:20.43 | 137712 | 148254 14 | 32:56.55 | 2:47.17 | 148255 | 160796 15 | 35:43.72 | 2:01.23 | 160797 | 169894 16 | 37:45.20 | 2:02.05 | 169895 | 179049 17 | 39:47.25 | 2:15.55 | 179050 | 189229 18 | 42:03.05 | 2:20.70 | 189230 | 199799 19 | 44:24.00 | 2:25.57 | 199800 | 210731 20 | 46:49.57 | 2:39.15 | 210732 | 222671 21 | 49:28.72 | 2:45.50 | 222672 | 235096 22 | 52:14.47 | 2:30.15 | 235097 | 246361 23 | 54:44.62 | 2:56.58 | 246362 | 259619 24 | 57:41.45 | 2:20.32 | 259620 | 270151
Track 1
Filename F:\Nafta Releases\VA - The Rock'N'Roll Era 1955-1956 (1990)[FLAC] - Naftamusic\01 - Bill Hayley And His Comets - Rock Around The Clock.wav
Pre-gap length 0:00:02.00
Peak level 64.1 % Extraction speed 2.5 X Track quality 99.9 % Test CRC 1639187E Copy CRC 1639187E Accurately ripped (confidence 2) [2348A9AC] (AR v2) Copy OK
Track 2
Filename F:\Nafta Releases\VA - The Rock'N'Roll Era 1955-1956 (1990)[FLAC] - Naftamusic\02 - Little Richard - Long Tall Sally.wav
Pre-gap length 0:00:02.60
Peak level 57.8 % Extraction speed 3.6 X Track quality 100.0 % Test CRC 722D1912 Copy CRC 722D1912 Accurately ripped (confidence 2) [0FDEB487] (AR v2) Copy OK
Track 3
Filename F:\Nafta Releases\VA - The Rock'N'Roll Era 1955-1956 (1990)[FLAC] - Naftamusic\03 - Carl Perkins - Blue Suede Shoes.wav
Pre-gap length 0:00:02.67
Peak level 79.8 % Extraction speed 3.8 X Track quality 100.0 % Test CRC D59EF7E8 Copy CRC D59EF7E8 Accurately ripped (confidence 2) [F1E482D0] (AR v2) Copy OK
Track 4
Filename F:\Nafta Releases\VA - The Rock'N'Roll Era 1955-1956 (1990)[FLAC] - Naftamusic\04 - Pat Boone - Ain't That A Shame.wav
Pre-gap length 0:00:02.63
Peak level 55.2 % Extraction speed 4.0 X Track quality 100.0 % Test CRC 086C6E54 Copy CRC 086C6E54 Accurately ripped (confidence 2) [273084B1] (AR v2) Copy OK
Track 5
Filename F:\Nafta Releases\VA - The Rock'N'Roll Era 1955-1956 (1990)[FLAC] - Naftamusic\05 - The Platters - The Great Pretender.wav
Pre-gap length 0:00:02.70
Peak level 63.8 % Extraction speed 4.3 X Track quality 100.0 % Test CRC E1A0D3B9 Copy CRC E1A0D3B9 Accurately ripped (confidence 2) [3D0001DD] (AR v2) Copy OK
Track 6
Filename F:\Nafta Releases\VA - The Rock'N'Roll Era 1955-1956 (1990)[FLAC] - Naftamusic\06 - Bill Hayley And His Comets - Shake Rattle And Roll.wav
Pre-gap length 0:00:02.60
Peak level 60.5 % Extraction speed 4.5 X Track quality 100.0 % Test CRC 585E4E41 Copy CRC 585E4E41 Accurately ripped (confidence 2) [F0A5245B] (AR v2) Copy OK
Track 7
Filename F:\Nafta Releases\VA - The Rock'N'Roll Era 1955-1956 (1990)[FLAC] - Naftamusic\07 - Gene Vincent - Be Bop A Lula.wav
Pre-gap length 0:00:02.67
Peak level 70.2 % Extraction speed 4.7 X Track quality 100.0 % Test CRC BCF8B777 Copy CRC BCF8B777 Accurately ripped (confidence 2) [64B5A85B] (AR v2) Copy OK
Track 8
Filename F:\Nafta Releases\VA - The Rock'N'Roll Era 1955-1956 (1990)[FLAC] - Naftamusic\08 - The Platters - Only You.wav
Pre-gap length 0:00:02.40
Peak level 61.3 % Extraction speed 3.6 X Track quality 99.9 % Test CRC A98E9033 Copy CRC A98E9033 Accurately ripped (confidence 2) [7B2CBA25] (AR v2) Copy OK
Track 9
Filename F:\Nafta Releases\VA - The Rock'N'Roll Era 1955-1956 (1990)[FLAC] - Naftamusic\09 - Bill Hayley And His Comets - The Saints Rock 'n' Roll.wav
Pre-gap length 0:00:02.68
Peak level 65.1 % Extraction speed 5.3 X Track quality 100.0 % Test CRC 0A46B276 Copy CRC 0A46B276 Accurately ripped (confidence 2) [4DA69B2F] (AR v2) Copy OK
Track 10
Filename F:\Nafta Releases\VA - The Rock'N'Roll Era 1955-1956 (1990)[FLAC] - Naftamusic\10 - Tommy Steele - Rock With The Caveman.wav
Pre-gap length 0:00:02.58
Peak level 62.1 % Extraction speed 3.4 X Track quality 99.9 % Test CRC FDD19220 Copy CRC FDD19220 Accurately ripped (confidence 2) [55F0DA51] (AR v2) Copy OK
Track 11
Filename F:\Nafta Releases\VA - The Rock'N'Roll Era 1955-1956 (1990)[FLAC] - Naftamusic\11 - Georgia Gibbs - Tweedle Dee.wav
Pre-gap length 0:00:02.73
Peak level 62.6 % Extraction speed 5.4 X Track quality 100.0 % Test CRC 5A88431D Copy CRC 5A88431D Accurately ripped (confidence 2) [D2544085] (AR v2) Copy OK
Track 12
Filename F:\Nafta Releases\VA - The Rock'N'Roll Era 1955-1956 (1990)[FLAC] - Naftamusic\12 - Pat Boone - I'll Be Home.wav
Pre-gap length 0:00:02.60
Peak level 47.4 % Extraction speed 4.4 X Track quality 99.9 % Test CRC 3DAC5391 Copy CRC 3DAC5391 Accurately ripped (confidence 2) [954FD6C7] (AR v2) Copy OK
Track 13
Filename F:\Nafta Releases\VA - The Rock'N'Roll Era 1955-1956 (1990)[FLAC] - Naftamusic\13 - Frankie Lymon And The Teenagers - Why Do Fools Fall In Love.wav
Pre-gap length 0:00:03.07
Peak level 71.4 % Extraction speed 5.6 X Track quality 100.0 % Test CRC 9485052D Copy CRC 9485052D Accurately ripped (confidence 2) [A3298EB2] (AR v2) Copy OK
Track 14
Filename F:\Nafta Releases\VA - The Rock'N'Roll Era 1955-1956 (1990)[FLAC] - Naftamusic\14 - Bill Hayley And His Comets - See You Later Alligator.wav
Pre-gap length 0:00:02.68
Peak level 70.7 % Extraction speed 6.0 X Track quality 100.0 % Test CRC 40D9FEF3 Copy CRC 40D9FEF3 Accurately ripped (confidence 2) [6526DF07] (AR v2) Copy OK
Track 15
Filename F:\Nafta Releases\VA - The Rock'N'Roll Era 1955-1956 (1990)[FLAC] - Naftamusic\15 - Fats Domino - I'm In Love Again.wav
Pre-gap length 0:00:02.66
Peak level 56.9 % Extraction speed 5.7 X Track quality 100.0 % Test CRC 91B8DC4E Copy CRC 91B8DC4E Accurately ripped (confidence 2) [3DE99853] (AR v2) Copy OK
Track 16
Filename F:\Nafta Releases\VA - The Rock'N'Roll Era 1955-1956 (1990)[FLAC] - Naftamusic\16 - Freddy Bell And The Bellboys - Giddy-Up-A-Ding-Dong.wav
Pre-gap length 0:00:02.58
Peak level 65.9 % Extraction speed 5.8 X Track quality 100.0 % Test CRC E6FA3CCC Copy CRC E6FA3CCC Accurately ripped (confidence 2) [06E21CA6] (AR v2) Copy OK
Track 17
Filename F:\Nafta Releases\VA - The Rock'N'Roll Era 1955-1956 (1990)[FLAC] - Naftamusic\17 - Jim Lowe - The Green Door.wav
Pre-gap length 0:00:02.60
Peak level 67.3 % Extraction speed 6.1 X Track quality 100.0 % Test CRC BB75CB04 Copy CRC BB75CB04 Accurately ripped (confidence 2) [056E7F9E] (AR v2) Copy OK
Track 18
Filename F:\Nafta Releases\VA - The Rock'N'Roll Era 1955-1956 (1990)[FLAC] - Naftamusic\18 - Bill Hayley And His Comets - Rock-A_Beatin' Boogie.wav
Pre-gap length 0:00:02.50
Peak level 59.2 % Extraction speed 6.3 X Track quality 100.0 % Test CRC 712A41AD Copy CRC 712A41AD Accurately ripped (confidence 2) [27835461] (AR v2) Copy OK
Track 19
Filename F:\Nafta Releases\VA - The Rock'N'Roll Era 1955-1956 (1990)[FLAC] - Naftamusic\19 - Tommy Steele - Singing The Blues.wav
Pre-gap length 0:00:02.70
Peak level 96.1 % Extraction speed 4.7 X Track quality 99.9 % Test CRC 1085F47E Copy CRC 1085F47E Accurately ripped (confidence 2) [A94B9624] (AR v2) Copy OK
Track 20
Filename F:\Nafta Releases\VA - The Rock'N'Roll Era 1955-1956 (1990)[FLAC] - Naftamusic\20 - Pat Boone - I Almost Lost My Mind.wav
Pre-gap length 0:00:02.70
Peak level 55.3 % Extraction speed 6.7 X Track quality 100.0 % Test CRC 6FFA8B15 Copy CRC 6FFA8B15 Accurately ripped (confidence 2) [60F6EAD8] (AR v2) Copy OK
Track 21
Filename F:\Nafta Releases\VA - The Rock'N'Roll Era 1955-1956 (1990)[FLAC] - Naftamusic\21 - The Platters - My Prayer.wav
Pre-gap length 0:00:02.70
Peak level 55.6 % Extraction speed 5.1 X Track quality 99.9 % Test CRC 68BC0E76 Copy CRC 68BC0E76 Accurately ripped (confidence 2) [D3882989] (AR v2) Copy OK
Track 22
Filename F:\Nafta Releases\VA - The Rock'N'Roll Era 1955-1956 (1990)[FLAC] - Naftamusic\22 - Lonnie Donnigan - Rock Island Line.wav
Pre-gap length 0:00:02.65
Peak level 95.0 % Extraction speed 6.8 X Track quality 100.0 % Test CRC 6EBAA1F6 Copy CRC 6EBAA1F6 Accurately ripped (confidence 2) [77A40CB0] (AR v2) Copy OK
Track 23
Filename F:\Nafta Releases\VA - The Rock'N'Roll Era 1955-1956 (1990)[FLAC] - Naftamusic\23 - The Crew Cuts - Earth Angel.wav
Pre-gap length 0:00:02.60
Peak level 50.2 % Extraction speed 7.2 X Track quality 100.0 % Test CRC 5C137FE3 Copy CRC 5C137FE3 Accurately ripped (confidence 2) [1373D4E9] (AR v2) Copy OK
Track 24
Filename F:\Nafta Releases\VA - The Rock'N'Roll Era 1955-1956 (1990)[FLAC] - Naftamusic\24 - Fats Domino - Blueberry Hill.wav
Pre-gap length 0:00:02.65
Peak level 58.1 % Extraction speed 4.9 X Track quality 99.9 % Test CRC A5B48395 Copy CRC A5B48395 Accurately ripped (confidence 2) [143E5793] (AR v2) Copy OK
All tracks accurately ripped
No errors occurred
End of status report
==== Log checksum F9F30D569621F0D3F3C47BEAD5C29DE4165C306BB816BF7BE8718F67E913C128 ====

Содержание индексной карты (.CUE)

REM GENRE "Rock & Roll"REM DATE 1992REM DISCID 630E1218REM COMMENT "ExactAudioCopy v1.0b3"PERFORMER "Various Artists"TITLE "The Rock 'N' Roll Era - 1955-1956"FILE "01 - Bill Haley And His Comets - Rock Around The Clock.wav" WAVE  TRACK 01 AUDIO    TITLE "Rock Around The Clock"    PERFORMER "Bill Haley And His Comets"    INDEX 01 00:00:00  TRACK 02 AUDIO    TITLE "Long Tall Sally"    PERFORMER "Little Richard"    INDEX 00 02:10:25FILE "02 - Little Richard - Long Tall Sally.wav" WAVE    INDEX 01 00:00:00  TRACK 03 AUDIO    TITLE "Blue Suede Shoes"    PERFORMER "Carl Perkins"    INDEX 00 02:08:10FILE "03 - Carl Perkins - Blue Suede Shoes.wav" WAVE    INDEX 01 00:00:00  TRACK 04 AUDIO    TITLE "Ain't That A Shame"    PERFORMER "Pat Boone"    INDEX 00 02:13:55FILE "04 - Pat Boone - Ain't That A Shame.wav" WAVE    INDEX 01 00:00:00  TRACK 05 AUDIO    TITLE "The Great Pretender"    PERFORMER "The Platters"    INDEX 00 02:23:50FILE "05 - The Platters - The Great Pretender.wav" WAVE    INDEX 01 00:00:00  TRACK 06 AUDIO    TITLE "Shake Rattle And Roll"    PERFORMER "Bill Haley And His Comets"    INDEX 00 02:38:12FILE "06 - Bill Haley And His Comets - Shake Rattle And Roll.wav" WAVE    INDEX 01 00:00:00  TRACK 07 AUDIO    TITLE "Be Bop A Lula"    PERFORMER "Gene Vincent"    INDEX 00 02:29:43FILE "07 - Gene Vincent - Be Bop A Lula.wav" WAVE    INDEX 01 00:00:00  TRACK 08 AUDIO    TITLE "Only You"    PERFORMER "The Platters"    INDEX 00 02:34:28FILE "08 - The Platters - Only You.wav" WAVE    INDEX 01 00:00:00  TRACK 09 AUDIO    TITLE "The Saints Rock 'n' Roll"    PERFORMER "Bill Haley And His Comets"    INDEX 00 02:35:57FILE "09 - Bill Haley And His Comets - The Saints Rock 'n' Roll.wav" WAVE    INDEX 01 00:00:00  TRACK 10 AUDIO    TITLE "Rock With The Caveman"    PERFORMER "Tommy Steele"    INDEX 00 03:25:62FILE "10 - Tommy Steele - Rock With The Caveman.wav" WAVE    INDEX 01 00:00:00  TRACK 11 AUDIO    TITLE "Tweedle Dee"    PERFORMER "Georgia Gibbs"    INDEX 00 01:53:42FILE "11 - Georgia Gibbs - Tweedle Dee.wav" WAVE    INDEX 01 00:00:00  TRACK 12 AUDIO    TITLE "I'll Be Home"    PERFORMER "Pat Boone"    INDEX 00 02:30:25FILE "12 - Pat Boone - I'll Be Home.wav" WAVE    INDEX 01 00:00:00  TRACK 13 AUDIO    TITLE "Why Do Fools Fall In Love"    PERFORMER "Frankie Lymon And The Teenagers"    INDEX 00 02:58:35FILE "13 - Frankie Lymon And The Teenagers - Why Do Fools Fall In Love.wav" WAVE    INDEX 01 00:00:00  TRACK 14 AUDIO    TITLE "See You Later Alligator"    PERFORMER "Bill Haley And His Comets"    INDEX 00 02:17:50FILE "14 - Bill Haley And His Comets - See You Later Alligator.wav" WAVE    INDEX 01 00:00:00  TRACK 15 AUDIO    TITLE "I'm In Love Again"    PERFORMER "Fats Domino"    INDEX 00 02:44:26FILE "15 - Fats Domino - I'm In Love Again.wav" WAVE    INDEX 01 00:00:00  TRACK 16 AUDIO    TITLE "Giddy-Up-A-Ding-Dong"    PERFORMER "Freddy Bell And The Bellboys"    INDEX 00 01:58:40FILE "16 - Freddy Bell And The Bellboys - Giddy-Up-A-Ding-Dong.wav" WAVE    INDEX 01 00:00:00  TRACK 17 AUDIO    TITLE "The Green Door"    PERFORMER "Jim Lowe"    INDEX 00 01:59:20FILE "17 - Jim Lowe - The Green Door.wav" WAVE    INDEX 01 00:00:00  TRACK 18 AUDIO    TITLE "Rock-A-Beatin' Boogie"    PERFORMER "Bill Haley And His Comets"    INDEX 00 02:13:05FILE "18 - Bill Haley And His Comets - Rock-A-Beatin' Boogie.wav" WAVE    INDEX 01 00:00:00  TRACK 19 AUDIO    TITLE "Singing The Blues"    PERFORMER "Tommy Steele"    INDEX 00 02:18:00FILE "19 - Tommy Steele - Singing The Blues.wav" WAVE    INDEX 01 00:00:00  TRACK 20 AUDIO    TITLE "I Almost Lost My Mind"    PERFORMER "Pat Boone"    INDEX 00 02:22:62FILE "20 - Pat Boone - I Almost Lost My Mind.wav" WAVE    INDEX 01 00:00:00  TRACK 21 AUDIO    TITLE "My Prayer"    PERFORMER "The Platters"    INDEX 00 02:36:20FILE "21 - The Platters - My Prayer.wav" WAVE    INDEX 01 00:00:00  TRACK 22 AUDIO    TITLE "Rock Island Line"    PERFORMER "Lonnie Donnigan"    INDEX 00 02:42:60FILE "22 - Lonnie Donnigan - Rock Island Line.wav" WAVE    INDEX 01 00:00:00  TRACK 23 AUDIO    TITLE "Earth Angel"    PERFORMER "The Crew Cuts"    INDEX 00 02:27:30FILE "23 - The Crew Cuts - Earth Angel.wav" WAVE    INDEX 01 00:00:00  TRACK 24 AUDIO    TITLE "Blueberry Hill"    PERFORMER "Fats Domino"    INDEX 00 02:53:68FILE "24 - Fats Domino - Blueberry Hill.wav" WAVE    INDEX 01 00:00:00

AccurateRip

[CUETools log; Date: 06.10.2018 18:18:41; Version: 2.1.5][CTDB TOCID: PHosQW0tLnb9nMc5VR543NRl.xE-] found.Track | CTDB Status  1   | (84/85) Accurately ripped  2   | (85/85) Accurately ripped  3   | (85/85) Accurately ripped  4   | (84/85) Accurately ripped  5   | (85/85) Accurately ripped  6   | (85/85) Accurately ripped  7   | (85/85) Accurately ripped  8   | (85/85) Accurately ripped  9   | (85/85) Accurately ripped 10   | (84/85) Accurately ripped 11   | (85/85) Accurately ripped 12   | (85/85) Accurately ripped 13   | (85/85) Accurately ripped 14   | (85/85) Accurately ripped 15   | (85/85) Accurately ripped 16   | (85/85) Accurately ripped 17   | (85/85) Accurately ripped 18   | (85/85) Accurately ripped 19   | (85/85) Accurately ripped 20   | (84/85) Accurately ripped 21   | (84/85) Accurately ripped 22   | (84/85) Accurately ripped 23   | (84/85) Accurately ripped 24   | (83/85) Accurately ripped[AccurateRip ID: 003329f8-0379a192-630e1218] found.Track   [  CRC   |   V2   ] Status 01     [b065863d|2348a9ac] (08+16/24) Accurately ripped 02     [19dfb61c|0fdeb487] (09+17/26) Accurately ripped 03     [e6bbfd71|f1e482d0] (09+17/26) Accurately ripped 04     [39b01db9|273084b1] (09+17/26) Accurately ripped 05     [9b0315e7|3d0001dd] (09+17/26) Accurately ripped 06     [7f00247e|f0a5245b] (09+17/26) Accurately ripped 07     [8beaa5fa|64b5a85b] (09+17/26) Accurately ripped 08     [40124091|7b2cba25] (09+17/26) Accurately ripped 09     [2f645451|4da69b2f] (09+17/26) Accurately ripped 10     [04b9ce43|55f0da51] (09+17/26) Accurately ripped 11     [b3438c21|d2544085] (09+17/26) Accurately ripped 12     [66323e73|954fd6c7] (09+17/26) Accurately ripped 13     [b2021e61|a3298eb2] (09+17/26) Accurately ripped 14     [77d0e1ca|6526df07] (09+17/26) Accurately ripped 15     [a84ba61d|3de99853] (09+17/26) Accurately ripped 16     [0c52e8a7|06e21ca6] (09+17/26) Accurately ripped 17     [69f1baaf|056e7f9e] (09+17/26) Accurately ripped 18     [d40c19fd|27835461] (09+17/26) Accurately ripped 19     [a086b473|a94b9624] (09+16/25) Accurately ripped 20     [58e51ab7|60f6ead8] (09+16/25) Accurately ripped 21     [12948381|d3882989] (09+16/25) Accurately ripped 22     [a9e9a24a|77a40cb0] (09+17/26) Accurately ripped 23     [9ea57b79|1373d4e9] (09+17/26) Accurately ripped 24     [7ef87176|143e5793] (09+17/26) Accurately ripped
Track Peak [ CRC32 ] [W/O NULL] [ LOG ] -- 96,1 [DE5A719C] [8E5A1DF8] 01 64,1 [1639187E] [76280FE2] CRC32 02 57,8 [722D1912] [39CE7DBF] CRC32 03 79,8 [D59EF7E8] [15AB8246] CRC32 04 55,2 [086C6E54] [FDDBAE66] CRC32 05 63,8 [E1A0D3B9] [64221C4A] CRC32 06 60,5 [585E4E41] [926E0BA1] CRC32 07 70,2 [BCF8B777] [34C89AEF] CRC32 08 61,3 [A98E9033] [8018EF18] CRC32 09 65,1 [0A46B276] [22910287] CRC32 10 62,1 [FDD19220] [0359DBC0] CRC32 11 62,6 [5A88431D] [A9052C89] CRC32 12 47,3 [3DAC5391] [12EA18E2] CRC32 13 71,4 [9485052D] [969F0940] CRC32 14 70,7 [40D9FEF3] [46B33900] CRC32 15 56,9 [91B8DC4E] [0945483D] CRC32 16 65,9 [E6FA3CCC] [D2157F2F] CRC32 17 67,3 [BB75CB04] [9ABA1CAE] CRC32 18 59,2 [712A41AD] [6C754458] CRC32 19 96,1 [1085F47E] [5660CAEC] CRC32 20 55,3 [6FFA8B15] [D4689B73] CRC32 21 55,6 [68BC0E76] [850AEAAC] CRC32 22 95,0 [6EBAA1F6] [00B32B84] CRC32 23 50,2 [5C137FE3] [08F5B23A] CRC32 24 58,1 [A5B48395] [58AAE54B] CRC32
Вы не можете начинать темы
Вы не можете отвечать на сообщения
Вы не можете редактировать свои сообщения
Вы не можете удалять свои сообщения
Вы не можете голосовать в опросах
Вы не можете прикреплять файлы к сообщениям
Вы можете скачивать файлы
!ВНИМАНИЕ!

Сайт не предоставляет электронные версии произведений, а занимается лишь коллекционированием и каталогизацией ссылок, присылаемых и публикуемых на форуме нашими читателями. Если вы являетесь правообладателем какого-либо представленного материала и не желаете, чтобы ссылка на него находилась в нашем каталоге, свяжитесь с нами, и мы незамедлительно удалим ее. Файлы для обмена на трекере предоставлены пользователями сайта, и администрация не несет ответственности за их содержание. Просьба не заливать файлы, защищенные авторскими правами, а также файлы нелегального содержания!

Искали программы, игры, дополнения, музыка mp3, аниме, аудио книги, журналы? Добро пожаловать на свободный торрент трекер Torrents, у нас можно скачать бесплатно, без смс и регистрации и прочих ограничений лучшие, отборные сборки программ, игр. Скачать торрентом не составит труда даже не опытному пользователю. Раздачи ежедневно обновляются, только лучшие и качественные раздачи, подробные описания и скриншоты. Огромная коллекция программ для работы со звуком, графикой, дизайном, а так же множество плагинов и инструментов к ним с подробной инструкцией и рекомендациями. Прошивки для навигаторов, карты. Разнообразные игры, для Windows, Linux. В коллекцие есть и старые игры любых жанров, Rpg, Action, Shooter, strategy Множество дополнений, модификаций, сценариев для популярных игр в жанре экш, рпг, гонки, стратегии, логические игры. Множество аддонов и сценариев для Microsoft Flight Simulator Большая коллекция книг, учебников. Если нет возможности купить печатное издание - смело скачивайте цифровую версию книги или, быть может, журнала. Не любите читать - можно загрузить бесплатно аудикнигу. Для веб дизайнеров и программистов так же найдется множество специализированного софта, таких как: редакторы с подсветкой, среды программирования, компоненты, системы управления базами данных, разнообразные скрипты и шаблоны. Не так давно у нас появился материал для автолюбителей и владельцев мото - оригинальные и неоригинальные каталоги запчастей, книги и журналы по ремонту и обслуживанию, видеоуроки, статьи по чип тюнингу, прошивкам. Процедура получения контента элементарная, достаточно просто скачать торрент файл и добавить его в загрузку в вашем торрент клиенте. Если у вас нет специального торрент клиента, вы можете его скачать у нас.

Bitter Competition: The Holland Sweetener Company Versus Nutrasweet | Adventure | Cooper Barrett's Guide To Surviving Life