(Rock & Roll) [CD] VA - The Rock \'N\' Roll Era - 1962 [Time-Life Music, TL 516/03, Germany] - 1992, FLAC (tracks+.cue), lossless 

Цитировать
The Rock 'N' Roll Era - 1962
Жанр: Rock & Roll
Носитель: CD
Страна-производитель диска (релиза): Germany
Год издания: 1992
Издатель (лейбл): Time-Life Music
Номер по каталогу: TL 516/03
Аудиокодек: FLAC (*.flac)
Тип рипа: tracks+.cue
Битрейт аудио: lossless
Продолжительность: 00:57:00
Источник (релизер): Naftamusic
Наличие сканов в содержимом раздачи: да

Треклист:
01. Little Eva - The Loco-Motion
02. Sam Cooke - Twistin' The Night Away
03. Carole King - It Might As Well Rain Until September
04. Duane Eddy - Dance With The Guitar Man
05. Booker T And The Mg's - Green Onions
06. Neil Sedaka - Breaking Up Is Hard To Do
07. Bobby Darin - Things
08. Brian Hyland - Sealed With A Kiss
09. Connie Francis - Vacation
10. Mark Wynter - Venus In Blue Jeans
11. Helen Shapiro - Tell Me What He Said
12. The Crickets - Don't Ever Change
13. The Shadows - Wonderful Land
14. Dion - The Wanderer
15. Adam Faith - As You Like It
16. Joe Brown And The Bruvvers - A Picture Of You
17. Bobby Vee - Sharing You
18. Roy Orbison - Dream Baby
19. Tommy Roe - Sheila
20. B. Bumble And The Stingers - Nut Rocker
21. Susan Maughan - Bobby's Girl
22. Billy Fury - Last Night Was Made For Love
23. Chris Montez - Let's Dance
24. Ketty Lester - Love Letters

Лог создания рипа

Exact Audio Copy V1.0 beta 3 from 29. August 2011
EAC extraction logfile from 13. December 2012, 22:00
Various Artists / The Rock 'n Roll Era
Used drive : PLEXTOR DVDR PX-891SA Adapter: 0 ID: 4
Read mode : SecureUtilize accurate stream : YesDefeat audio cache : YesMake use of C2 pointers : No
Read offset correction : 6Overread into Lead-In and Lead-Out : NoFill up missing offset samples with silence : YesDelete leading and trailing silent blocks : NoNull samples used in CRC calculations : YesUsed interface : Native Win32 interface for Win NT & 2000Gap handling : Appended to previous track
Used output format : User Defined EncoderSelected bitrate : 1024 kBit/sQuality : HighAdd ID3 tag : NoCommand line compressor : C:\Program Files (x86)\Exact Audio Copy\FLAC\FLAC.EXEAdditional command line options : -0 -V -T "ARTIST=%artist%" -T "TITLE=%title%" -T "ALBUM=%albumtitle%" -T "DATE=%year%" -T "TRACKNUMBER=%tracknr%" -T "TOTALTRACKS=%numtracks%" -T "GENRE=%genre%" -T "COMMENT=Naftamusic Release!" %source%
TOC of the extracted CD
Track | Start | Length | Start sector | End sector --------------------------------------------------------- 1 | 0:00.00 | 2:31.00 | 0 | 11324 2 | 2:31.00 | 2:40.37 | 11325 | 23361 3 | 5:11.37 | 2:29.18 | 23362 | 34554 4 | 7:40.55 | 2:38.37 | 34555 | 46441 5 | 10:19.17 | 2:53.33 | 46442 | 59449 6 | 13:12.50 | 2:16.55 | 59450 | 69704 7 | 15:29.30 | 2:33.45 | 69705 | 81224 8 | 18:03.00 | 2:43.37 | 81225 | 93486 9 | 20:46.37 | 2:24.03 | 93487 | 104289 10 | 23:10.40 | 2:09.05 | 104290 | 113969 11 | 25:19.45 | 2:49.22 | 113970 | 126666 12 | 28:08.67 | 2:17.55 | 126667 | 136996 13 | 30:26.47 | 2:04.08 | 136997 | 146304 14 | 32:30.55 | 2:42.67 | 146305 | 158521 15 | 35:13.47 | 2:04.33 | 158522 | 167854 16 | 37:18.05 | 2:19.52 | 167855 | 178331 17 | 39:37.57 | 2:03.30 | 178332 | 187586 18 | 41:41.12 | 2:34.53 | 187587 | 199189 19 | 44:15.65 | 2:02.07 | 199190 | 208346 20 | 46:17.72 | 2:02.48 | 208347 | 217544 21 | 48:20.45 | 2:37.05 | 217545 | 229324 22 | 50:57.50 | 2:18.32 | 229325 | 239706 23 | 53:16.07 | 2:18.45 | 239707 | 250101 24 | 55:34.52 | 2:34.03 | 250102 | 261654
Track 1
Filename F:\Nafta Releases\VA - The Rock'N'Roll Era 1962 (1992)[FLAC] - Naftamusic\01 - Little Eva - The Loco-Motion.wav
Pre-gap length 0:00:02.00
Peak level 50.7 % Extraction speed 3.3 X Track quality 100.0 % Test CRC 80BE5D8D Copy CRC 80BE5D8D Accurately ripped (confidence 10) [2D43681C] (AR v1) Copy OK
Track 2
Filename F:\Nafta Releases\VA - The Rock'N'Roll Era 1962 (1992)[FLAC] - Naftamusic\02 - Sam Cooke - Twistin' The Night Away.wav
Pre-gap length 0:00:03.00
Peak level 53.7 % Extraction speed 3.6 X Track quality 100.0 % Test CRC 67C26F91 Copy CRC 67C26F91 Accurately ripped (confidence 11) [6866492E] (AR v1) Copy OK
Track 3
Filename F:\Nafta Releases\VA - The Rock'N'Roll Era 1962 (1992)[FLAC] - Naftamusic\03 - Carole King - It Might As Well Rain Until September.wav
Pre-gap length 0:00:03.02
Peak level 49.6 % Extraction speed 3.8 X Track quality 100.0 % Test CRC 3B80124B Copy CRC 3B80124B Accurately ripped (confidence 11) [F60457F9] (AR v1) Copy OK
Track 4
Filename F:\Nafta Releases\VA - The Rock'N'Roll Era 1962 (1992)[FLAC] - Naftamusic\04 - Duane Eddy - Dance With The Guitar Man.wav
Pre-gap length 0:00:03.00
Peak level 62.3 % Extraction speed 4.1 X Track quality 100.0 % Test CRC 26D740F5 Copy CRC 26D740F5 Accurately ripped (confidence 11) [2DEBC4CB] (AR v1) Copy OK
Track 5
Filename F:\Nafta Releases\VA - The Rock'N'Roll Era 1962 (1992)[FLAC] - Naftamusic\05 - Booker T And The Mg's - Green Onions.wav
Pre-gap length 0:00:03.00
Peak level 84.2 % Extraction speed 4.4 X Track quality 100.0 % Test CRC 1605D8E0 Copy CRC 1605D8E0 Accurately ripped (confidence 11) [C368302E] (AR v1) Copy OK
Track 6
Filename F:\Nafta Releases\VA - The Rock'N'Roll Era 1962 (1992)[FLAC] - Naftamusic\06 - Neil Sedaka - Breaking Up Is Hard To Do.wav
Pre-gap length 0:00:03.00
Peak level 54.7 % Extraction speed 4.4 X Track quality 100.0 % Test CRC 406EE341 Copy CRC 406EE341 Accurately ripped (confidence 10) [FCFBDDDF] (AR v1) Copy OK
Track 7
Filename F:\Nafta Releases\VA - The Rock'N'Roll Era 1962 (1992)[FLAC] - Naftamusic\07 - Bobby Darin - Things.wav
Pre-gap length 0:00:03.00
Peak level 64.6 % Extraction speed 4.6 X Track quality 100.0 % Test CRC 008FF252 Copy CRC 008FF252 Accurately ripped (confidence 11) [09C4D526] (AR v1) Copy OK
Track 8
Filename F:\Nafta Releases\VA - The Rock'N'Roll Era 1962 (1992)[FLAC] - Naftamusic\08 - Brian Hyland - Sealed With A Kiss.wav
Pre-gap length 0:00:03.00
Peak level 59.1 % Extraction speed 4.9 X Track quality 100.0 % Test CRC CD3F0514 Copy CRC CD3F0514 Accurately ripped (confidence 10) [6DAC7DF2] (AR v1) Copy OK
Track 9
Filename F:\Nafta Releases\VA - The Rock'N'Roll Era 1962 (1992)[FLAC] - Naftamusic\09 - Connie Francis - Vacation.wav
Pre-gap length 0:00:03.00
Peak level 62.1 % Extraction speed 4.9 X Track quality 100.0 % Test CRC 7BC08456 Copy CRC 7BC08456 Accurately ripped (confidence 10) [1AD220A4] (AR v1) Copy OK
Track 10
Filename F:\Nafta Releases\VA - The Rock'N'Roll Era 1962 (1992)[FLAC] - Naftamusic\10 - Mark Wynter - Venus In Blue Jeans.wav
Pre-gap length 0:00:02.60
Peak level 56.9 % Extraction speed 4.9 X Track quality 100.0 % Test CRC EA7A3F57 Copy CRC EA7A3F57 Accurately ripped (confidence 11) [C7ABD39F] (AR v1) Copy OK
Track 11
Filename F:\Nafta Releases\VA - The Rock'N'Roll Era 1962 (1992)[FLAC] - Naftamusic\11 - Helen Shapiro - Tell Me What He Said.wav
Pre-gap length 0:00:03.00
Peak level 53.5 % Extraction speed 4.1 X Track quality 99.9 % Test CRC 33DC7844 Copy CRC 33DC7844 Accurately ripped (confidence 10) [39CAF58F] (AR v1) Copy OK
Track 12
Filename F:\Nafta Releases\VA - The Rock'N'Roll Era 1962 (1992)[FLAC] - Naftamusic\12 - The Crickets - Don't Ever Change.wav
Pre-gap length 0:00:03.00
Peak level 74.3 % Extraction speed 5.3 X Track quality 100.0 % Test CRC 1083A78E Copy CRC 1083A78E Accurately ripped (confidence 11) [53CE7FC0] (AR v1) Copy OK
Track 13
Filename F:\Nafta Releases\VA - The Rock'N'Roll Era 1962 (1992)[FLAC] - Naftamusic\13 - The Shadows - Wonderful Land.wav
Pre-gap length 0:00:03.00
Peak level 43.5 % Extraction speed 5.4 X Track quality 100.0 % Test CRC 99CC3567 Copy CRC 99CC3567 Accurately ripped (confidence 11) [CCB469E3] (AR v1) Copy OK
Track 14
Filename F:\Nafta Releases\VA - The Rock'N'Roll Era 1962 (1992)[FLAC] - Naftamusic\14 - Dion - The Wanderer.wav
Pre-gap length 0:00:03.00
Peak level 72.4 % Extraction speed 5.8 X Track quality 100.0 % Test CRC 95A5C273 Copy CRC 95A5C273 Accurately ripped (confidence 11) [DDE50174] (AR v1) Copy OK
Track 15
Filename F:\Nafta Releases\VA - The Rock'N'Roll Era 1962 (1992)[FLAC] - Naftamusic\15 - Adam Faith - As You Like It.wav
Pre-gap length 0:00:02.62
Peak level 50.9 % Extraction speed 5.6 X Track quality 100.0 % Test CRC 4271DFA2 Copy CRC 4271DFA2 Accurately ripped (confidence 11) [B0201C3B] (AR v1) Copy OK
Track 16
Filename F:\Nafta Releases\VA - The Rock'N'Roll Era 1962 (1992)[FLAC] - Naftamusic\16 - Joe Brown And The Bruvvers - A Picture Of You.wav
Pre-gap length 0:00:03.00
Peak level 65.5 % Extraction speed 5.9 X Track quality 100.0 % Test CRC 0095277F Copy CRC 0095277F Accurately ripped (confidence 11) [100EF3B0] (AR v1) Copy OK
Track 17
Filename F:\Nafta Releases\VA - The Rock'N'Roll Era 1962 (1992)[FLAC] - Naftamusic\17 - Bobby Vee - Sharing You.wav
Pre-gap length 0:00:03.00
Peak level 61.3 % Extraction speed 5.8 X Track quality 100.0 % Test CRC 04EF180C Copy CRC 04EF180C Accurately ripped (confidence 11) [CE04C81C] (AR v1) Copy OK
Track 18
Filename F:\Nafta Releases\VA - The Rock'N'Roll Era 1962 (1992)[FLAC] - Naftamusic\18 - Roy Orbison - Dream Baby.wav
Pre-gap length 0:00:03.00
Peak level 59.2 % Extraction speed 4.6 X Track quality 99.9 % Test CRC 21481387 Copy CRC 21481387 Accurately ripped (confidence 11) [5C2ED6E3] (AR v1) Copy OK
Track 19
Filename F:\Nafta Releases\VA - The Rock'N'Roll Era 1962 (1992)[FLAC] - Naftamusic\19 - Tommy Roe - Sheila.wav
Pre-gap length 0:00:03.00
Peak level 71.3 % Extraction speed 6.0 X Track quality 100.0 % Test CRC C8210374 Copy CRC C8210374 Accurately ripped (confidence 11) [5A7D8359] (AR v1) Copy OK
Track 20
Filename F:\Nafta Releases\VA - The Rock'N'Roll Era 1962 (1992)[FLAC] - Naftamusic\20 - B. Bumble And The Stingers - Nut Rocker.wav
Pre-gap length 0:00:03.00
Peak level 61.7 % Extraction speed 6.1 X Track quality 100.0 % Test CRC 3781A913 Copy CRC 3781A913 Accurately ripped (confidence 10) [92BED5B2] (AR v1) Copy OK
Track 21
Filename F:\Nafta Releases\VA - The Rock'N'Roll Era 1962 (1992)[FLAC] - Naftamusic\21 - Susan Maughan - Bobby's Girl.wav
Pre-gap length 0:00:03.00
Peak level 68.3 % Extraction speed 6.5 X Track quality 100.0 % Test CRC AEB97E0E Copy CRC AEB97E0E Accurately ripped (confidence 11) [3E828AC5] (AR v1) Copy OK
Track 22
Filename F:\Nafta Releases\VA - The Rock'N'Roll Era 1962 (1992)[FLAC] - Naftamusic\22 - Billy Fury - Last Night Was Made For Love.wav
Pre-gap length 0:00:02.74
Peak level 78.9 % Extraction speed 4.7 X Track quality 99.9 % Test CRC F3DEC357 Copy CRC F3DEC357 Accurately ripped (confidence 11) [4A16ED03] (AR v1) Copy OK
Track 23
Filename F:\Nafta Releases\VA - The Rock'N'Roll Era 1962 (1992)[FLAC] - Naftamusic\23 - Chris Montez - Let's Dance.wav
Pre-gap length 0:00:03.00
Peak level 74.1 % Extraction speed 6.7 X Track quality 100.0 % Test CRC C056EC72 Copy CRC C056EC72 Accurately ripped (confidence 11) [FEDDBAC2] (AR v1) Copy OK
Track 24
Filename F:\Nafta Releases\VA - The Rock'N'Roll Era 1962 (1992)[FLAC] - Naftamusic\24 - Ketty Lester - Love Letters.wav
Pre-gap length 0:00:03.00
Peak level 66.2 % Extraction speed 4.9 X Track quality 99.9 % Test CRC 5252C7F8 Copy CRC 5252C7F8 Accurately ripped (confidence 11) [920F3B6D] (AR v1) Copy OK
All tracks accurately ripped
No errors occurred
End of status report
==== Log checksum F14D9942B3F86EC8C9109AB4B5296F3573DD2FB1E05198257C68AC066C5B5D0C ====

Содержание индексной карты (.CUE)

REM GENRE "Rock & Roll"REM DATE 1992REM DISCID 510DA018REM COMMENT "ExactAudioCopy v1.0b3"PERFORMER "Various Artists"TITLE "The Rock 'N' Roll Era - 1962"FILE "01 - Little Eva - The Loco-Motion.wav" WAVE  TRACK 01 AUDIO    TITLE "The Loco-Motion"    PERFORMER "Little Eva"    INDEX 01 00:00:00  TRACK 02 AUDIO    TITLE "Twistin' The Night Away"    PERFORMER "Sam Cooke"    INDEX 00 02:28:00FILE "02 - Sam Cooke - Twistin' The Night Away.wav" WAVE    INDEX 01 00:00:00  TRACK 03 AUDIO    TITLE "It Might As Well Rain Until September"    PERFORMER "Carole King"    INDEX 00 02:37:35FILE "03 - Carole King - It Might As Well Rain Until September.wav" WAVE    INDEX 01 00:00:00  TRACK 04 AUDIO    TITLE "Dance With The Guitar Man"    PERFORMER "Duane Eddy"    INDEX 00 02:26:18FILE "04 - Duane Eddy - Dance With The Guitar Man.wav" WAVE    INDEX 01 00:00:00  TRACK 05 AUDIO    TITLE "Green Onions"    PERFORMER "Booker T And The Mg's"    INDEX 00 02:35:37FILE "05 - Booker T And The Mg's - Green Onions.wav" WAVE    INDEX 01 00:00:00  TRACK 06 AUDIO    TITLE "Breaking Up Is Hard To Do"    PERFORMER "Neil Sedaka"    INDEX 00 02:50:33FILE "06 - Neil Sedaka - Breaking Up Is Hard To Do.wav" WAVE    INDEX 01 00:00:00  TRACK 07 AUDIO    TITLE "Things"    PERFORMER "Bobby Darin"    INDEX 00 02:13:55FILE "07 - Bobby Darin - Things.wav" WAVE    INDEX 01 00:00:00  TRACK 08 AUDIO    TITLE "Sealed With A Kiss"    PERFORMER "Brian Hyland"    INDEX 00 02:30:45FILE "08 - Brian Hyland - Sealed With A Kiss.wav" WAVE    INDEX 01 00:00:00  TRACK 09 AUDIO    TITLE "Vacation"    PERFORMER "Connie Francis"    INDEX 00 02:40:37FILE "09 - Connie Francis - Vacation.wav" WAVE    INDEX 01 00:00:00  TRACK 10 AUDIO    TITLE "Venus In Blue Jeans"    PERFORMER "Mark Wynter"    INDEX 00 02:21:18FILE "10 - Mark Wynter - Venus In Blue Jeans.wav" WAVE    INDEX 01 00:00:00  TRACK 11 AUDIO    TITLE "Tell Me What He Said"    PERFORMER "Helen Shapiro"    INDEX 00 02:06:05FILE "11 - Helen Shapiro - Tell Me What He Said.wav" WAVE    INDEX 01 00:00:00  TRACK 12 AUDIO    TITLE "Don't Ever Change"    PERFORMER "The Crickets"    INDEX 00 02:46:22FILE "12 - The Crickets - Don't Ever Change.wav" WAVE    INDEX 01 00:00:00  TRACK 13 AUDIO    TITLE "Wonderful Land"    PERFORMER "The Shadows"    INDEX 00 02:14:55FILE "13 - The Shadows - Wonderful Land.wav" WAVE    INDEX 01 00:00:00  TRACK 14 AUDIO    TITLE "The Wanderer"    PERFORMER "Dion"    INDEX 00 02:01:08FILE "14 - Dion - The Wanderer.wav" WAVE    INDEX 01 00:00:00  TRACK 15 AUDIO    TITLE "As You Like It"    PERFORMER "Adam Faith"    INDEX 00 02:40:05FILE "15 - Adam Faith - As You Like It.wav" WAVE    INDEX 01 00:00:00  TRACK 16 AUDIO    TITLE "A Picture Of You"    PERFORMER "Joe Brown And The Bruvvers"    INDEX 00 02:01:33FILE "16 - Joe Brown And The Bruvvers - A Picture Of You.wav" WAVE    INDEX 01 00:00:00  TRACK 17 AUDIO    TITLE "Sharing You"    PERFORMER "Bobby Vee"    INDEX 00 02:16:52FILE "17 - Bobby Vee - Sharing You.wav" WAVE    INDEX 01 00:00:00  TRACK 18 AUDIO    TITLE "Dream Baby"    PERFORMER "Roy Orbison"    INDEX 00 02:00:30FILE "18 - Roy Orbison - Dream Baby.wav" WAVE    INDEX 01 00:00:00  TRACK 19 AUDIO    TITLE "Sheila"    PERFORMER "Tommy Roe"    INDEX 00 02:31:53FILE "19 - Tommy Roe - Sheila.wav" WAVE    INDEX 01 00:00:00  TRACK 20 AUDIO    TITLE "Nut Rocker"    PERFORMER "B. Bumble And The Stingers"    INDEX 00 01:59:07FILE "20 - B. Bumble And The Stingers - Nut Rocker.wav" WAVE    INDEX 01 00:00:00  TRACK 21 AUDIO    TITLE "Bobby's Girl"    PERFORMER "Susan Maughan"    INDEX 00 01:59:48FILE "21 - Susan Maughan - Bobby's Girl.wav" WAVE    INDEX 01 00:00:00  TRACK 22 AUDIO    TITLE "Last Night Was Made For Love"    PERFORMER "Billy Fury"    INDEX 00 02:34:06FILE "22 - Billy Fury - Last Night Was Made For Love.wav" WAVE    INDEX 01 00:00:00  TRACK 23 AUDIO    TITLE "Let's Dance"    PERFORMER "Chris Montez"    INDEX 00 02:15:32FILE "23 - Chris Montez - Let's Dance.wav" WAVE    INDEX 01 00:00:00  TRACK 24 AUDIO    TITLE "Love Letters"    PERFORMER "Ketty Lester"    INDEX 00 02:15:45FILE "24 - Ketty Lester - Love Letters.wav" WAVE    INDEX 01 00:00:00

AccurateRip

[CUETools log; Date: 14.10.2018 12:57:45; Version: 2.1.5][CTDB TOCID: NaY6F9nZMWPrKLP9XQ.cdOCQjjY-] found.Track | CTDB Status  1   | (53/54) Accurately ripped  2   | (53/54) Accurately ripped  3   | (54/54) Accurately ripped  4   | (54/54) Accurately ripped  5   | (53/54) Accurately ripped  6   | (53/54) Accurately ripped  7   | (53/54) Accurately ripped  8   | (53/54) Accurately ripped  9   | (53/54) Accurately ripped 10   | (53/54) Accurately ripped 11   | (53/54) Accurately ripped 12   | (53/54) Accurately ripped 13   | (53/54) Accurately ripped 14   | (53/54) Accurately ripped 15   | (53/54) Accurately ripped 16   | (52/54) Accurately ripped 17   | (53/54) Accurately ripped 18   | (53/54) Accurately ripped 19   | (53/54) Accurately ripped 20   | (53/54) Accurately ripped 21   | (53/54) Accurately ripped 22   | (54/54) Accurately ripped 23   | (53/54) Accurately ripped 24   | (53/54) Accurately ripped[AccurateRip ID: 00330e1b-036df8b3-510da018] found.Track   [  CRC   |   V2   ] Status 01     [2d43681c|62975f3b] (10+05/15) Accurately ripped 02     [6866492e|1048c271] (11+05/16) Accurately ripped 03     [f60457f9|928a6f9d] (11+05/16) Accurately ripped 04     [2debc4cb|7f6719d0] (11+05/16) Accurately ripped 05     [c368302e|b286c742] (11+05/16) Accurately ripped 06     [fcfbdddf|538f182b] (10+05/15) Accurately ripped 07     [09c4d526|8551c520] (11+05/16) Accurately ripped 08     [6dac7df2|16360bf6] (10+05/15) Accurately ripped 09     [1ad220a4|a2e8cbc9] (10+05/15) Accurately ripped 10     [c7abd39f|a573f6ae] (11+05/16) Accurately ripped 11     [39caf58f|f854d038] (10+05/15) Accurately ripped 12     [53ce7fc0|7e74583a] (11+05/16) Accurately ripped 13     [ccb469e3|097c7ddd] (11+05/16) Accurately ripped 14     [dde50174|d242e7d5] (11+05/16) Accurately ripped 15     [b0201c3b|27a0de7e] (11+05/16) Accurately ripped 16     [100ef3b0|d2085745] (11+05/16) Accurately ripped 17     [ce04c81c|901c5fc3] (11+05/16) Accurately ripped 18     [5c2ed6e3|4609573c] (11+05/16) Accurately ripped 19     [5a7d8359|f84d9950] (11+05/16) Accurately ripped 20     [92bed5b2|e9f8e444] (10+05/15) Accurately ripped 21     [3e828ac5|cc3a9845] (11+05/16) Accurately ripped 22     [4a16ed03|bc64bf14] (11+05/16) Accurately ripped 23     [feddbac2|589e26d6] (11+05/16) Accurately ripped 24     [920f3b6d|98462a45] (11+05/16) Accurately ripped
Track Peak [ CRC32 ] [W/O NULL] [ LOG ] -- 84,2 [8B9E2144] [8B3B7264] 01 50,7 [80BE5D8D] [0ADF4398] CRC32 02 53,7 [67C26F91] [EE3755BF] CRC32 03 49,6 [3B80124B] [15978152] CRC32 04 62,3 [26D740F5] [AD37428F] CRC32 05 84,2 [1605D8E0] [D7E5FBA9] CRC32 06 54,7 [406EE341] [781F0459] CRC32 07 64,6 [008FF252] [2AF58332] CRC32 08 59,1 [CD3F0514] [CD624D5D] CRC32 09 62,1 [7BC08456] [C44156DE] CRC32 10 56,9 [EA7A3F57] [ECA79183] CRC32 11 53,5 [33DC7844] [11AE6214] CRC32 12 74,3 [1083A78E] [FD68B23D] CRC32 13 43,5 [99CC3567] [0821F96D] CRC32 14 72,4 [95A5C273] [E4A9E1B8] CRC32 15 50,9 [4271DFA2] [878B8890] CRC32 16 65,5 [0095277F] [8269E2C1] CRC32 17 61,3 [04EF180C] [B1418420] CRC32 18 59,2 [21481387] [AFA18440] CRC32 19 71,3 [C8210374] [4B6D731C] CRC32 20 61,7 [3781A913] [6D0F2F6A] CRC32 21 68,3 [AEB97E0E] [4083FADF] CRC32 22 78,9 [F3DEC357] [5F83B04C] CRC32 23 74,1 [C056EC72] [E855AC7B] CRC32 24 66,2 [5252C7F8] [1F7369B4] CRC32
Вы не можете начинать темы
Вы не можете отвечать на сообщения
Вы не можете редактировать свои сообщения
Вы не можете удалять свои сообщения
Вы не можете голосовать в опросах
Вы не можете прикреплять файлы к сообщениям
Вы можете скачивать файлы
!ВНИМАНИЕ!

Сайт не предоставляет электронные версии произведений, а занимается лишь коллекционированием и каталогизацией ссылок, присылаемых и публикуемых на форуме нашими читателями. Если вы являетесь правообладателем какого-либо представленного материала и не желаете, чтобы ссылка на него находилась в нашем каталоге, свяжитесь с нами, и мы незамедлительно удалим ее. Файлы для обмена на трекере предоставлены пользователями сайта, и администрация не несет ответственности за их содержание. Просьба не заливать файлы, защищенные авторскими правами, а также файлы нелегального содержания!

Искали программы, игры, дополнения, музыка mp3, аниме, аудио книги, журналы? Добро пожаловать на свободный торрент трекер Torrents, у нас можно скачать бесплатно, без смс и регистрации и прочих ограничений лучшие, отборные сборки программ, игр. Скачать торрентом не составит труда даже не опытному пользователю. Раздачи ежедневно обновляются, только лучшие и качественные раздачи, подробные описания и скриншоты. Огромная коллекция программ для работы со звуком, графикой, дизайном, а так же множество плагинов и инструментов к ним с подробной инструкцией и рекомендациями. Прошивки для навигаторов, карты. Разнообразные игры, для Windows, Linux. В коллекцие есть и старые игры любых жанров, Rpg, Action, Shooter, strategy Множество дополнений, модификаций, сценариев для популярных игр в жанре экш, рпг, гонки, стратегии, логические игры. Множество аддонов и сценариев для Microsoft Flight Simulator Большая коллекция книг, учебников. Если нет возможности купить печатное издание - смело скачивайте цифровую версию книги или, быть может, журнала. Не любите читать - можно загрузить бесплатно аудикнигу. Для веб дизайнеров и программистов так же найдется множество специализированного софта, таких как: редакторы с подсветкой, среды программирования, компоненты, системы управления базами данных, разнообразные скрипты и шаблоны. Не так давно у нас появился материал для автолюбителей и владельцев мото - оригинальные и неоригинальные каталоги запчастей, книги и журналы по ремонту и обслуживанию, видеоуроки, статьи по чип тюнингу, прошивкам. Процедура получения контента элементарная, достаточно просто скачать торрент файл и добавить его в загрузку в вашем торрент клиенте. Если у вас нет специального торрент клиента, вы можете его скачать у нас.

Dairy Microbiology A Practical Approach | The Border (1982) - Jack Nicholson + Harvey Keitel - BRRip XviD 11 minutes | HD72 美国/1995 独领风骚 艾丽西亚·希尔维斯通,斯黛西·达什,