(Various) [CD] VA - De Pre Historie 1986 [EMI/Virgin, 262.686, Belgium] - 1992, FLAC (tracks+.cue), lossless 

Цитировать
De Pre Historie 1986
Жанр: Various
Носитель: CD
Страна-производитель диска (релиза): Belgium
Год издания: 1992
Издатель (лейбл): EMI/Virgin
Номер по каталогу: 262.686
Аудиокодек: FLAC (*.flac)
Тип рипа: tracks+.cue
Битрейт аудио: lossless
Продолжительность: 01:13:08
Источник (релизер): From RED
Наличие сканов в содержимом раздачи: нет

Треклист:
01. Fine Young Cannibals – Suspicious Minds
02. The Communards – Don't Leave Me This Way
03. Eurythmics – When Tomorrow Comes
04. Simple Minds – Sanctify Yourself
05. Human League – Human
06. Gino Vannelli – Hurts To Be In Love
07. Nick Kamen – Each Time You Break My Heart
08. Bananarama – Venus
09. Matia Bazar – Ti Sento
10. Two Man Sound – Disco Samba
11. Sandra – In The Heat Of The Night
12. Culture Club – Move Away
13. Jermaine Stewart – We Don't Have To Take Our Clothes Off
14. Starship – We Built This City
15. Level 42 – Lessons In Love
16. The Pretenders – Don't Get Me Wrong
17. Peter Gabriel – Sledgehammer

Лог создания рипа

Exact Audio Copy V1.3 from 2. September 2016
EAC extraction logfile from 21. May 2017, 11:34
Various Artists / De Pre Historie 1986
Used drive : ATAPI iHAS124 F Adapter: 1 ID: 0
Read mode : SecureUtilize accurate stream : YesDefeat audio cache : YesMake use of C2 pointers : No
Read offset correction : 6Overread into Lead-In and Lead-Out : NoFill up missing offset samples with silence : YesDelete leading and trailing silent blocks : NoNull samples used in CRC calculations : YesUsed interface : Native Win32 interface for Win NT & 2000Gap handling : Appended to previous track
Used output format : User Defined EncoderSelected bitrate : 1024 kBit/sQuality : HighAdd ID3 tag : NoCommand line compressor : C:\cmd.exeAdditional command line options : /c ""C:\F\CUETools.FLACCL.cmd.exe" -8 --verify %source% -o %dest% & "C:\M\metaflac.exe" --set-tag="ARTIST=%artist%" --set-tag="TITLE=%title%" --set-tag="ALBUM=%albumtitle%" --set-tag="DATE=%year%" --set-tag="TRACKNUMBER=%tracknr%" --set-tag="GENRE=%genre%" --set-tag="COMPOSER=%composer%" --set-tag="ALBUMARTIST=%albumartist%" %dest%"
TOC of the extracted CD
Track | Start | Length | Start sector | End sector --------------------------------------------------------- 1 | 0:00.32 | 3:58.48 | 32 | 17929 2 | 3:59.05 | 4:28.25 | 17930 | 38054 3 | 8:27.30 | 4:16.65 | 38055 | 57319 4 | 12:44.20 | 3:57.52 | 57320 | 75146 5 | 16:41.72 | 3:48.25 | 75147 | 92271 6 | 20:30.22 | 3:39.15 | 92272 | 108711 7 | 24:09.37 | 4:25.05 | 108712 | 128591 8 | 28:34.42 | 3:47.55 | 128592 | 145671 9 | 32:22.22 | 4:10.50 | 145672 | 164471 10 | 36:32.72 | 4:25.60 | 164472 | 184406 11 | 40:58.57 | 5:18.58 | 184407 | 208314 12 | 46:17.40 | 4:10.05 | 208315 | 227069 13 | 50:27.45 | 4:51.45 | 227070 | 248939 14 | 55:19.15 | 4:55.62 | 248940 | 271126 15 | 60:15.02 | 4:02.60 | 271127 | 289336 16 | 64:17.62 | 3:48.60 | 289337 | 306496 17 | 68:06.47 | 5:01.60 | 306497 | 329131
Track 1
Filename E:\EAC Rips\2017-05 Mei\Various Artists - De Pre Historie 1986 (1992) [FLAC] {BMG 262.686}\01 - Fine Young Cannibals - Suspicious Minds.wav
Pre-gap length 0:00:02.32
Peak level 99.2 % Extraction speed 3.9 X Track quality 100.0 % Test CRC 3012C349 Copy CRC 3012C349 Accurately ripped (confidence 3) [F6AE303A] (AR v2) Copy OK
Track 2
Filename E:\EAC Rips\2017-05 Mei\Various Artists - De Pre Historie 1986 (1992) [FLAC] {BMG 262.686}\02 - The Communards - Don't Leave Me This Way.wav
Peak level 92.1 % Extraction speed 4.4 X Track quality 100.0 % Test CRC F41EE654 Copy CRC F41EE654 Accurately ripped (confidence 3) [DE5BBC3F] (AR v2) Copy OK
Track 3
Filename E:\EAC Rips\2017-05 Mei\Various Artists - De Pre Historie 1986 (1992) [FLAC] {BMG 262.686}\03 - Eurythmics - When Tomorrow Comes.wav
Peak level 96.3 % Extraction speed 4.8 X Track quality 100.0 % Test CRC 3F1FBDE4 Copy CRC 3F1FBDE4 Accurately ripped (confidence 3) [F3F4AF45] (AR v2) Copy OK
Track 4
Filename E:\EAC Rips\2017-05 Mei\Various Artists - De Pre Historie 1986 (1992) [FLAC] {BMG 262.686}\04 - Simple Minds - Sanctify Yourself.wav
Peak level 87.8 % Extraction speed 4.1 X Track quality 99.9 % Test CRC 6F1C40D3 Copy CRC 6F1C40D3 Accurately ripped (confidence 3) [AB98738E] (AR v2) Copy OK
Track 5
Filename E:\EAC Rips\2017-05 Mei\Various Artists - De Pre Historie 1986 (1992) [FLAC] {BMG 262.686}\05 - The Human League - Human.wav
Peak level 75.1 % Extraction speed 5.2 X Track quality 100.0 % Test CRC 3E2A23B9 Copy CRC 3E2A23B9 Accurately ripped (confidence 3) [4788A91D] (AR v2) Copy OK
Track 6
Filename E:\EAC Rips\2017-05 Mei\Various Artists - De Pre Historie 1986 (1992) [FLAC] {BMG 262.686}\06 - Gino Vannelli - Hurts To Be In Love.wav
Peak level 88.0 % Extraction speed 5.4 X Track quality 100.0 % Test CRC 6472BD6A Copy CRC 6472BD6A Accurately ripped (confidence 3) [26DBFA12] (AR v2) Copy OK
Track 7
Filename E:\EAC Rips\2017-05 Mei\Various Artists - De Pre Historie 1986 (1992) [FLAC] {BMG 262.686}\07 - Nick Kamen - Each Time You Break My Heart.wav
Peak level 98.6 % Extraction speed 5.8 X Track quality 100.0 % Test CRC D2A8C00D Copy CRC D2A8C00D Accurately ripped (confidence 3) [E91EBD1B] (AR v2) Copy OK
Track 8
Filename E:\EAC Rips\2017-05 Mei\Various Artists - De Pre Historie 1986 (1992) [FLAC] {BMG 262.686}\08 - Bananarama - Venus.wav
Peak level 99.2 % Extraction speed 4.8 X Track quality 99.9 % Test CRC 758C955A Copy CRC 758C955A Accurately ripped (confidence 3) [6611C906] (AR v2) Copy OK
Track 9
Filename E:\EAC Rips\2017-05 Mei\Various Artists - De Pre Historie 1986 (1992) [FLAC] {BMG 262.686}\09 - Matia Bazar - Ti Sento.wav
Peak level 98.5 % Extraction speed 5.1 X Track quality 99.9 % Test CRC 31A3AD45 Copy CRC 31A3AD45 Accurately ripped (confidence 3) [7015D38A] (AR v2) Copy OK
Track 10
Filename E:\EAC Rips\2017-05 Mei\Various Artists - De Pre Historie 1986 (1992) [FLAC] {BMG 262.686}\10 - Two Man Sound - Disco Samba.wav
Peak level 99.2 % Extraction speed 6.6 X Track quality 100.0 % Test CRC 28468E2A Copy CRC 28468E2A Accurately ripped (confidence 3) [0450934B] (AR v2) Copy OK
Track 11
Filename E:\EAC Rips\2017-05 Mei\Various Artists - De Pre Historie 1986 (1992) [FLAC] {BMG 262.686}\11 - Sandra - In The Heat Of The Night.wav
Peak level 99.2 % Extraction speed 6.9 X Track quality 100.0 % Test CRC 7C7427B7 Copy CRC 7C7427B7 Accurately ripped (confidence 3) [9CBB49D1] (AR v2) Copy OK
Track 12
Filename E:\EAC Rips\2017-05 Mei\Various Artists - De Pre Historie 1986 (1992) [FLAC] {BMG 262.686}\12 - Culture Club - Move Away.wav
Peak level 99.2 % Extraction speed 6.9 X Track quality 100.0 % Test CRC B3D5425B Copy CRC B3D5425B Accurately ripped (confidence 3) [544586C8] (AR v2) Copy OK
Track 13
Filename E:\EAC Rips\2017-05 Mei\Various Artists - De Pre Historie 1986 (1992) [FLAC] {BMG 262.686}\13 - Jermaine Stewart - We Don't Have To Take Our Clothes Off.wav
Peak level 99.2 % Extraction speed 7.3 X Track quality 100.0 % Test CRC AE88DEF3 Copy CRC AE88DEF3 Accurately ripped (confidence 3) [9D51FA02] (AR v2) Copy OK
Track 14
Filename E:\EAC Rips\2017-05 Mei\Various Artists - De Pre Historie 1986 (1992) [FLAC] {BMG 262.686}\14 - Starship - We Built This City.wav
Peak level 99.2 % Extraction speed 6.3 X Track quality 99.9 % Test CRC 388AFCD6 Copy CRC 388AFCD6 Accurately ripped (confidence 3) [586FCF2D] (AR v2) Copy OK
Track 15
Filename E:\EAC Rips\2017-05 Mei\Various Artists - De Pre Historie 1986 (1992) [FLAC] {BMG 262.686}\15 - Level 42 - Lessons In Love.wav
Peak level 99.2 % Extraction speed 7.5 X Track quality 100.0 % Test CRC AC8248B8 Copy CRC AC8248B8 Accurately ripped (confidence 3) [475D8625] (AR v2) Copy OK
Track 16
Filename E:\EAC Rips\2017-05 Mei\Various Artists - De Pre Historie 1986 (1992) [FLAC] {BMG 262.686}\16 - The Pretenders - Don't Get Me Wrong.wav
Peak level 90.6 % Extraction speed 7.8 X Track quality 100.0 % Test CRC B538E342 Copy CRC B538E342 Accurately ripped (confidence 3) [C1262F3B] (AR v2) Copy OK
Track 17
Filename E:\EAC Rips\2017-05 Mei\Various Artists - De Pre Historie 1986 (1992) [FLAC] {BMG 262.686}\17 - Peter Gabriel - Sledgegammer.wav
Peak level 82.4 % Extraction speed 4.4 X Track quality 99.8 % Test CRC 30DAEEFA Copy CRC 30DAEEFA Accurately ripped (confidence 3) [36A28A42] (AR v2) Copy OK
All tracks accurately ripped
No errors occurred
End of status report
---- CUETools DB Plugin V2.1.6
[CTDB TOCID: 6Y_NKMXzYf0e81eGhqDAjnstR9w-] foundSubmit result: 6Y_NKMXzYf0e81eGhqDAjnstR9w- has been confirmedTrack | CTDB Status 1 | (13/14) Accurately ripped 2 | (13/14) Accurately ripped 3 | (12/14) Accurately ripped 4 | (13/14) Accurately ripped 5 | (13/14) Accurately ripped 6 | (13/14) Accurately ripped 7 | (13/14) Accurately ripped 8 | (12/14) Accurately ripped 9 | (13/14) Accurately ripped 10 | (13/14) Accurately ripped 11 | (12/14) Accurately ripped 12 | (13/14) Accurately ripped 13 | (12/14) Accurately ripped 14 | (12/14) Accurately ripped 15 | (12/14) Accurately ripped 16 | (11/14) Accurately ripped, or (1/14) differs in 27 samples @00:44:50,00:44:61,01:22:58 17 | (10/14) Accurately ripped
==== Log checksum 0801CF63D0AA389D0B642F9F5AF730731C5E2C10BFBCCFE0BDFDEFA7DC8265E8 ====

Содержание индексной карты (.CUE)

REM DATE 1992REM DISCID EC112411REM COMMENT "ExactAudioCopy v1.3"PERFORMER "Various Artists"TITLE "De Pre Historie 1986"REM COMPOSER ""FILE "01 - Fine Young Cannibals - Suspicious Minds.wav" WAVE  TRACK 01 AUDIO    TITLE "Suspicious Minds"    PERFORMER "Fine Young Cannibals"    REM COMPOSER ""    PREGAP 00:00:32    INDEX 01 00:00:00FILE "02 - The Communards - Don't Leave Me This Way.wav" WAVE  TRACK 02 AUDIO    TITLE "Don't Leave Me This Way"    PERFORMER "The Communards"    REM COMPOSER ""    INDEX 01 00:00:00FILE "03 - Eurythmics - When Tomorrow Comes.wav" WAVE  TRACK 03 AUDIO    TITLE "When Tomorrow Comes"    PERFORMER "Eurythmics"    REM COMPOSER ""    INDEX 01 00:00:00FILE "04 - Simple Minds - Sanctify Yourself.wav" WAVE  TRACK 04 AUDIO    TITLE "Sanctify Yourself"    PERFORMER "Simple Minds"    REM COMPOSER ""    INDEX 01 00:00:00FILE "05 - The Human League - Human.wav" WAVE  TRACK 05 AUDIO    TITLE "Human"    PERFORMER "The Human League"    REM COMPOSER ""    INDEX 01 00:00:00FILE "06 - Gino Vannelli - Hurts To Be In Love.wav" WAVE  TRACK 06 AUDIO    TITLE "Hurts To Be In Love"    PERFORMER "Gino Vannelli"    REM COMPOSER ""    INDEX 01 00:00:00FILE "07 - Nick Kamen - Each Time You Break My Heart.wav" WAVE  TRACK 07 AUDIO    TITLE "Each Time You Break My Heart"    PERFORMER "Nick Kamen"    REM COMPOSER ""    INDEX 01 00:00:00FILE "08 - Bananarama - Venus.wav" WAVE  TRACK 08 AUDIO    TITLE "Venus"    PERFORMER "Bananarama"    REM COMPOSER ""    INDEX 01 00:00:00FILE "09 - Matia Bazar - Ti Sento.wav" WAVE  TRACK 09 AUDIO    TITLE "Ti Sento"    PERFORMER "Matia Bazar"    REM COMPOSER ""    INDEX 01 00:00:00FILE "10 - Two Man Sound - Disco Samba.wav" WAVE  TRACK 10 AUDIO    TITLE "Disco Samba"    PERFORMER "Two Man Sound"    REM COMPOSER ""    INDEX 01 00:00:00FILE "11 - Sandra - In The Heat Of The Night.wav" WAVE  TRACK 11 AUDIO    TITLE "In The Heat Of The Night"    PERFORMER "Sandra"    REM COMPOSER ""    INDEX 01 00:00:00FILE "12 - Culture Club - Move Away.wav" WAVE  TRACK 12 AUDIO    TITLE "Move Away"    PERFORMER "Culture Club"    REM COMPOSER ""    INDEX 01 00:00:00FILE "13 - Jermaine Stewart - We Don't Have To Take Our Clothes Off.wav" WAVE  TRACK 13 AUDIO    TITLE "We Don't Have To Take Our Clothes Off"    PERFORMER "Jermaine Stewart"    REM COMPOSER ""    INDEX 01 00:00:00FILE "14 - Starship - We Built This City.wav" WAVE  TRACK 14 AUDIO    TITLE "We Built This City"    PERFORMER "Starship"    REM COMPOSER ""    INDEX 01 00:00:00FILE "15 - Level 42 - Lessons In Love.wav" WAVE  TRACK 15 AUDIO    TITLE "Lessons In Love"    PERFORMER "Level 42"    REM COMPOSER ""    INDEX 01 00:00:00FILE "16 - The Pretenders - Don't Get Me Wrong.wav" WAVE  TRACK 16 AUDIO    TITLE "Don't Get Me Wrong"    PERFORMER "The Pretenders"    REM COMPOSER ""    INDEX 01 00:00:00FILE "17 - Peter Gabriel - Sledgehammer.wav" WAVE  TRACK 17 AUDIO    TITLE "Sledgehammer"    PERFORMER "Peter Gabriel"    REM COMPOSER ""    INDEX 01 00:00:00

AccurateRip

[CUETools log; Date: 21.10.2018 14:21:09; Version: 2.1.5]Pregap length 00:00:32.[CTDB TOCID: 6Y_NKMXzYf0e81eGhqDAjnstR9w-] found.Track | CTDB Status  1   | (24/25) Accurately ripped  2   | (24/25) Accurately ripped  3   | (23/25) Accurately ripped  4   | (24/25) Accurately ripped  5   | (24/25) Accurately ripped  6   | (24/25) Accurately ripped  7   | (24/25) Accurately ripped  8   | (23/25) Accurately ripped  9   | (24/25) Accurately ripped 10   | (24/25) Accurately ripped 11   | (23/25) Accurately ripped 12   | (24/25) Accurately ripped 13   | (23/25) Accurately ripped 14   | (23/25) Accurately ripped 15   | (23/25) Accurately ripped 16   | (22/25) Accurately ripped 17   | (20/25) Accurately ripped[AccurateRip ID: 002c24e5-02324bd1-ec112411] found.Track   [  CRC   |   V2   ] Status 01     [59fa94de|f6ae303a] (08+07/15) Accurately ripped 02     [110642ab|de5bbc3f] (08+07/15) Accurately ripped 03     [dab7ed3a|f3f4af45] (08+07/15) Accurately ripped 04     [c464f1ec|ab98738e] (08+07/15) Accurately ripped 05     [b9c8e972|4788a91d] (08+07/15) Accurately ripped 06     [635356f4|26dbfa12] (08+07/15) Accurately ripped 07     [b6344305|e91ebd1b] (07+07/14) Accurately ripped 08     [e92ebfe5|6611c906] (07+07/14) Accurately ripped 09     [3ebb5455|7015d38a] (07+07/14) Accurately ripped 10     [c16fce76|0450934b] (07+07/14) Accurately ripped 11     [48a90bbe|9cbb49d1] (07+07/14) Accurately ripped 12     [f460f318|544586c8] (07+07/14) Accurately ripped 13     [e2463ef7|9d51fa02] (06+07/13) Accurately ripped 14     [78942d1a|586fcf2d] (07+07/14) Accurately ripped 15     [b1b421b0|475d8625] (07+07/14) Accurately ripped 16     [ca9370c0|c1262f3b] (06+07/13) Accurately ripped 17     [a69af849|36a28a42] (04+07/11) Accurately ripped
Track Peak [ CRC32 ] [W/O NULL] [ LOG ] -- 99,2 [DE519095] [45143DE3] 01 99,2 [3012C349] [47C37191] CRC32 02 92,1 [F41EE654] [A7113300] CRC32 03 96,3 [3F1FBDE4] [592835C5] CRC32 04 87,8 [6F1C40D3] [075FD06A] CRC32 05 75,1 [3E2A23B9] [42251C87] CRC32 06 88,0 [6472BD6A] [DBB491E7] CRC32 07 98,6 [D2A8C00D] [E672CACB] CRC32 08 99,2 [758C955A] [DB303626] CRC32 09 98,5 [31A3AD45] [9900851E] CRC32 10 99,2 [28468E2A] [D0BE43E6] CRC32 11 99,2 [7C7427B7] [F6FFC1C0] CRC32 12 99,2 [B3D5425B] [09D959BC] CRC32 13 99,2 [AE88DEF3] [86DDB9C1] CRC32 14 99,2 [388AFCD6] [151700D9] CRC32 15 99,2 [AC8248B8] [6B45A0F0] CRC32 16 90,6 [B538E342] [BA13366C] CRC32 17 82,4 [30DAEEFA] [8309D7F2] CRC32
Вы не можете начинать темы
Вы не можете отвечать на сообщения
Вы не можете редактировать свои сообщения
Вы не можете удалять свои сообщения
Вы не можете голосовать в опросах
Вы не можете прикреплять файлы к сообщениям
Вы можете скачивать файлы
!ВНИМАНИЕ!

Сайт не предоставляет электронные версии произведений, а занимается лишь коллекционированием и каталогизацией ссылок, присылаемых и публикуемых на форуме нашими читателями. Если вы являетесь правообладателем какого-либо представленного материала и не желаете, чтобы ссылка на него находилась в нашем каталоге, свяжитесь с нами, и мы незамедлительно удалим ее. Файлы для обмена на трекере предоставлены пользователями сайта, и администрация не несет ответственности за их содержание. Просьба не заливать файлы, защищенные авторскими правами, а также файлы нелегального содержания!

Искали программы, игры, дополнения, музыка mp3, аниме, аудио книги, журналы? Добро пожаловать на свободный торрент трекер Torrents, у нас можно скачать бесплатно, без смс и регистрации и прочих ограничений лучшие, отборные сборки программ, игр. Скачать торрентом не составит труда даже не опытному пользователю. Раздачи ежедневно обновляются, только лучшие и качественные раздачи, подробные описания и скриншоты. Огромная коллекция программ для работы со звуком, графикой, дизайном, а так же множество плагинов и инструментов к ним с подробной инструкцией и рекомендациями. Прошивки для навигаторов, карты. Разнообразные игры, для Windows, Linux. В коллекцие есть и старые игры любых жанров, Rpg, Action, Shooter, strategy Множество дополнений, модификаций, сценариев для популярных игр в жанре экш, рпг, гонки, стратегии, логические игры. Множество аддонов и сценариев для Microsoft Flight Simulator Большая коллекция книг, учебников. Если нет возможности купить печатное издание - смело скачивайте цифровую версию книги или, быть может, журнала. Не любите читать - можно загрузить бесплатно аудикнигу. Для веб дизайнеров и программистов так же найдется множество специализированного софта, таких как: редакторы с подсветкой, среды программирования, компоненты, системы управления базами данных, разнообразные скрипты и шаблоны. Не так давно у нас появился материал для автолюбителей и владельцев мото - оригинальные и неоригинальные каталоги запчастей, книги и журналы по ремонту и обслуживанию, видеоуроки, статьи по чип тюнингу, прошивкам. Процедура получения контента элементарная, достаточно просто скачать торрент файл и добавить его в загрузку в вашем торрент клиенте. Если у вас нет специального торрент клиента, вы можете его скачать у нас.

Güterwagen. 4W. Eckrand(1). Ukraine 2013 | HD 24 Hours to Live | Chap 192