(Psychedelic Rock / Garage Rock / Pop) [CD] VA - Cambodian Rocks Volume II - 2005, FLAC (tracks+.cue), lossless 

Цитировать
Various Artists / Cambodian Rocks Volume II
Жанр: Psychedelic Rock / Garage Rock / Pop
Носитель: CD
Страна-производитель диска: United States
Год издания: 1960s/1970s (2005)
Издатель (лейбл): Khmer Rocks
Номер по каталогу: SU1023340
Страна исполнителей: Cambodia
Аудиокодек: FLAC (*.flac)
Тип рипа: tracks+.cue
Битрейт аудио: lossless
Продолжительность: 57:10
Источник: собственный рип
Наличие сканов в содержимом раздачи: да
Треклист:
1. Sinn Sisamouth - Nov Thai Songkem (Always Will Hope) 3:31
2. Ros Sereysothea - Bar Bong Srawlaunh Kyoum (If You Wish to Love Me) 2:49
3. Sinn Sisamouth - 72 Neary Samai (Woman of '72) 2:43
4. Pan Ron - Prouh Ya Ya (Ya Ya Men) 3:46
5. Sinn Sisamouth - Sronos Dai Thnorm (Tender Hands) 3:10
6. Yol Aularong - Gomloh Eth Prouy (Worry Free Bachelor) 3:43
7. Sinn Sisamouth - Jun Bompleah Kyoum (Waiting for Moon) 2:55
8. Ros Sereysothea - Chhnam Oun 16 (Sweet Sixteen) 3:59
9. Sinn Sisamouth - Songsa Somlaunh Jet (Beloved Girlfriend) 3:25
10. Leiu Thaert - Rom Sue Sue (Dance Soul) 3:33
11. Sinn Sisamouth - Brot Snae Somnop Jet (Apart From Love) 4:26
12. Pan Ron - Sva Rom Monkey (Monkey Dancing Monkey) 2:35
13. Yol Aularong - Srey Srey Alov (I Love Women) 3:27
14. Ros Sereysothea - Rom Jonvak Wooly Wooly (Wolly Polly) 2:57
15. Leiu Thaert - Srey Nung Kergh Tha (Do You Remember) 3:44
16. Ros Sereysothea - Cut Soag Dai Auk (Haircut) 3:14
17. Sinn Sisamouth - Reatrey Sronoh Pleang (Rainy Night) 3:13

Лог создания рипа

Exact Audio Copy V1.0 beta 1 from 15. November 2010
EAC extraction logfile from 10. October 2012, 23:49
Various Artists / Cambodian Rocks Volume II
Used drive : Optiarc DVD RW AD-7240S Adapter: 2 ID: 1
Read mode : SecureUtilize accurate stream : YesDefeat audio cache : YesMake use of C2 pointers : No
Read offset correction : 48Overread into Lead-In and Lead-Out : NoFill up missing offset samples with silence : YesDelete leading and trailing silent blocks : NoNull samples used in CRC calculations : YesUsed interface : Native Win32 interface for Win NT & 2000Gap handling : Appended to previous track
Used output format : User Defined EncoderSelected bitrate : 32 kBit/sQuality : HighAdd ID3 tag : NoCommand line compressor : C:\Program Files (x86)\Exact Audio Copy New\FLAC\FLAC.EXEAdditional command line options : -8 -V -T "ARTIST=%a" -T "TITLE=%t" -T "ALBUM=%g" -T "DATE=%y" -T "TRACKNUMBER=%n" -T "GENRE=%m" -T "COMMENT=EAC" %s
TOC of the extracted CD
Track | Start | Length | Start sector | End sector --------------------------------------------------------- 1 | 0:00.00 | 3:31.30 | 0 | 15854 2 | 3:31.30 | 2:48.40 | 15855 | 28494 3 | 6:19.70 | 2:42.63 | 28495 | 40707 4 | 9:02.58 | 3:45.42 | 40708 | 57624 5 | 12:48.25 | 3:09.68 | 57625 | 71867 6 | 15:58.18 | 3:43.29 | 71868 | 88621 7 | 19:41.47 | 2:55.03 | 88622 | 101749 8 | 22:36.50 | 3:58.72 | 101750 | 119671 9 | 26:35.47 | 3:25.00 | 119672 | 135046 10 | 30:00.47 | 3:33.17 | 135047 | 151038 11 | 33:33.64 | 4:26.10 | 151039 | 170998 12 | 37:59.74 | 2:35.24 | 170999 | 182647 13 | 40:35.23 | 3:27.03 | 182648 | 198175 14 | 44:02.26 | 2:56.65 | 198176 | 211440 15 | 46:59.16 | 3:44.19 | 211441 | 228259 16 | 50:43.35 | 3:13.66 | 228260 | 242800 17 | 53:57.26 | 3:13.03 | 242801 | 257278
Track 1
Filename C:\Lossless\Various Artists - Cambodian Rocks Volume II (2005) [FLAC] {Khmer Rocks SU1023340}\01 - Sinn Sisamouth - Nov Thai Songkem.wav
Pre-gap length 0:00:02.00
Peak level 100.0 % Extraction speed 2.2 X Track quality 100.0 % Test CRC 3673B25C Copy CRC 3673B25C Track not present in AccurateRip database Copy OK
Track 2
Filename C:\Lossless\Various Artists - Cambodian Rocks Volume II (2005) [FLAC] {Khmer Rocks SU1023340}\02 - Ros Sereysothea - Bar Bong Srawlaunh Kyoum.wav
Peak level 100.0 % Extraction speed 2.3 X Track quality 100.0 % Test CRC 7F6F5774 Copy CRC 7F6F5774 Track not present in AccurateRip database Copy OK
Track 3
Filename C:\Lossless\Various Artists - Cambodian Rocks Volume II (2005) [FLAC] {Khmer Rocks SU1023340}\03 - Sinn Sisamouth - 72 Neary Samai.wav
Peak level 100.0 % Extraction speed 2.5 X Track quality 100.0 % Test CRC 16BE17D3 Copy CRC 16BE17D3 Track not present in AccurateRip database Copy OK
Track 4
Filename C:\Lossless\Various Artists - Cambodian Rocks Volume II (2005) [FLAC] {Khmer Rocks SU1023340}\04 - Pan Ron - Prouh Ya Ya.wav
Peak level 97.5 % Extraction speed 2.8 X Track quality 100.0 % Test CRC 309C582C Copy CRC 309C582C Track not present in AccurateRip database Copy OK
Track 5
Filename C:\Lossless\Various Artists - Cambodian Rocks Volume II (2005) [FLAC] {Khmer Rocks SU1023340}\05 - Sinn Sisamouth - Sronos Dai Thnorm.wav
Peak level 100.0 % Extraction speed 2.5 X Track quality 99.9 % Test CRC EF2B8ABB Copy CRC EF2B8ABB Track not present in AccurateRip database Copy OK
Track 6
Filename C:\Lossless\Various Artists - Cambodian Rocks Volume II (2005) [FLAC] {Khmer Rocks SU1023340}\06 - Yol Aularong - Gomloh Eth Prouy.wav
Peak level 100.0 % Extraction speed 3.2 X Track quality 100.0 % Test CRC 5C95C584 Copy CRC 5C95C584 Track not present in AccurateRip database Copy OK
Track 7
Filename C:\Lossless\Various Artists - Cambodian Rocks Volume II (2005) [FLAC] {Khmer Rocks SU1023340}\07 - Sinn Sisamouth - Jun Bompleah Kyoum.wav
Peak level 100.0 % Extraction speed 3.2 X Track quality 100.0 % Test CRC 64B044C3 Copy CRC 64B044C3 Track not present in AccurateRip database Copy OK
Track 8
Filename C:\Lossless\Various Artists - Cambodian Rocks Volume II (2005) [FLAC] {Khmer Rocks SU1023340}\08 - Ros Sereysothea - Chhnam Oun 16.wav
Peak level 100.0 % Extraction speed 3.5 X Track quality 100.0 % Test CRC 3F1A0C5D Copy CRC 3F1A0C5D Track not present in AccurateRip database Copy OK
Track 9
Filename C:\Lossless\Various Artists - Cambodian Rocks Volume II (2005) [FLAC] {Khmer Rocks SU1023340}\09 - Sinn Sisamouth - Songsa Somlaunh Jet.wav
Peak level 100.0 % Extraction speed 3.6 X Track quality 100.0 % Test CRC CC36EDE5 Copy CRC CC36EDE5 Track not present in AccurateRip database Copy OK
Track 10
Filename C:\Lossless\Various Artists - Cambodian Rocks Volume II (2005) [FLAC] {Khmer Rocks SU1023340}\10 - Leiu Thaert - Rom Sue Sue.wav
Peak level 100.0 % Extraction speed 3.8 X Track quality 100.0 % Test CRC BC22B9F4 Copy CRC BC22B9F4 Track not present in AccurateRip database Copy OK
Track 11
Filename C:\Lossless\Various Artists - Cambodian Rocks Volume II (2005) [FLAC] {Khmer Rocks SU1023340}\11 - Sinn Sisamouth - Brot Snae Somnop Jet.wav
Peak level 100.0 % Extraction speed 4.1 X Track quality 100.0 % Test CRC 66030BD2 Copy CRC 66030BD2 Track not present in AccurateRip database Copy OK
Track 12
Filename C:\Lossless\Various Artists - Cambodian Rocks Volume II (2005) [FLAC] {Khmer Rocks SU1023340}\12 - Pan Ron - Sva Rom Monkey.wav
Peak level 100.0 % Extraction speed 3.8 X Track quality 100.0 % Test CRC C867D637 Copy CRC C867D637 Track not present in AccurateRip database Copy OK
Track 13
Filename C:\Lossless\Various Artists - Cambodian Rocks Volume II (2005) [FLAC] {Khmer Rocks SU1023340}\13 - Yol Aularong - Srey Srey Alov.wav
Peak level 100.0 % Extraction speed 4.2 X Track quality 100.0 % Test CRC AB050031 Copy CRC AB050031 Track not present in AccurateRip database Copy OK
Track 14
Filename C:\Lossless\Various Artists - Cambodian Rocks Volume II (2005) [FLAC] {Khmer Rocks SU1023340}\14 - Ros Sereysothea - Rom Jonvak Wooly Wooly.wav
Peak level 100.0 % Extraction speed 4.1 X Track quality 100.0 % Test CRC 04C8C25C Copy CRC 04C8C25C Track not present in AccurateRip database Copy OK
Track 15
Filename C:\Lossless\Various Artists - Cambodian Rocks Volume II (2005) [FLAC] {Khmer Rocks SU1023340}\15 - Leiu Thaert - Srey Nung Kergh Tha.wav
Peak level 100.0 % Extraction speed 4.4 X Track quality 100.0 % Test CRC 4EA94569 Copy CRC 4EA94569 Track not present in AccurateRip database Copy OK
Track 16
Filename C:\Lossless\Various Artists - Cambodian Rocks Volume II (2005) [FLAC] {Khmer Rocks SU1023340}\16 - Ros Sereysothea - Cut Soag Dai Auk.wav
Peak level 100.0 % Extraction speed 4.4 X Track quality 100.0 % Test CRC 695F753B Copy CRC 695F753B Track not present in AccurateRip database Copy OK
Track 17
Filename C:\Lossless\Various Artists - Cambodian Rocks Volume II (2005) [FLAC] {Khmer Rocks SU1023340}\17 - Sinn Sisamouth - Reatrey Sronoh Pleang.wav
Peak level 61.1 % Extraction speed 4.5 X Track quality 100.0 % Test CRC 9A4480FC Copy CRC 9A4480FC Track not present in AccurateRip database Copy OK
None of the tracks are present in the AccurateRip database
No errors occurred
End of status report
==== Log checksum 24D19AAE05784B72C06C64720B2413F56DC23D7F4CE7DB39DB6B6F790D31A53D ====

Содержание индексной карты (.CUE)

REM GENRE "Psychedelic Rock / Garage Rock / Pop"REM DATE 2005REM DISCID DC0D6611REM COMMENT "ExactAudioCopy v1.0b1"PERFORMER "Various Artists"TITLE "Cambodian Rocks Volume II"FILE "01 - Sinn Sisamouth - Nov Thai Songkem.wav" WAVE  TRACK 01 AUDIO    TITLE "Nov Thai Songkem (Always Will Hope)"    PERFORMER "Sinn Sisamouth"    INDEX 01 00:00:00FILE "02 - Ros Sereysothea - Bar Bong Srawlaunh Kyoum.wav" WAVE  TRACK 02 AUDIO    TITLE "Bar Bong Srawlaunh Kyoum (If You Wish to Love Me)"    PERFORMER "Ros Sereysothea"    INDEX 01 00:00:00FILE "03 - Sinn Sisamouth - 72 Neary Samai.wav" WAVE  TRACK 03 AUDIO    TITLE "72 Neary Samai (Woman of '72)"    PERFORMER "Sinn Sisamouth"    INDEX 01 00:00:00FILE "04 - Pan Ron - Prouh Ya Ya.wav" WAVE  TRACK 04 AUDIO    TITLE "Prouh Ya Ya (Ya Ya Men)"    PERFORMER "Pan Ron"    INDEX 01 00:00:00FILE "05 - Sinn Sisamouth - Sronos Dai Thnorm.wav" WAVE  TRACK 05 AUDIO    TITLE "Sronos Dai Thnorm (Tender Hands)"    PERFORMER "Sinn Sisamouth"    INDEX 01 00:00:00FILE "06 - Yol Aularong - Gomloh Eth Prouy.wav" WAVE  TRACK 06 AUDIO    TITLE "Gomloh Eth Prouy (Worry Free Bachelor)"    PERFORMER "Yol Aularong"    INDEX 01 00:00:00FILE "07 - Sinn Sisamouth - Jun Bompleah Kyoum.wav" WAVE  TRACK 07 AUDIO    TITLE "Jun Bompleah Kyoum (Waiting for Moon)"    PERFORMER "Sinn Sisamouth"    INDEX 01 00:00:00FILE "08 - Ros Sereysothea - Chhnam Oun 16.wav" WAVE  TRACK 08 AUDIO    TITLE "Chhnam Oun 16 (Sweet Sixteen)"    PERFORMER "Ros Sereysothea"    INDEX 01 00:00:00FILE "09 - Sinn Sisamouth - Songsa Somlaunh Jet.wav" WAVE  TRACK 09 AUDIO    TITLE "Songsa Somlaunh Jet (Beloved Girlfriend)"    PERFORMER "Sinn Sisamouth"    INDEX 01 00:00:00FILE "10 - Leiu Thaert - Rom Sue Sue.wav" WAVE  TRACK 10 AUDIO    TITLE "Rom Sue Sue (Dance Soul)"    PERFORMER "Leiu Thaert"    INDEX 01 00:00:00FILE "11 - Sinn Sisamouth - Brot Snae Somnop Jet.wav" WAVE  TRACK 11 AUDIO    TITLE "Brot Snae Somnop Jet (Apart From Love)"    PERFORMER "Sinn Sisamouth"    INDEX 01 00:00:00FILE "12 - Pan Ron - Sva Rom Monkey.wav" WAVE  TRACK 12 AUDIO    TITLE "Sva Rom Monkey (Monkey Dancing Monkey)"    PERFORMER "Pan Ron"    INDEX 01 00:00:00FILE "13 - Yol Aularong - Srey Srey Alov.wav" WAVE  TRACK 13 AUDIO    TITLE "Srey Srey Alov (I Love Women)"    PERFORMER "Yol Aularong"    INDEX 01 00:00:00FILE "14 - Ros Sereysothea - Rom Jonvak Wooly Wooly.wav" WAVE  TRACK 14 AUDIO    TITLE "Rom Jonvak Wooly Wooly (Wolly Polly)"    PERFORMER "Ros Sereysothea"    INDEX 01 00:00:00FILE "15 - Leiu Thaert - Srey Nung Kergh Tha.wav" WAVE  TRACK 15 AUDIO    TITLE "Srey Nung Kergh Tha (Do You Remember)"    PERFORMER "Leiu Thaert"    INDEX 01 00:00:00FILE "16 - Ros Sereysothea - Cut Soag Dai Auk.wav" WAVE  TRACK 16 AUDIO    TITLE "Cut Soag Dai Auk (Haircut)"    PERFORMER "Ros Sereysothea"    INDEX 01 00:00:00FILE "17 - Sinn Sisamouth - Reatrey Sronoh Pleang.wav" WAVE  TRACK 17 AUDIO    TITLE "Reatrey Sronoh Pleang (Rainy Night)"    PERFORMER "Sinn Sisamouth"    INDEX 01 00:00:00

О сборнике

Like volume one of Khmer Rocks' Cambodian Rocks series, this assembles 17 Cambodian pop/rock tracks from approximately the mid-'60s to the early '70s, exact details being scant as the Khmer Rouge wiped out this kind of entertainment (along with much else in Cambodia) shortly afterward. While it's quite similar to the first volume in its unusual combinations of Western psychedelia, garage rock, soul, and bubblegum with more Cambodian forms of pop, melody, and vocal delivery, it's by no means redundant. The quality of the material's just as consistent (if just as lo-fi in both recording quality and the grade of instruments used), and most every track is an adventure into what most rock listeners will find odd and occasionally thrilling sonic territory, even if it no doubt sounded far more normal to Cambodian listeners of the era. There are adaptations of English-language smashes like "Hey Jude", "Wooly Bully", "Never My Love", "A Whiter Shade of Pale", and "San Francisco", but it's the more numerous, unfamiliar tunes that stand out more, particularly for their emotionally melodramatic (and, when sung by women, very high-pitched) vocals; mega-tinny organ sounds and crude, almost homemade-seeming psychedelic effects; feverish rock guitar, played with as much dash and energy as many an American or British psych-rock act; and some quite catchy pop melodies, some of which are almost sinister in nature (as a spin of Ros Sereysothea's "If You Wish to Love Me" demonstrates). Pan Ron's "Hippie Men" almost blends ska and African pop brass together, and many of the tunes are eerie in a way that Western bands might have been hard-pressed to duplicate, even though these tracks no doubt partially came about from Cambodian musicians trying to replicate overseas rock trends. As with volume one of this series, there's little in the way of liner notes, but English translations of the lyrics are provided.
allmusic.com (by Richie Unterberger)

Состав

Sinn Sisamouth
Ros Sereysothea
Pan Ron
Yol Aularong
Leiu Thaert
Вы не можете начинать темы
Вы не можете отвечать на сообщения
Вы не можете редактировать свои сообщения
Вы не можете удалять свои сообщения
Вы не можете голосовать в опросах
Вы не можете прикреплять файлы к сообщениям
Вы можете скачивать файлы
!ВНИМАНИЕ!

Сайт не предоставляет электронные версии произведений, а занимается лишь коллекционированием и каталогизацией ссылок, присылаемых и публикуемых на форуме нашими читателями. Если вы являетесь правообладателем какого-либо представленного материала и не желаете, чтобы ссылка на него находилась в нашем каталоге, свяжитесь с нами, и мы незамедлительно удалим ее. Файлы для обмена на трекере предоставлены пользователями сайта, и администрация не несет ответственности за их содержание. Просьба не заливать файлы, защищенные авторскими правами, а также файлы нелегального содержания!

Искали программы, игры, дополнения, музыка mp3, аниме, аудио книги, журналы? Добро пожаловать на свободный торрент трекер Torrents, у нас можно скачать бесплатно, без смс и регистрации и прочих ограничений лучшие, отборные сборки программ, игр. Скачать торрентом не составит труда даже не опытному пользователю. Раздачи ежедневно обновляются, только лучшие и качественные раздачи, подробные описания и скриншоты. Огромная коллекция программ для работы со звуком, графикой, дизайном, а так же множество плагинов и инструментов к ним с подробной инструкцией и рекомендациями. Прошивки для навигаторов, карты. Разнообразные игры, для Windows, Linux. В коллекцие есть и старые игры любых жанров, Rpg, Action, Shooter, strategy Множество дополнений, модификаций, сценариев для популярных игр в жанре экш, рпг, гонки, стратегии, логические игры. Множество аддонов и сценариев для Microsoft Flight Simulator Большая коллекция книг, учебников. Если нет возможности купить печатное издание - смело скачивайте цифровую версию книги или, быть может, журнала. Не любите читать - можно загрузить бесплатно аудикнигу. Для веб дизайнеров и программистов так же найдется множество специализированного софта, таких как: редакторы с подсветкой, среды программирования, компоненты, системы управления базами данных, разнообразные скрипты и шаблоны. Не так давно у нас появился материал для автолюбителей и владельцев мото - оригинальные и неоригинальные каталоги запчастей, книги и журналы по ремонту и обслуживанию, видеоуроки, статьи по чип тюнингу, прошивкам. Процедура получения контента элементарная, достаточно просто скачать торрент файл и добавить его в загрузку в вашем торрент клиенте. Если у вас нет специального торрент клиента, вы можете его скачать у нас.

Psy-Changeling series | Prawo ulicy (The Wire) | One Of Us (3)