(Various) [CD] VA - De Pre Historie 1985 [EMI/Virgin, 262.685, Belgium] - 1992, FLAC (tracks+.cue), lossless 

Цитировать
De Pre Historie 1985
Жанр: Various
Носитель: CD
Страна-производитель диска (релиза): Belgium
Год издания: 1992
Издатель (лейбл): EMI/Virgin
Номер по каталогу: 262.685
Аудиокодек: FLAC (*.flac)
Тип рипа: tracks+.cue
Битрейт аудио: lossless
Продолжительность: 01:14:27
Источник (релизер): From RED
Наличие сканов в содержимом раздачи: нет

Треклист:
01. Double – The Captain Of Her Heart
02. Chris Rea – Josephine
03. Kate Bush – Running Up That Hil
04. Feargal Sharkey – A Good Heart
05. Simple Minds – Alive And Kicking
06. Tina Turner – We Don't Need Another Hero
07. Ashford & Simpson – Solid
08. Grace Jones – Slave To The Rhythm
09. Jermaine Jackson & Pia Zadora – When The Rain Begins To Fall
10. Murray Head – One Night In Bangkok
11. Huey Lewis & The News – The Power Of Love
12. UB40 & Chrissie Hynde – I Got You Babe
13. Whitney Houston – All At Once
14. Bryan Ferry – Don't Stop The Dance
15. Sade – The Sweetest Taboo
16. The Cars – Drive
17. Phil Collins – One More Night

Лог создания рипа

Exact Audio Copy V1.3 from 2. September 2016
EAC extraction logfile from 21. May 2017, 11:02
Various Artists / De Pre Historie 1985
Used drive : ATAPI iHAS124 F Adapter: 1 ID: 1
Read mode : SecureUtilize accurate stream : YesDefeat audio cache : YesMake use of C2 pointers : No
Read offset correction : 6Overread into Lead-In and Lead-Out : NoFill up missing offset samples with silence : YesDelete leading and trailing silent blocks : NoNull samples used in CRC calculations : YesUsed interface : Native Win32 interface for Win NT & 2000Gap handling : Appended to previous track
Used output format : User Defined EncoderSelected bitrate : 1024 kBit/sQuality : HighAdd ID3 tag : NoCommand line compressor : C:\cmd.exeAdditional command line options : /c ""C:\F\CUETools.FLACCL.cmd.exe" -8 --verify %source% -o %dest% & "C:\M\metaflac.exe" --set-tag="ARTIST=%artist%" --set-tag="TITLE=%title%" --set-tag="ALBUM=%albumtitle%" --set-tag="DATE=%year%" --set-tag="TRACKNUMBER=%tracknr%" --set-tag="GENRE=%genre%" --set-tag="COMPOSER=%composer%" --set-tag="ALBUMARTIST=%albumartist%" %dest%"
TOC of the extracted CD
Track | Start | Length | Start sector | End sector --------------------------------------------------------- 1 | 0:00.32 | 3:59.53 | 32 | 18009 2 | 4:00.10 | 4:26.67 | 18010 | 38026 3 | 8:27.02 | 4:58.15 | 38027 | 60391 4 | 13:25.17 | 4:39.65 | 60392 | 81381 5 | 18:05.07 | 5:26.48 | 81382 | 105879 6 | 23:31.55 | 4:16.10 | 105880 | 125089 7 | 27:47.65 | 5:08.52 | 125090 | 148241 8 | 32:56.42 | 4:23.03 | 148242 | 167969 9 | 37:19.45 | 4:05.65 | 167970 | 186409 10 | 41:25.35 | 3:54.55 | 186410 | 204014 11 | 45:20.15 | 3:53.20 | 204015 | 221509 12 | 49:13.35 | 3:07.72 | 221510 | 235606 13 | 52:21.32 | 4:26.60 | 235607 | 255616 14 | 56:48.17 | 4:22.03 | 255617 | 275269 15 | 61:10.20 | 4:35.62 | 275270 | 295956 16 | 65:46.07 | 3:54.25 | 295957 | 313531 17 | 69:40.32 | 4:48.00 | 313532 | 335131
Track 1
Filename E:\EAC Rips\2017-05 Mei\Various Artists - De Pre Historie 1985 (1992) [FLAC] {BMG 262.685}\01 - Double - The Captain Of Her Heart.wav
Pre-gap length 0:00:02.32
Peak level 84.9 % Extraction speed 5.1 X Track quality 99.9 % Test CRC 5D0DD758 Copy CRC 5D0DD758 Accurately ripped (confidence 9) [B1045F20] (AR v2) Copy OK
Track 2
Filename E:\EAC Rips\2017-05 Mei\Various Artists - De Pre Historie 1985 (1992) [FLAC] {BMG 262.685}\02 - Chris Rea - Josephine.wav
Pre-gap length 0:00:01.03
Peak level 99.2 % Extraction speed 5.7 X Track quality 99.9 % Test CRC 7EDC9782 Copy CRC 7EDC9782 Accurately ripped (confidence 9) [08B08364] (AR v2) Copy OK
Track 3
Filename E:\EAC Rips\2017-05 Mei\Various Artists - De Pre Historie 1985 (1992) [FLAC] {BMG 262.685}\03 - Kate Bush - Running Up That Hill.wav
Peak level 99.2 % Extraction speed 7.0 X Track quality 100.0 % Test CRC 6FBBBCF7 Copy CRC 6FBBBCF7 Accurately ripped (confidence 8) [0F9C0914] (AR v2) Copy OK
Track 4
Filename E:\EAC Rips\2017-05 Mei\Various Artists - De Pre Historie 1985 (1992) [FLAC] {BMG 262.685}\04 - Feargal Sharkey - A Good Heart.wav
Peak level 97.7 % Extraction speed 6.7 X Track quality 99.9 % Test CRC B895C024 Copy CRC B895C024 Accurately ripped (confidence 9) [E595013A] (AR v2) Copy OK
Track 5
Filename E:\EAC Rips\2017-05 Mei\Various Artists - De Pre Historie 1985 (1992) [FLAC] {BMG 262.685}\05 - Simple Minds - Alive And Kicking.wav
Peak level 98.6 % Extraction speed 7.3 X Track quality 99.9 % Test CRC 1DA19A9D Copy CRC 1DA19A9D Accurately ripped (confidence 9) [5A246CA2] (AR v2) Copy OK
Track 6
Filename E:\EAC Rips\2017-05 Mei\Various Artists - De Pre Historie 1985 (1992) [FLAC] {BMG 262.685}\06 - Tina Turner - We Don't Need Another Hero.wav
Peak level 87.2 % Extraction speed 8.2 X Track quality 100.0 % Test CRC 72FCCEC6 Copy CRC 72FCCEC6 Accurately ripped (confidence 9) [AE4CBDA5] (AR v2) Copy OK
Track 7
Filename E:\EAC Rips\2017-05 Mei\Various Artists - De Pre Historie 1985 (1992) [FLAC] {BMG 262.685}\07 - Ashford & Simpson - Solid.wav
Peak level 99.2 % Extraction speed 8.9 X Track quality 100.0 % Test CRC E5120A34 Copy CRC E5120A34 Accurately ripped (confidence 9) [36E701A0] (AR v2) Copy OK
Track 8
Filename E:\EAC Rips\2017-05 Mei\Various Artists - De Pre Historie 1985 (1992) [FLAC] {BMG 262.685}\08 - Grace Jones - Slave To The Rhythm.wav
Peak level 98.2 % Extraction speed 9.0 X Track quality 100.0 % Test CRC 4E65C2E1 Copy CRC 4E65C2E1 Accurately ripped (confidence 10) [BC061B77] (AR v2) Copy OK
Track 9
Filename E:\EAC Rips\2017-05 Mei\Various Artists - De Pre Historie 1985 (1992) [FLAC] {BMG 262.685}\09 - Jermaine Jackson & Pia Zadora - When The Rain Begins To Fall.wav
Peak level 99.2 % Extraction speed 9.3 X Track quality 100.0 % Test CRC B04255C0 Copy CRC B04255C0 Accurately ripped (confidence 9) [355729B8] (AR v2) Copy OK
Track 10
Filename E:\EAC Rips\2017-05 Mei\Various Artists - De Pre Historie 1985 (1992) [FLAC] {BMG 262.685}\10 - Murray Head - One Night In Bangkok.wav
Peak level 99.5 % Extraction speed 8.4 X Track quality 99.9 % Test CRC D6DD7331 Copy CRC D6DD7331 Accurately ripped (confidence 10) [5C2F3484] (AR v2) Copy OK
Track 11
Filename E:\EAC Rips\2017-05 Mei\Various Artists - De Pre Historie 1985 (1992) [FLAC] {BMG 262.685}\11 - Huey Lewis & The News - The Power Of Love.wav
Peak level 98.4 % Extraction speed 9.9 X Track quality 100.0 % Test CRC 5F38E3E2 Copy CRC 5F38E3E2 Accurately ripped (confidence 9) [46DADAB6] (AR v2) Copy OK
Track 12
Filename E:\EAC Rips\2017-05 Mei\Various Artists - De Pre Historie 1985 (1992) [FLAC] {BMG 262.685}\12 - UB40 - I Got You Babe.wav
Peak level 92.1 % Extraction speed 9.6 X Track quality 100.0 % Test CRC DF28FBAC Copy CRC DF28FBAC Accurately ripped (confidence 9) [EF7E9CF8] (AR v2) Copy OK
Track 13
Filename E:\EAC Rips\2017-05 Mei\Various Artists - De Pre Historie 1985 (1992) [FLAC] {BMG 262.685}\13 - Whitney Houston - All At Once.wav
Peak level 94.4 % Extraction speed 10.3 X Track quality 100.0 % Test CRC A782EE1E Copy CRC A782EE1E Accurately ripped (confidence 9) [CCF5045C] (AR v2) Copy OK
Track 14
Filename E:\EAC Rips\2017-05 Mei\Various Artists - De Pre Historie 1985 (1992) [FLAC] {BMG 262.685}\14 - Bryan Ferry - Don't Stop The Dance.wav
Peak level 99.2 % Extraction speed 10.6 X Track quality 100.0 % Test CRC 7B98E475 Copy CRC 7B98E475 Accurately ripped (confidence 9) [F4A1DCB3] (AR v2) Copy OK
Track 15
Filename E:\EAC Rips\2017-05 Mei\Various Artists - De Pre Historie 1985 (1992) [FLAC] {BMG 262.685}\15 - Sade - The Sweetest Taboo.wav
Peak level 91.3 % Extraction speed 10.9 X Track quality 100.0 % Test CRC 1C7D163A Copy CRC 1C7D163A Accurately ripped (confidence 8) [C0E752CA] (AR v2) Copy OK
Track 16
Filename E:\EAC Rips\2017-05 Mei\Various Artists - De Pre Historie 1985 (1992) [FLAC] {BMG 262.685}\16 - The Cars - Drive.wav
Peak level 86.0 % Extraction speed 10.9 X Track quality 100.0 % Test CRC B58E18D2 Copy CRC B58E18D2 Accurately ripped (confidence 9) [23DDEBA7] (AR v2) Copy OK
Track 17
Filename E:\EAC Rips\2017-05 Mei\Various Artists - De Pre Historie 1985 (1992) [FLAC] {BMG 262.685}\17 - Phil Collins - One More Night.wav
Peak level 99.1 % Extraction speed 10.7 X Track quality 100.0 % Test CRC 3C8E877A Copy CRC 3C8E877A Accurately ripped (confidence 9) [EEC50EF5] (AR v2) Copy OK
All tracks accurately ripped
No errors occurred
End of status report
---- CUETools DB Plugin V2.1.6
[CTDB TOCID: BNq4yJClqDO3Ye6tM2nIF3n6FqU-] foundSubmit result: BNq4yJClqDO3Ye6tM2nIF3n6FqU- has been confirmedTrack | CTDB Status 1 | (11/12) Accurately ripped, or (1/12) differs in 12 samples @01:10:74 2 | (12/12) Accurately ripped 3 | (11/12) Accurately ripped, or (1/12) differs in 502 samples @02:17:58,02:33:61,02:39:10,02:39:22,02:39:60,02:40:21-02:40:22,02:40:34,02:40:59-02:40:60,02:41:09,02:41:34,02:41:71-02:41:72,02:42:21-02:42:22,02:42:34,02:42:46-02:42:47,02:42:59,02:42:71,02:43:08-02:43:09,02:43:21,02:44:20-02:44:21,02:44:33,02:44:58-02:44:59,02:45:08-02:45:09,02:45:20-02:45:21,02:45:33,02:45:58,02:45:70-02:45:71,02:47:70-02:47:71,02:48:45-02:48:46,02:49:20,02:50:70-02:50:71,02:51:20,02:51:45,02:52:20,02:52:33,02:52:45-02:52:46,02:52:57-02:52:58,02:53:20,02:53:33,02:53:45-02:53:46,02:53:70-02:53:71,02:54:20,02:54:33,02:54:57,02:55:08,02:55:32,02:55:70-02:55:71,02:56:20-02:56:21,02:58:20,02:59:08,03:00:33,03:00:71,03:01:08-03:01:09,03:01:21-03:01:22,03:01:71,03:02:21,03:04:59-03:04:60,03:05:72,03:06:09-03:06:10,03:06:72-03:06:73,03:07:22-03:07:23,03:08:35,03:08:48,03:09:10-03:09:11,03:09:35-03:09:36,03:11:74,03:13:25 4 | (12/12) Accurately ripped 5 | (12/12) Accurately ripped 6 | (12/12) Accurately ripped 7 | (12/12) Accurately ripped 8 | (12/12) Accurately ripped 9 | (12/12) Accurately ripped 10 | (12/12) Accurately ripped 11 | (12/12) Accurately ripped 12 | (12/12) Accurately ripped 13 | (11/12) Accurately ripped 14 | (12/12) Accurately ripped 15 | (11/12) Accurately ripped 16 | (12/12) Accurately ripped 17 | (12/12) Accurately ripped
==== Log checksum 9F3943BC5458F5ADF43B138A2670A7BC95513DAA994DB67B17C1261E4BB5EC8C ====

Содержание индексной карты (.CUE)

REM DATE 1992REM DISCID FB117411REM COMMENT "ExactAudioCopy v1.3"PERFORMER "Various Artists"TITLE "De Pre Historie 1985"REM COMPOSER ""FILE "01 - Double - The Captain Of Her Heart.wav" WAVE  TRACK 01 AUDIO    TITLE "The Captain Of Her Heart"    PERFORMER "Double"    REM COMPOSER ""    PREGAP 00:00:32    INDEX 01 00:00:00  TRACK 02 AUDIO    TITLE "Josephine"    PERFORMER "Chris Rea"    REM COMPOSER ""    INDEX 00 03:58:50FILE "02 - Chris Rea - Josephine.wav" WAVE    INDEX 01 00:00:00FILE "03 - Kate Bush - Running Up That Hill.wav" WAVE  TRACK 03 AUDIO    TITLE "Running Up That Hill"    PERFORMER "Kate Bush"    REM COMPOSER ""    INDEX 01 00:00:00FILE "04 - Feargal Sharkey - A Good Heart.wav" WAVE  TRACK 04 AUDIO    TITLE "A Good Heart"    PERFORMER "Feargal Sharkey"    REM COMPOSER ""    INDEX 01 00:00:00FILE "05 - Simple Minds - Alive And Kicking.wav" WAVE  TRACK 05 AUDIO    TITLE "Alive And Kicking"    PERFORMER "Simple Minds"    REM COMPOSER ""    INDEX 01 00:00:00FILE "06 - Tina Turner - We Don't Need Another Hero.wav" WAVE  TRACK 06 AUDIO    TITLE "We Don't Need Another Hero"    PERFORMER "Tina Turner"    REM COMPOSER ""    INDEX 01 00:00:00FILE "07 - Ashford & Simpson - Solid.wav" WAVE  TRACK 07 AUDIO    TITLE "Solid"    PERFORMER "Ashford & Simpson"    REM COMPOSER ""    INDEX 01 00:00:00FILE "08 - Grace Jones - Slave To The Rhythm.wav" WAVE  TRACK 08 AUDIO    TITLE "Slave To The Rhythm"    PERFORMER "Grace Jones"    REM COMPOSER ""    INDEX 01 00:00:00FILE "09 - Jermaine Jackson & Pia Zadora - When The Rain Begins To Fall.wav" WAVE  TRACK 09 AUDIO    TITLE "When The Rain Begins To Fall"    PERFORMER "Jermaine Jackson & Pia Zadora"    REM COMPOSER ""    INDEX 01 00:00:00FILE "10 - Murray Head - One Night In Bangkok.wav" WAVE  TRACK 10 AUDIO    TITLE "One Night In Bangkok"    PERFORMER "Murray Head"    REM COMPOSER ""    INDEX 01 00:00:00FILE "11 - Huey Lewis & The News - The Power Of Love.wav" WAVE  TRACK 11 AUDIO    TITLE "The Power Of Love"    PERFORMER "Huey Lewis & The News"    REM COMPOSER ""    INDEX 01 00:00:00FILE "12 - UB40 - I Got You Babe.wav" WAVE  TRACK 12 AUDIO    TITLE "I Got You Babe"    PERFORMER "UB40"    REM COMPOSER ""    INDEX 01 00:00:00FILE "13 - Whitney Houston - All At Once.wav" WAVE  TRACK 13 AUDIO    TITLE "All At Once"    PERFORMER "Whitney Houston"    REM COMPOSER ""    INDEX 01 00:00:00FILE "14 - Bryan Ferry - Don't Stop The Dance.wav" WAVE  TRACK 14 AUDIO    TITLE "Don't Stop The Dance"    PERFORMER "Bryan Ferry"    REM COMPOSER ""    INDEX 01 00:00:00FILE "15 - Sade - The Sweetest Taboo.wav" WAVE  TRACK 15 AUDIO    TITLE "The Sweetest Taboo"    PERFORMER "Sade"    REM COMPOSER ""    INDEX 01 00:00:00FILE "16 - The Cars - Drive.wav" WAVE  TRACK 16 AUDIO    TITLE "Drive"    PERFORMER "The Cars"    REM COMPOSER ""    INDEX 01 00:00:00FILE "17 - Phil Collins - One More Night.wav" WAVE  TRACK 17 AUDIO    TITLE "One More Night"    PERFORMER "Phil Collins"    REM COMPOSER ""    INDEX 01 00:00:00

AccurateRip

[CUETools log; Date: 21.10.2018 12:49:35; Version: 2.1.5]Pregap length 00:00:32.[CTDB TOCID: BNq4yJClqDO3Ye6tM2nIF3n6FqU-] found.Track | CTDB Status  1   | (21/22) Accurately ripped  2   | (22/22) Accurately ripped  3   | (21/22) Accurately ripped, or (1/22) differs in 502 samples @02:17:58,02:33:61,02:39:10,02:39:22,02:39:60,02:40:21-02:40:22,02:40:34,02:40:59-02:40:60,02:41:09,02:41:34,02:41:71-02:41:72,02:42:21-02:42:22,02:42:34,02:42:46-02:42:47,02:42:59,02:42:71,02:43:08-02:43:09,02:43:21,02:44:20-02:44:21,02:44:33,02:44:58-02:44:59,02:45:08-02:45:09,02:45:20-02:45:21,02:45:33,02:45:58,02:45:70-02:45:71,02:47:70-02:47:71,02:48:45-02:48:46,02:49:20,02:50:70-02:50:71,02:51:20,02:51:45,02:52:20,02:52:33,02:52:45-02:52:46,02:52:57-02:52:58,02:53:20,02:53:33,02:53:45-02:53:46,02:53:70-02:53:71,02:54:20,02:54:33,02:54:57,02:55:08,02:55:32,02:55:70-02:55:71,02:56:20-02:56:21,02:58:20,02:59:08,03:00:33,03:00:71,03:01:08-03:01:09,03:01:21-03:01:22,03:01:71,03:02:21,03:04:59-03:04:60,03:05:72,03:06:09-03:06:10,03:06:72-03:06:73,03:07:22-03:07:23,03:08:35,03:08:48,03:09:10-03:09:11,03:09:35-03:09:36,03:11:74,03:13:25  4   | (22/22) Accurately ripped  5   | (22/22) Accurately ripped  6   | (22/22) Accurately ripped  7   | (22/22) Accurately ripped  8   | (22/22) Accurately ripped  9   | (22/22) Accurately ripped 10   | (22/22) Accurately ripped 11   | (22/22) Accurately ripped 12   | (22/22) Accurately ripped 13   | (21/22) Accurately ripped 14   | (22/22) Accurately ripped 15   | (21/22) Accurately ripped 16   | (22/22) Accurately ripped 17   | (22/22) Accurately ripped[AccurateRip ID: 002ed0ab-024da0db-fb117411] found.Track   [  CRC   |   V2   ] Status 01     [985e6e8e|b1045f20] (05+13/18) Accurately ripped 02     [18e01e17|08b08364] (06+13/19) Accurately ripped 03     [7e2e24a9|0f9c0914] (06+12/18) Accurately ripped 04     [5254e9d6|e595013a] (06+13/19) Accurately ripped 05     [fd516443|5a246ca2] (06+13/19) Accurately ripped 06     [d0dc3fe1|ae4cbda5] (06+13/19) Accurately ripped 07     [d216e3a5|36e701a0] (06+13/19) Accurately ripped 08     [ed08451e|bc061b77] (06+14/20) Accurately ripped 09     [466ddd22|355729b8] (06+13/19) Accurately ripped 10     [09ef0a1a|5c2f3484] (05+14/19) Accurately ripped 11     [dcfe0f63|46dadab6] (05+13/18) Accurately ripped 12     [64b405fc|ef7e9cf8] (06+13/19) Accurately ripped 13     [8930e638|ccf5045c] (06+13/19) Accurately ripped 14     [99d940e3|f4a1dcb3] (06+13/19) Accurately ripped 15     [9f77d8ae|c0e752ca] (06+12/18) Accurately ripped 16     [cabf2b18|23ddeba7] (05+13/18) Accurately ripped 17     [cea1af8e|eec50ef5] (06+13/19) Accurately ripped
Track Peak [ CRC32 ] [W/O NULL] [ LOG ] -- 99,5 [AC235819] [A2602C3E] 01 84,9 [5D0DD758] [41AB7C38] CRC32 02 99,2 [7EDC9782] [43F68F84] CRC32 03 99,2 [6FBBBCF7] [845780D2] CRC32 04 97,7 [B895C024] [689F56DE] CRC32 05 98,6 [1DA19A9D] [228C0C55] CRC32 06 87,2 [72FCCEC6] [5981AF3D] CRC32 07 99,2 [E5120A34] [A000381D] CRC32 08 98,2 [4E65C2E1] [7874C994] CRC32 09 99,2 [B04255C0] [C8FEC86B] CRC32 10 99,5 [D6DD7331] [5C6C3D5C] CRC32 11 98,4 [5F38E3E2] [8DCBB83B] CRC32 12 92,1 [DF28FBAC] [828D83EA] CRC32 13 94,4 [A782EE1E] [F48392FD] CRC32 14 99,2 [7B98E475] [9D99C0DA] CRC32 15 91,3 [1C7D163A] [B887CEE9] CRC32 16 86,0 [B58E18D2] [7CFC0A0E] CRC32 17 99,1 [3C8E877A] [884BE181] CRC32
Вы не можете начинать темы
Вы не можете отвечать на сообщения
Вы не можете редактировать свои сообщения
Вы не можете удалять свои сообщения
Вы не можете голосовать в опросах
Вы не можете прикреплять файлы к сообщениям
Вы можете скачивать файлы
!ВНИМАНИЕ!

Сайт не предоставляет электронные версии произведений, а занимается лишь коллекционированием и каталогизацией ссылок, присылаемых и публикуемых на форуме нашими читателями. Если вы являетесь правообладателем какого-либо представленного материала и не желаете, чтобы ссылка на него находилась в нашем каталоге, свяжитесь с нами, и мы незамедлительно удалим ее. Файлы для обмена на трекере предоставлены пользователями сайта, и администрация не несет ответственности за их содержание. Просьба не заливать файлы, защищенные авторскими правами, а также файлы нелегального содержания!

Искали программы, игры, дополнения, музыка mp3, аниме, аудио книги, журналы? Добро пожаловать на свободный торрент трекер Torrents, у нас можно скачать бесплатно, без смс и регистрации и прочих ограничений лучшие, отборные сборки программ, игр. Скачать торрентом не составит труда даже не опытному пользователю. Раздачи ежедневно обновляются, только лучшие и качественные раздачи, подробные описания и скриншоты. Огромная коллекция программ для работы со звуком, графикой, дизайном, а так же множество плагинов и инструментов к ним с подробной инструкцией и рекомендациями. Прошивки для навигаторов, карты. Разнообразные игры, для Windows, Linux. В коллекцие есть и старые игры любых жанров, Rpg, Action, Shooter, strategy Множество дополнений, модификаций, сценариев для популярных игр в жанре экш, рпг, гонки, стратегии, логические игры. Множество аддонов и сценариев для Microsoft Flight Simulator Большая коллекция книг, учебников. Если нет возможности купить печатное издание - смело скачивайте цифровую версию книги или, быть может, журнала. Не любите читать - можно загрузить бесплатно аудикнигу. Для веб дизайнеров и программистов так же найдется множество специализированного софта, таких как: редакторы с подсветкой, среды программирования, компоненты, системы управления базами данных, разнообразные скрипты и шаблоны. Не так давно у нас появился материал для автолюбителей и владельцев мото - оригинальные и неоригинальные каталоги запчастей, книги и журналы по ремонту и обслуживанию, видеоуроки, статьи по чип тюнингу, прошивкам. Процедура получения контента элементарная, достаточно просто скачать торрент файл и добавить его в загрузку в вашем торрент клиенте. Если у вас нет специального торрент клиента, вы можете его скачать у нас.

Perucas Naturais | Alexa e Casa Intelligente | Selena Gomez - Iheartradio Jingle Ball.