(Various) [CD] VA - De Pre Historie 1981 [EMI/Virgin, 261.781, Belgium] - 1992, FLAC (tracks+.cue), lossless 

Цитировать
De Pre Historie 1981
Жанр: Various
Носитель: CD
Страна-производитель диска (релиза): Belgium
Год издания: 1992
Издатель (лейбл): EMI/Virgin
Номер по каталогу: 261.781
Аудиокодек: FLAC (*.flac)
Тип рипа: tracks+.cue
Битрейт аудио: lossless
Продолжительность: 01:13:54
Источник (релизер): From RED
Наличие сканов в содержимом раздачи: нет

Треклист:
01. Irene Cara – Fame
02. The Jacksons – Can You Feel It
03. Voggue – Dancin' The Night Away
04. Aneka – Japanese Boy
05. Kim Carnes – Bette Davis Eyes
06. Ultravox – Vienna
07. Kim Wilde – Cambodia
08. Grace Jones – I've Seen That Face Before
09. T.C. Matic – O La La La
10. Stray Cats – Rock This Town
11. De Kreuners – Zij Heeft Stijl
12. Duran Duran – Girls On Film
13. Visage – Fade To Grey
14. Champaign – How 'Bout Us
15. Lime – Your Love
16. Diana Ross & Lionel Richie – Endless Love
17. Madness – It Must Be Love
18. Roxy Music – Jealous Guy

Лог создания рипа

Exact Audio Copy V1.3 from 2. September 2016
EAC extraction logfile from 20. May 2017, 14:32
Various Artists / De Pre Historie 1981
Used drive : ATAPI iHAS124 F Adapter: 1 ID: 2
Read mode : SecureUtilize accurate stream : YesDefeat audio cache : YesMake use of C2 pointers : No
Read offset correction : 6Overread into Lead-In and Lead-Out : NoFill up missing offset samples with silence : YesDelete leading and trailing silent blocks : NoNull samples used in CRC calculations : YesUsed interface : Native Win32 interface for Win NT & 2000Gap handling : Appended to previous track
Used output format : User Defined EncoderSelected bitrate : 1024 kBit/sQuality : HighAdd ID3 tag : NoCommand line compressor : C:\cmd.exeAdditional command line options : /c ""C:\F\CUETools.FLACCL.cmd.exe" -8 --verify %source% -o %dest% & "C:\M\metaflac.exe" --set-tag="ARTIST=%artist%" --set-tag="TITLE=%title%" --set-tag="ALBUM=%albumtitle%" --set-tag="DATE=%year%" --set-tag="TRACKNUMBER=%tracknr%" --set-tag="GENRE=%genre%" --set-tag="COMPOSER=%composer%" --set-tag="ALBUMARTIST=%albumartist%" %dest%"
TOC of the extracted CD
Track | Start | Length | Start sector | End sector --------------------------------------------------------- 1 | 0:00.33 | 3:48.25 | 33 | 17157 2 | 3:48.58 | 5:59.72 | 17158 | 44154 3 | 9:48.55 | 3:10.60 | 44155 | 58464 4 | 12:59.40 | 3:56.48 | 58465 | 76212 5 | 16:56.13 | 3:44.17 | 76213 | 93029 6 | 20:40.30 | 4:38.08 | 93030 | 113887 7 | 25:18.38 | 3:56.32 | 113888 | 131619 8 | 29:14.70 | 4:29.23 | 131620 | 151817 9 | 33:44.18 | 3:17.12 | 151818 | 166604 10 | 37:01.30 | 3:25.08 | 166605 | 181987 11 | 40:26.38 | 3:43.32 | 181988 | 198744 12 | 44:09.70 | 3:29.15 | 198745 | 214434 13 | 47:39.10 | 3:59.70 | 214435 | 232429 14 | 51:39.05 | 4:34.55 | 232430 | 253034 15 | 56:13.60 | 3:44.25 | 253035 | 269859 16 | 59:58.10 | 4:25.23 | 269860 | 289757 17 | 64:23.33 | 3:20.30 | 289758 | 304787 18 | 67:43.63 | 6:11.45 | 304788 | 332657
Track 1
Filename E:\EAC Rips\2017-05 Mei\Various Artists - De Pre Historie 1981 (1992) [FLAC] {BMG 261.781}\01 - Irene Cara - Fame.wav
Pre-gap length 0:00:02.33
Peak level 89.9 % Extraction speed 2.1 X Track quality 100.0 % Test CRC 740CDA5A Copy CRC 740CDA5A Accurately ripped (confidence 5) [48A4C602] (AR v2) Copy OK
Track 2
Filename E:\EAC Rips\2017-05 Mei\Various Artists - De Pre Historie 1981 (1992) [FLAC] {BMG 261.781}\02 - The Jacksons - Can You Feel It.wav
Peak level 97.5 % Extraction speed 2.5 X Track quality 100.0 % Test CRC B554A78B Copy CRC B554A78B Accurately ripped (confidence 5) [3BC25B8C] (AR v2) Copy OK
Track 3
Filename E:\EAC Rips\2017-05 Mei\Various Artists - De Pre Historie 1981 (1992) [FLAC] {BMG 261.781}\03 - Voggue - Dancin' The Night Away.wav
Peak level 78.8 % Extraction speed 2.5 X Track quality 100.0 % Test CRC BF1EC2C6 Copy CRC BF1EC2C6 Accurately ripped (confidence 5) [D07BEAE9] (AR v2) Copy OK
Track 4
Filename E:\EAC Rips\2017-05 Mei\Various Artists - De Pre Historie 1981 (1992) [FLAC] {BMG 261.781}\04 - Aneka - Japanese Boy.wav
Peak level 91.6 % Extraction speed 2.7 X Track quality 100.0 % Test CRC D1B8B695 Copy CRC D1B8B695 Accurately ripped (confidence 5) [87D19B51] (AR v2) Copy OK
Track 5
Filename E:\EAC Rips\2017-05 Mei\Various Artists - De Pre Historie 1981 (1992) [FLAC] {BMG 261.781}\05 - Kim Carnes - Bette Davis Eyes.wav
Pre-gap length 0:00:01.13
Peak level 85.0 % Extraction speed 2.8 X Track quality 100.0 % Test CRC 6F65F20A Copy CRC 6F65F20A Accurately ripped (confidence 5) [DEE00021] (AR v2) Copy OK
Track 6
Filename E:\EAC Rips\2017-05 Mei\Various Artists - De Pre Historie 1981 (1992) [FLAC] {BMG 261.781}\06 - Ultravox - Vienna.wav
Peak level 96.2 % Extraction speed 3.1 X Track quality 100.0 % Test CRC FB9813C2 Copy CRC FB9813C2 Accurately ripped (confidence 4) [CBB137C1] (AR v2) Copy OK
Track 7
Filename E:\EAC Rips\2017-05 Mei\Various Artists - De Pre Historie 1981 (1992) [FLAC] {BMG 261.781}\07 - Kim Wilde - Cambodia.wav
Peak level 98.4 % Extraction speed 3.1 X Track quality 100.0 % Test CRC 64DA0214 Copy CRC 64DA0214 Accurately ripped (confidence 4) [50ED4792] (AR v2) Copy OK
Track 8
Filename E:\EAC Rips\2017-05 Mei\Various Artists - De Pre Historie 1981 (1992) [FLAC] {BMG 261.781}\08 - Grace Jones - I've Seen That Face Before.wav
Peak level 88.9 % Extraction speed 3.3 X Track quality 100.0 % Test CRC 61898103 Copy CRC 61898103 Accurately ripped (confidence 5) [F144B435] (AR v2) Copy OK
Track 9
Filename E:\EAC Rips\2017-05 Mei\Various Artists - De Pre Historie 1981 (1992) [FLAC] {BMG 261.781}\09 - T.C. Matic - O La La La.wav
Peak level 88.3 % Extraction speed 3.3 X Track quality 100.0 % Test CRC 220B7FB6 Copy CRC 220B7FB6 Accurately ripped (confidence 5) [A9DEE546] (AR v2) Copy OK
Track 10
Filename E:\EAC Rips\2017-05 Mei\Various Artists - De Pre Historie 1981 (1992) [FLAC] {BMG 261.781}\10 - Stray Cats - Rock This Town.wav
Peak level 90.7 % Extraction speed 3.4 X Track quality 100.0 % Test CRC 53FD53EE Copy CRC 53FD53EE Accurately ripped (confidence 5) [028ADE98] (AR v2) Copy OK
Track 11
Filename E:\EAC Rips\2017-05 Mei\Various Artists - De Pre Historie 1981 (1992) [FLAC] {BMG 261.781}\11 - De Kreuners - Zij Heeft Stijl.wav
Peak level 96.2 % Extraction speed 2.5 X Track quality 99.9 % Test CRC 3028F7E0 Copy CRC 3028F7E0 Accurately ripped (confidence 5) [014EB805] (AR v2) Copy OK
Track 12
Filename E:\EAC Rips\2017-05 Mei\Various Artists - De Pre Historie 1981 (1992) [FLAC] {BMG 261.781}\12 - Duran Duran - Girls On Film.wav
Peak level 96.9 % Extraction speed 3.6 X Track quality 100.0 % Test CRC 19F9B8E0 Copy CRC 19F9B8E0 Accurately ripped (confidence 5) [65CD2B5E] (AR v2) Copy OK
Track 13
Filename E:\EAC Rips\2017-05 Mei\Various Artists - De Pre Historie 1981 (1992) [FLAC] {BMG 261.781}\13 - Visage - Fade To Gray.wav
Peak level 88.5 % Extraction speed 3.8 X Track quality 100.0 % Test CRC 64C663C6 Copy CRC 64C663C6 Accurately ripped (confidence 5) [E2F0A2EF] (AR v2) Copy OK
Track 14
Filename E:\EAC Rips\2017-05 Mei\Various Artists - De Pre Historie 1981 (1992) [FLAC] {BMG 261.781}\14 - Champaign - How 'Bout Us.wav
Peak level 99.0 % Extraction speed 3.9 X Track quality 100.0 % Test CRC 5D9A1380 Copy CRC 5D9A1380 Accurately ripped (confidence 4) [47DE617C] (AR v2) Copy OK
Track 15
Filename E:\EAC Rips\2017-05 Mei\Various Artists - De Pre Historie 1981 (1992) [FLAC] {BMG 261.781}\15 - Lime - Your Love.wav
Peak level 86.1 % Extraction speed 4.0 X Track quality 100.0 % Test CRC 0B8BE019 Copy CRC 0B8BE019 Accurately ripped (confidence 5) [4A0F1253] (AR v2) Copy OK
Track 16
Filename E:\EAC Rips\2017-05 Mei\Various Artists - De Pre Historie 1981 (1992) [FLAC] {BMG 261.781}\16 - Diana Ross & Lionel Richie - Endless Love.wav
Peak level 94.0 % Extraction speed 4.1 X Track quality 100.0 % Test CRC 24469AD4 Copy CRC 24469AD4 Accurately ripped (confidence 5) [18481058] (AR v2) Copy OK
Track 17
Filename E:\EAC Rips\2017-05 Mei\Various Artists - De Pre Historie 1981 (1992) [FLAC] {BMG 261.781}\17 - Madness - It Must Be Love.wav
Peak level 95.5 % Extraction speed 4.0 X Track quality 100.0 % Test CRC 23B93239 Copy CRC 23B93239 Accurately ripped (confidence 5) [E0340FA8] (AR v2) Copy OK
Track 18
Filename E:\EAC Rips\2017-05 Mei\Various Artists - De Pre Historie 1981 (1992) [FLAC] {BMG 261.781}\18 - Roxy Music - Jealous Guy.wav
Peak level 93.6 % Extraction speed 4.5 X Track quality 100.0 % Test CRC 8C4CCA42 Copy CRC 8C4CCA42 Accurately ripped (confidence 5) [7F2FECB0] (AR v2) Copy OK
All tracks accurately ripped
No errors occurred
End of status report
---- CUETools DB Plugin V2.1.6
[CTDB TOCID: 6xV3KuigzWcDl7Zkyvs78VFRb7M-] foundSubmit result: 6xV3KuigzWcDl7Zkyvs78VFRb7M- has been confirmedTrack | CTDB Status 1 | (11/12) Accurately ripped 2 | (11/12) Accurately ripped 3 | (11/12) Accurately ripped 4 | (10/12) Accurately ripped 5 | (11/12) Accurately ripped 6 | (11/12) Accurately ripped 7 | (11/12) Accurately ripped 8 | (11/12) Accurately ripped 9 | (11/12) Accurately ripped 10 | (11/12) Accurately ripped 11 | (11/12) Accurately ripped 12 | (11/12) Accurately ripped 13 | (10/12) Accurately ripped 14 | (10/12) Accurately ripped 15 | (11/12) Accurately ripped 16 | (11/12) Accurately ripped 17 | (11/12) Accurately ripped 18 | (10/12) Accurately ripped
==== Log checksum BAF4A8F22D02FC7091D2989533354C2D7E24A1972C7AF41E2C3D16CA34D65F90 ====

Содержание индексной карты (.CUE)

REM DATE 1992REM DISCID DA115312REM COMMENT "ExactAudioCopy v1.3"PERFORMER "Various Artists"TITLE "De Pre Historie 1981"REM COMPOSER ""FILE "01 - Irene Cara - Fame.wav" WAVE  TRACK 01 AUDIO    TITLE "Fame"    PERFORMER "Irene Cara"    REM COMPOSER ""    PREGAP 00:00:33    INDEX 01 00:00:00FILE "02 - The Jacksons - Can You Feel It.wav" WAVE  TRACK 02 AUDIO    TITLE "Can You Feel It"    PERFORMER "The Jacksons"    REM COMPOSER ""    INDEX 01 00:00:00FILE "03 - Voggue - Dancin' The Night Away.wav" WAVE  TRACK 03 AUDIO    TITLE "Dancin' The Night Away"    PERFORMER "Voggue"    REM COMPOSER ""    INDEX 01 00:00:00FILE "04 - Aneka - Japanese Boy.wav" WAVE  TRACK 04 AUDIO    TITLE "Japanese Boy"    PERFORMER "Aneka"    REM COMPOSER ""    INDEX 01 00:00:00  TRACK 05 AUDIO    TITLE "Bette Davis Eyes"    PERFORMER "Kim Carnes"    REM COMPOSER ""    INDEX 00 03:55:35FILE "05 - Kim Carnes - Bette Davis Eyes.wav" WAVE    INDEX 01 00:00:00FILE "06 - Ultravox - Vienna.wav" WAVE  TRACK 06 AUDIO    TITLE "Vienna"    PERFORMER "Ultravox"    REM COMPOSER ""    INDEX 01 00:00:00FILE "07 - Kim Wilde - Cambodia.wav" WAVE  TRACK 07 AUDIO    TITLE "Cambodia"    PERFORMER "Kim Wilde"    REM COMPOSER ""    INDEX 01 00:00:00FILE "08 - Grace Jones - I've Seen That Face Before.wav" WAVE  TRACK 08 AUDIO    TITLE "I've Seen That Face Before"    PERFORMER "Grace Jones"    REM COMPOSER ""    INDEX 01 00:00:00FILE "09 - T.C. Matic - O La La La.wav" WAVE  TRACK 09 AUDIO    TITLE "O La La La"    PERFORMER "T.C. Matic"    REM COMPOSER ""    INDEX 01 00:00:00FILE "10 - Stray Cats - Rock This Town.wav" WAVE  TRACK 10 AUDIO    TITLE "Rock This Town"    PERFORMER "Stray Cats"    REM COMPOSER ""    INDEX 01 00:00:00FILE "11 - De Kreuners - Zij Heeft Stijl.wav" WAVE  TRACK 11 AUDIO    TITLE "Zij Heeft Stijl"    PERFORMER "De Kreuners"    REM COMPOSER ""    INDEX 01 00:00:00FILE "12 - Duran Duran - Girls On Film.wav" WAVE  TRACK 12 AUDIO    TITLE "Girls On Film"    PERFORMER "Duran Duran"    REM COMPOSER ""    INDEX 01 00:00:00FILE "13 - Visage - Fade To Gray.wav" WAVE  TRACK 13 AUDIO    TITLE "Fade To Gray"    PERFORMER "Visage"    REM COMPOSER ""    INDEX 01 00:00:00FILE "14 - Champaign - How 'Bout Us.wav" WAVE  TRACK 14 AUDIO    TITLE "How 'Bout Us"    PERFORMER "Champaign"    REM COMPOSER ""    INDEX 01 00:00:00FILE "15 - Lime - Your Love.wav" WAVE  TRACK 15 AUDIO    TITLE "Your Love"    PERFORMER "Lime"    REM COMPOSER ""    INDEX 01 00:00:00FILE "16 - Diana Ross & Lionel Richie - Endless Love.wav" WAVE  TRACK 16 AUDIO    TITLE "Endless Love"    PERFORMER "Diana Ross & Lionel Richie"    REM COMPOSER ""    INDEX 01 00:00:00FILE "17 - Madness - It Must Be Love.wav" WAVE  TRACK 17 AUDIO    TITLE "It Must Be Love"    PERFORMER "Madness"    REM COMPOSER ""    INDEX 01 00:00:00FILE "18 - Roxy Music - Jealous Guy.wav" WAVE  TRACK 18 AUDIO    TITLE "Jealous Guy"    PERFORMER "Roxy Music"    REM COMPOSER ""    INDEX 01 00:00:00

AccurateRip

[CUETools log; Date: 20.10.2018 20:33:49; Version: 2.1.5]Pregap length 00:00:33.[CTDB TOCID: 6xV3KuigzWcDl7Zkyvs78VFRb7M-] found.Track | CTDB Status  1   | (25/26) Accurately ripped  2   | (25/26) Accurately ripped  3   | (25/26) Accurately ripped  4   | (24/26) Accurately ripped  5   | (25/26) Accurately ripped  6   | (25/26) Accurately ripped  7   | (25/26) Accurately ripped  8   | (25/26) Accurately ripped  9   | (25/26) Accurately ripped 10   | (25/26) Accurately ripped 11   | (25/26) Accurately ripped 12   | (25/26) Accurately ripped 13   | (24/26) Accurately ripped 14   | (24/26) Accurately ripped 15   | (25/26) Accurately ripped 16   | (25/26) Accurately ripped 17   | (25/26) Accurately ripped 18   | (23/26) Accurately ripped[AccurateRip ID: 002fc53a-0279310f-da115312] found.Track   [  CRC   |   V2   ] Status 01     [5e6481bf|48a4c602] (03+07/21) Accurately ripped 02     [0f987ef0|3bc25b8c] (03+07/19) Accurately ripped 03     [8dde5c46|d07beae9] (03+07/19) Accurately ripped 04     [5e44364a|87d19b51] (03+07/19) Accurately ripped 05     [6b3a9180|dee00021] (03+07/20) Accurately ripped 06     [5c0ce6ba|cbb137c1] (03+06/19) Accurately ripped 07     [986451f9|50ed4792] (03+06/19) Accurately ripped 08     [06c49057|f144b435] (03+07/20) Accurately ripped 09     [889cf2ca|a9dee546] (03+07/20) Accurately ripped 10     [326fa974|028ade98] (03+07/21) Accurately ripped 11     [815f48b9|014eb805] (03+07/20) Accurately ripped 12     [31161800|65cd2b5e] (03+07/20) Accurately ripped 13     [1ce814bd|e2f0a2ef] (03+07/19) Accurately ripped 14     [bfe071e9|47de617c] (03+06/18) Accurately ripped 15     [83c00f43|4a0f1253] (02+07/19) Accurately ripped 16     [0a2a3677|18481058] (03+07/20) Accurately ripped 17     [0165d2e6|e0340fa8] (03+07/20) Accurately ripped 18     [b1b8d1ad|7f2fecb0] (03+07/19) Accurately rippedOffsetted by -109: 01     [e6c6169b] (04/21) Accurately ripped 02     [a6a4d1ab] (03/19) Accurately ripped 03     [0bc3589c] (03/19) Accurately ripped 04     [504670f8] (03/19) Accurately ripped 05     [d8631a62] (04/20) Accurately ripped 06     [75e56d87] (04/19) Accurately ripped 07     [d9f6351f] (04/19) Accurately ripped 08     [23df9815] (04/20) Accurately ripped 09     [1b2b9e9b] (04/20) Accurately ripped 10     [d35dab70] (04/21) Accurately ripped 11     [efc84148] (04/20) Accurately ripped 12     [87e1c292] (04/20) Accurately ripped 13     [36e93664] (03/19) Accurately ripped 14     [74cbebf4] (03/18) Accurately ripped 15     [8be2e9ec] (04/19) Accurately ripped 16     [39330f1f] (04/20) Accurately ripped 17     [f8824675] (04/20) Accurately ripped 18     [cc9f4317] (03/19) Accurately rippedOffsetted by -2740: 01     [6718012f] (00/21) No match (V2 was not tested) 02     [5eb6c8dc] (00/19) No match (V2 was not tested) 03     [f8a5ab9e] (00/19) No match (V2 was not tested) 04     [bbbafbea] (00/19) No match (V2 was not tested) 05     [06b7aa00] (00/20) No match (V2 was not tested) 06     [9cf1eaee] (00/19) No match (V2 was not tested) 07     [c93fcc91] (00/19) No match (V2 was not tested) 08     [50cc554f] (00/20) No match (V2 was not tested) 09     [540dbf0e] (00/20) No match (V2 was not tested) 10     [43ef7d64] (00/21) No match (V2 was not tested) 11     [8ed5edf5] (00/20) No match (V2 was not tested) 12     [091f2c48] (00/20) No match (V2 was not tested) 13     [43419659] (00/19) No match (V2 was not tested) 14     [15626915] (00/18) No match (V2 was not tested) 15     [422e8ee7] (00/19) No match (V2 was not tested) 16     [9cc22117] (00/20) No match (V2 was not tested) 17     [68696422] (00/20) No match (V2 was not tested) 18     [b891f955] (00/19) No match (V2 was not tested)Offsetted by -2076: 01     [655be00f] (00/21) No match (V2 was not tested) 02     [1fd0b4b4] (00/19) No match (V2 was not tested) 03     [f055fa4e] (00/19) No match (V2 was not tested) 04     [19d19a4a] (00/19) No match (V2 was not tested) 05     [54c08220] (00/20) No match (V2 was not tested) 06     [855edb56] (00/19) No match (V2 was not tested) 07     [6416f1c1] (00/19) No match (V2 was not tested) 08     [ab3ccf3f] (00/20) No match (V2 was not tested) 09     [e7b45f96] (00/20) No match (V2 was not tested) 10     [97850544] (00/21) No match (V2 was not tested) 11     [1f91306d] (00/20) No match (V2 was not tested) 12     [16eae4d8] (00/20) No match (V2 was not tested) 13     [94675191] (00/19) No match (V2 was not tested) 14     [bb862f6d] (00/18) No match (V2 was not tested) 15     [1a03562f] (00/19) No match (V2 was not tested) 16     [30bb3657] (00/20) No match (V2 was not tested) 17     [6f967e9a] (00/20) No match (V2 was not tested) 18     [d2f098a5] (00/19) No match (V2 was not tested)
Track Peak [ CRC32 ] [W/O NULL] [ LOG ] -- 99,0 [D4B3E0F2] [F49CE355] 01 89,9 [740CDA5A] [9D4EC50E] CRC32 02 97,5 [B554A78B] [146E9088] CRC32 03 78,8 [BF1EC2C6] [425B1396] CRC32 04 91,6 [D1B8B695] [BAFF5C74] CRC32 05 85,0 [6F65F20A] [5D138C75] CRC32 06 96,2 [FB9813C2] [716918A9] CRC32 07 98,4 [64DA0214] [E1FE3F93] CRC32 08 88,9 [61898103] [FB41F088] CRC32 09 88,3 [220B7FB6] [AF8B206E] CRC32 10 90,7 [53FD53EE] [8F284622] CRC32 11 96,2 [3028F7E0] [001BDAA1] CRC32 12 96,9 [19F9B8E0] [976C0EC5] CRC32 13 88,5 [64C663C6] [26F11879] CRC32 14 99,0 [5D9A1380] [52208561] CRC32 15 86,1 [0B8BE019] [13B2E474] CRC32 16 94,0 [24469AD4] [5A61B458] CRC32 17 95,5 [23B93239] [020FBF24] CRC32 18 93,6 [8C4CCA42] [884F3C3B] CRC32
Вы не можете начинать темы
Вы не можете отвечать на сообщения
Вы не можете редактировать свои сообщения
Вы не можете удалять свои сообщения
Вы не можете голосовать в опросах
Вы не можете прикреплять файлы к сообщениям
Вы можете скачивать файлы
!ВНИМАНИЕ!

Сайт не предоставляет электронные версии произведений, а занимается лишь коллекционированием и каталогизацией ссылок, присылаемых и публикуемых на форуме нашими читателями. Если вы являетесь правообладателем какого-либо представленного материала и не желаете, чтобы ссылка на него находилась в нашем каталоге, свяжитесь с нами, и мы незамедлительно удалим ее. Файлы для обмена на трекере предоставлены пользователями сайта, и администрация не несет ответственности за их содержание. Просьба не заливать файлы, защищенные авторскими правами, а также файлы нелегального содержания!

Искали программы, игры, дополнения, музыка mp3, аниме, аудио книги, журналы? Добро пожаловать на свободный торрент трекер Torrents, у нас можно скачать бесплатно, без смс и регистрации и прочих ограничений лучшие, отборные сборки программ, игр. Скачать торрентом не составит труда даже не опытному пользователю. Раздачи ежедневно обновляются, только лучшие и качественные раздачи, подробные описания и скриншоты. Огромная коллекция программ для работы со звуком, графикой, дизайном, а так же множество плагинов и инструментов к ним с подробной инструкцией и рекомендациями. Прошивки для навигаторов, карты. Разнообразные игры, для Windows, Linux. В коллекцие есть и старые игры любых жанров, Rpg, Action, Shooter, strategy Множество дополнений, модификаций, сценариев для популярных игр в жанре экш, рпг, гонки, стратегии, логические игры. Множество аддонов и сценариев для Microsoft Flight Simulator Большая коллекция книг, учебников. Если нет возможности купить печатное издание - смело скачивайте цифровую версию книги или, быть может, журнала. Не любите читать - можно загрузить бесплатно аудикнигу. Для веб дизайнеров и программистов так же найдется множество специализированного софта, таких как: редакторы с подсветкой, среды программирования, компоненты, системы управления базами данных, разнообразные скрипты и шаблоны. Не так давно у нас появился материал для автолюбителей и владельцев мото - оригинальные и неоригинальные каталоги запчастей, книги и журналы по ремонту и обслуживанию, видеоуроки, статьи по чип тюнингу, прошивкам. Процедура получения контента элементарная, достаточно просто скачать торрент файл и добавить его в загрузку в вашем торрент клиенте. Если у вас нет специального торрент клиента, вы можете его скачать у нас.

John Donne | I’ll Be Next Door for Christmas | Temporada 01