(Various) [CD] VA - De Pre Historie 1967 [EMI/Virgin, 260.739, Belgium] - 1990, FLAC (tracks+.cue), lossless 

Цитировать
De Pre Historie 1967
Жанр: Various
Носитель: CD
Страна-производитель диска (релиза): Belgium
Год издания: 1990
Издатель (лейбл): EMI/Virgin
Номер по каталогу: 260.739
Аудиокодек: FLAC (*.flac)
Тип рипа: tracks+.cue
Битрейт аудио: lossless
Продолжительность: 01:07:00
Источник (релизер): From RED
Наличие сканов в содержимом раздачи: нет

Треклист:
01. Bee Gees – Massachusetts
02. Adamo – Inch Allah
03. Keith West – Excerpt From ''A Teenage Opera''
04. Herman's Hermits – There's A Kind Of Hush
05. Scott McKenzie – San Francisco
06. The Beach Boys – Good Vibrations
07. The Supremes – Reflections
08. Sonny & Cher – The Beat Goes On
09. Miriam Makeba – Pata Pata
10. Engelbert Humperdinck – Release Me
11. Procol Harum – A Whiter Shade Of Pale
12. Bobbie Gentry – Ode To Billy Joe
13. Four Tops – Standing In The Shadows Of Love
14. Jess & James – Move
15. The Spencer Davis Group – I'm A Man
16. The Hollies – Carrie Anne
17. Dave Dee, Dozy, Beaky, Mick & Tich – Zabadak
18. Herd – From The Underworld
19. Jeff Beck – Hi-Ho Silver Lining
20. Jefferson Airplane – Somebody To Love

Лог создания рипа

Exact Audio Copy V1.3 from 2. September 2016
EAC extraction logfile from 18. May 2017, 20:32
Various Artists / De Pre Historie 1967
Used drive : ATAPI iHAS124 F Adapter: 1 ID: 2
Read mode : SecureUtilize accurate stream : YesDefeat audio cache : YesMake use of C2 pointers : No
Read offset correction : 6Overread into Lead-In and Lead-Out : NoFill up missing offset samples with silence : YesDelete leading and trailing silent blocks : NoNull samples used in CRC calculations : YesUsed interface : Native Win32 interface for Win NT & 2000Gap handling : Appended to previous track
Used output format : User Defined EncoderSelected bitrate : 1024 kBit/sQuality : HighAdd ID3 tag : NoCommand line compressor : C:\cmd.exeAdditional command line options : /c ""C:\F\CUETools.FLACCL.cmd.exe" -8 --verify %source% -o %dest% & "C:\M\metaflac.exe" --set-tag="ARTIST=%artist%" --set-tag="TITLE=%title%" --set-tag="ALBUM=%albumtitle%" --set-tag="DATE=%year%" --set-tag="TRACKNUMBER=%tracknr%" --set-tag="GENRE=%genre%" --set-tag="COMPOSER=%composer%" --set-tag="ALBUMARTIST=%albumartist%" %dest%"
TOC of the extracted CD
Track | Start | Length | Start sector | End sector --------------------------------------------------------- 1 | 0:00.33 | 2:23.27 | 33 | 10784 2 | 2:23.60 | 4:45.70 | 10785 | 32229 3 | 7:09.55 | 4:40.10 | 32230 | 53239 4 | 11:49.65 | 2:34.28 | 53240 | 64817 5 | 14:24.18 | 2:57.57 | 64818 | 78149 6 | 17:22.00 | 3:36.65 | 78150 | 94414 7 | 20:58.65 | 2:50.73 | 94415 | 107237 8 | 23:49.63 | 3:27.30 | 107238 | 122792 9 | 27:17.18 | 2:59.67 | 122793 | 136284 10 | 30:17.10 | 3:18.50 | 136285 | 151184 11 | 33:35.60 | 4:00.33 | 151185 | 169217 12 | 37:36.18 | 4:15.65 | 169218 | 188407 13 | 41:52.08 | 2:33.67 | 188408 | 199949 14 | 44:26.00 | 3:53.25 | 199950 | 217449 15 | 48:19.25 | 2:51.33 | 217450 | 230307 16 | 51:10.58 | 2:54.15 | 230308 | 243372 17 | 54:04.73 | 3:49.37 | 243373 | 260584 18 | 57:54.35 | 3:16.33 | 260585 | 275317 19 | 61:10.68 | 2:51.17 | 275318 | 288159 20 | 64:02.10 | 2:58.23 | 288160 | 301532
Track 1
Filename E:\EAC Rips\2017-05 Mei\Various Artists - De Pre Historie 1967 (1990) [FLAC] {BMG 260.739}\01 - Bee Gees - Massachusetts.wav
Pre-gap length 0:00:02.33
Peak level 94.6 % Extraction speed 5.1 X Track quality 100.0 % Test CRC D27B4BDC Copy CRC D27B4BDC Accurately ripped (confidence 4) [5C94C0A1] (AR v2) Copy OK
Track 2
Filename E:\EAC Rips\2017-05 Mei\Various Artists - De Pre Historie 1967 (1990) [FLAC] {BMG 260.739}\02 - Adamo - Inch Allah.wav
Peak level 99.2 % Extraction speed 6.2 X Track quality 100.0 % Test CRC 4FC1A32D Copy CRC 4FC1A32D Accurately ripped (confidence 3) [88CDD50D] (AR v2) Copy OK
Track 3
Filename E:\EAC Rips\2017-05 Mei\Various Artists - De Pre Historie 1967 (1990) [FLAC] {BMG 260.739}\03 - Keith West - Excerpt Froma Teenage Opera.wav
Peak level 76.3 % Extraction speed 6.7 X Track quality 100.0 % Test CRC 947ADA9E Copy CRC 947ADA9E Accurately ripped (confidence 4) [8FD5502F] (AR v2) Copy OK
Track 4
Filename E:\EAC Rips\2017-05 Mei\Various Artists - De Pre Historie 1967 (1990) [FLAC] {BMG 260.739}\04 - Herman’S Hermits - There's A Kind Of Hush.wav
Peak level 99.1 % Extraction speed 5.1 X Track quality 99.9 % Test CRC 19F11598 Copy CRC 19F11598 Accurately ripped (confidence 4) [37F1357A] (AR v2) Copy OK
Track 5
Filename E:\EAC Rips\2017-05 Mei\Various Artists - De Pre Historie 1967 (1990) [FLAC] {BMG 260.739}\05 - Scott McKenzie - San Francisco.wav
Peak level 99.1 % Extraction speed 7.0 X Track quality 100.0 % Test CRC C325F86F Copy CRC C325F86F Accurately ripped (confidence 4) [D8481C85] (AR v2) Copy OK
Track 6
Filename E:\EAC Rips\2017-05 Mei\Various Artists - De Pre Historie 1967 (1990) [FLAC] {BMG 260.739}\06 - The Beach Boys - Good Vibrations.wav
Peak level 99.2 % Extraction speed 7.5 X Track quality 100.0 % Test CRC A5AAF5F5 Copy CRC A5AAF5F5 Accurately ripped (confidence 4) [9EE438AC] (AR v2) Copy OK
Track 7
Filename E:\EAC Rips\2017-05 Mei\Various Artists - De Pre Historie 1967 (1990) [FLAC] {BMG 260.739}\07 - Diana Ross & The Supremes - Reflections.wav
Peak level 99.2 % Extraction speed 6.0 X Track quality 99.9 % Test CRC E03047F0 Copy CRC E03047F0 Accurately ripped (confidence 3) [508A2656] (AR v2) Copy OK
Track 8
Filename E:\EAC Rips\2017-05 Mei\Various Artists - De Pre Historie 1967 (1990) [FLAC] {BMG 260.739}\08 - Sonny & Cher - The Beat Goes On.wav
Peak level 90.2 % Extraction speed 8.0 X Track quality 100.0 % Test CRC E1241AE3 Copy CRC E1241AE3 Accurately ripped (confidence 4) [D062F084] (AR v2) Copy OK
Track 9
Filename E:\EAC Rips\2017-05 Mei\Various Artists - De Pre Historie 1967 (1990) [FLAC] {BMG 260.739}\09 - Miriam Makeba - Pata Pata.wav
Peak level 85.1 % Extraction speed 6.5 X Track quality 99.9 % Test CRC 55D8AD6E Copy CRC 55D8AD6E Accurately ripped (confidence 3) [3366679E] (AR v2) Copy OK
Track 10
Filename E:\EAC Rips\2017-05 Mei\Various Artists - De Pre Historie 1967 (1990) [FLAC] {BMG 260.739}\10 - Engelbert Humperdinck - Release Me.wav
Peak level 99.6 % Extraction speed 8.5 X Track quality 100.0 % Test CRC 6740397F Copy CRC 6740397F Accurately ripped (confidence 4) [FBFAC265] (AR v2) Copy OK
Track 11
Filename E:\EAC Rips\2017-05 Mei\Various Artists - De Pre Historie 1967 (1990) [FLAC] {BMG 260.739}\11 - Procol Harum - A Whiter Shade Of Pale.wav
Peak level 99.6 % Extraction speed 9.0 X Track quality 100.0 % Test CRC C41D8952 Copy CRC C41D8952 Accurately ripped (confidence 4) [CFF261BF] (AR v2) Copy OK
Track 12
Filename E:\EAC Rips\2017-05 Mei\Various Artists - De Pre Historie 1967 (1990) [FLAC] {BMG 260.739}\12 - Bobbie Gentry - Ode To Billy Joe.wav
Peak level 86.1 % Extraction speed 9.3 X Track quality 100.0 % Test CRC 5E8BC56D Copy CRC 5E8BC56D Accurately ripped (confidence 4) [6A9E1994] (AR v2) Copy OK
Track 13
Filename E:\EAC Rips\2017-05 Mei\Various Artists - De Pre Historie 1967 (1990) [FLAC] {BMG 260.739}\13 - Four Tops - Standing In The Shadows Of Love.wav
Peak level 69.7 % Extraction speed 8.8 X Track quality 100.0 % Test CRC 0E7E0A8C Copy CRC 0E7E0A8C Accurately ripped (confidence 3) [C85A4074] (AR v2) Copy OK
Track 14
Filename E:\EAC Rips\2017-05 Mei\Various Artists - De Pre Historie 1967 (1990) [FLAC] {BMG 260.739}\14 - Jess & James - Move.wav
Peak level 98.8 % Extraction speed 9.7 X Track quality 100.0 % Test CRC 6839A8F3 Copy CRC 6839A8F3 Accurately ripped (confidence 4) [04A55071] (AR v2) Copy OK
Track 15
Filename E:\EAC Rips\2017-05 Mei\Various Artists - De Pre Historie 1967 (1990) [FLAC] {BMG 260.739}\15 - The Spencer Davis Group - I'm A Man.wav
Peak level 87.8 % Extraction speed 9.5 X Track quality 100.0 % Test CRC B8CD75DE Copy CRC B8CD75DE Accurately ripped (confidence 3) [295CE4FB] (AR v2) Copy OK
Track 16
Filename E:\EAC Rips\2017-05 Mei\Various Artists - De Pre Historie 1967 (1990) [FLAC] {BMG 260.739}\16 - The Hollies - Carrie Anne.wav
Peak level 81.4 % Extraction speed 9.6 X Track quality 100.0 % Test CRC C21BA824 Copy CRC C21BA824 Accurately ripped (confidence 3) [D89E2B18] (AR v2) Copy OK
Track 17
Filename E:\EAC Rips\2017-05 Mei\Various Artists - De Pre Historie 1967 (1990) [FLAC] {BMG 260.739}\17 - Dave Dee, Dozy, Beaky, Mick & Tich - Zabadak.wav
Peak level 70.9 % Extraction speed 10.2 X Track quality 100.0 % Test CRC 620DECD7 Copy CRC 620DECD7 Accurately ripped (confidence 3) [318E8978] (AR v2) Copy OK
Track 18
Filename E:\EAC Rips\2017-05 Mei\Various Artists - De Pre Historie 1967 (1990) [FLAC] {BMG 260.739}\18 - Herd & Burns - From The Underworld.wav
Peak level 99.2 % Extraction speed 10.2 X Track quality 100.0 % Test CRC 27459072 Copy CRC 27459072 Accurately ripped (confidence 3) [8BDA874C] (AR v2) Copy OK
Track 19
Filename E:\EAC Rips\2017-05 Mei\Various Artists - De Pre Historie 1967 (1990) [FLAC] {BMG 260.739}\19 - Jeff Beck - Hi-Ho Silver Lining.wav
Peak level 89.4 % Extraction speed 10.2 X Track quality 100.0 % Test CRC 6137C3EE Copy CRC 6137C3EE Accurately ripped (confidence 3) [D9535E39] (AR v2) Copy OK
Track 20
Filename E:\EAC Rips\2017-05 Mei\Various Artists - De Pre Historie 1967 (1990) [FLAC] {BMG 260.739}\20 - Jefferson Airplane - Somebody To Love.wav
Peak level 90.7 % Extraction speed 8.2 X Track quality 99.9 % Test CRC 9E61A31D Copy CRC 9E61A31D Accurately ripped (confidence 3) [A50639A5] (AR v2) Copy OK
All tracks accurately ripped
No errors occurred
End of status report
---- CUETools DB Plugin V2.1.6
[CTDB TOCID: vw6DBON9h0yzhwgtC4k6tMpO.dQ-] foundSubmit result: vw6DBON9h0yzhwgtC4k6tMpO.dQ- has been confirmedTrack | CTDB Status 1 | (2/2) Accurately ripped 2 | (2/2) Accurately ripped 3 | (2/2) Accurately ripped 4 | (2/2) Accurately ripped 5 | (2/2) Accurately ripped 6 | (2/2) Accurately ripped 7 | (2/2) Accurately ripped 8 | (2/2) Accurately ripped 9 | (2/2) Accurately ripped 10 | (2/2) Accurately ripped 11 | (2/2) Accurately ripped 12 | (2/2) Accurately ripped 13 | (2/2) Accurately ripped 14 | (2/2) Accurately ripped 15 | (2/2) Accurately ripped 16 | (2/2) Accurately ripped 17 | (2/2) Accurately ripped 18 | (2/2) Accurately ripped 19 | (2/2) Accurately ripped 20 | (2/2) Accurately ripped
==== Log checksum 02DB491EFC2CB79232710E43820AD90370B2E9F6797C9599C2A8BBD27B214434 ====

Содержание индексной карты (.CUE)

REM DATE 1990REM DISCID 100FB414REM COMMENT "ExactAudioCopy v1.3"PERFORMER "Various Artists"TITLE "De Pre Historie 1967"REM COMPOSER ""FILE "01 - Bee Gees - Massachusetts.wav" WAVE  TRACK 01 AUDIO    TITLE "Massachusetts"    PERFORMER "Bee Gees"    REM COMPOSER ""    PREGAP 00:00:33    INDEX 01 00:00:00FILE "02 - Adamo - Inch Allah.wav" WAVE  TRACK 02 AUDIO    TITLE "Inch Allah"    PERFORMER "Adamo"    REM COMPOSER ""    INDEX 01 00:00:00FILE "03 - Keith West - Excerpt From A Teenage Opera.wav" WAVE  TRACK 03 AUDIO    TITLE "Excerpt From 'A Teenage Opera'"    PERFORMER "Keith West"    REM COMPOSER ""    INDEX 01 00:00:00FILE "04 - Herman’S Hermits - There's A Kind Of Hush.wav" WAVE  TRACK 04 AUDIO    TITLE "There's A Kind Of Hush"    PERFORMER "Herman’S Hermits"    REM COMPOSER ""    INDEX 01 00:00:00FILE "05 - Scott McKenzie - San Francisco.wav" WAVE  TRACK 05 AUDIO    TITLE "San Francisco"    PERFORMER "Scott McKenzie"    REM COMPOSER ""    INDEX 01 00:00:00FILE "06 - The Beach Boys - Good Vibrations.wav" WAVE  TRACK 06 AUDIO    TITLE "Good Vibrations"    PERFORMER "The Beach Boys"    REM COMPOSER ""    INDEX 01 00:00:00FILE "07 - Diana Ross & The Supremes - Reflections.wav" WAVE  TRACK 07 AUDIO    TITLE "Reflections"    PERFORMER "Diana Ross & The Supremes"    REM COMPOSER ""    INDEX 01 00:00:00FILE "08 - Sonny & Cher - The Beat Goes On.wav" WAVE  TRACK 08 AUDIO    TITLE "The Beat Goes On"    PERFORMER "Sonny & Cher"    REM COMPOSER ""    INDEX 01 00:00:00FILE "09 - Miriam Makeba - Pata Pata.wav" WAVE  TRACK 09 AUDIO    TITLE "Pata Pata"    PERFORMER "Miriam Makeba"    REM COMPOSER ""    INDEX 01 00:00:00FILE "10 - Engelbert Humperdinck - Release Me.wav" WAVE  TRACK 10 AUDIO    TITLE "Release Me"    PERFORMER "Engelbert Humperdinck"    REM COMPOSER ""    INDEX 01 00:00:00FILE "11 - Procol Harum - A Whiter Shade Of Pale.wav" WAVE  TRACK 11 AUDIO    TITLE "A Whiter Shade Of Pale"    PERFORMER "Procol Harum"    REM COMPOSER ""    INDEX 01 00:00:00FILE "12 - Bobbie Gentry - Ode To Billy Joe.wav" WAVE  TRACK 12 AUDIO    TITLE "Ode To Billy Joe"    PERFORMER "Bobbie Gentry"    REM COMPOSER ""    INDEX 01 00:00:00FILE "13 - Four Tops - Standing In The Shadows Of Love.wav" WAVE  TRACK 13 AUDIO    TITLE "Standing In The Shadows Of Love"    PERFORMER "Four Tops"    REM COMPOSER ""    INDEX 01 00:00:00FILE "14 - Jess & James - Move.wav" WAVE  TRACK 14 AUDIO    TITLE "Move"    PERFORMER "Jess & James"    REM COMPOSER ""    INDEX 01 00:00:00FILE "15 - The Spencer Davis Group - I'm A Man.wav" WAVE  TRACK 15 AUDIO    TITLE "I'm A Man"    PERFORMER "The Spencer Davis Group"    REM COMPOSER ""    INDEX 01 00:00:00FILE "16 - The Hollies - Carrie Anne.wav" WAVE  TRACK 16 AUDIO    TITLE "Carrie Anne"    PERFORMER "The Hollies"    REM COMPOSER ""    INDEX 01 00:00:00FILE "17 - Dave Dee, Dozy, Beaky, Mick & Tich - Zabadak.wav" WAVE  TRACK 17 AUDIO    TITLE "Zabadak"    PERFORMER "Dave Dee, Dozy, Beaky, Mick & Tich"    REM COMPOSER ""    INDEX 01 00:00:00FILE "18 - Herd & Burns - From The Underworld.wav" WAVE  TRACK 18 AUDIO    TITLE "From The Underworld"    PERFORMER "Herd & Burns"    REM COMPOSER ""    INDEX 01 00:00:00FILE "19 - Jeff Beck - Hi-Ho Silver Lining.wav" WAVE  TRACK 19 AUDIO    TITLE "Hi-Ho Silver Lining"    PERFORMER "Jeff Beck"    REM COMPOSER ""    INDEX 01 00:00:00FILE "20 - Jefferson Airplane - Somebody To Love.wav" WAVE  TRACK 20 AUDIO    TITLE "Somebody To Love"    PERFORMER "Jefferson Airplane"    REM COMPOSER ""    INDEX 01 00:00:00

AccurarateRip

[CUETools log; Date: 18.10.2018 17:40:17; Version: 2.1.5]Pregap length 00:00:33.[CTDB TOCID: vw6DBON9h0yzhwgtC4k6tMpO.dQ-] found.Track | CTDB Status  1   | (7/7) Accurately ripped  2   | (7/7) Accurately ripped  3   | (7/7) Accurately ripped  4   | (7/7) Accurately ripped  5   | (7/7) Accurately ripped  6   | (7/7) Accurately ripped  7   | (7/7) Accurately ripped  8   | (7/7) Accurately ripped  9   | (7/7) Accurately ripped 10   | (7/7) Accurately ripped 11   | (7/7) Accurately ripped 12   | (7/7) Accurately ripped 13   | (7/7) Accurately ripped 14   | (7/7) Accurately ripped 15   | (7/7) Accurately ripped 16   | (7/7) Accurately ripped 17   | (7/7) Accurately ripped 18   | (7/7) Accurately ripped 19   | (6/7) Accurately ripped 20   | (7/7) Accurately ripped[AccurateRip ID: 00313783-02cf8466-100fb414] found.Track   [  CRC   |   V2   ] Status 01     [f347c93d|5c94c0a1] (4+4/8) Accurately ripped 02     [8d5c0db3|88cdd50d] (4+3/7) Accurately ripped 03     [ae5128d8|8fd5502f] (4+4/8) Accurately ripped 04     [2c561f80|37f1357a] (4+4/8) Accurately ripped 05     [8e2704d5|d8481c85] (4+4/8) Accurately ripped 06     [e5ddb19d|9ee438ac] (4+4/8) Accurately ripped 07     [f26e3ded|508a2656] (5+3/8) Accurately ripped 08     [1d8a309c|d062f084] (5+4/9) Accurately ripped 09     [d1ce4e7f|3366679e] (5+3/8) Accurately ripped 10     [556ccd44|fbfac265] (4+4/8) Accurately ripped 11     [833da89a|cff261bf] (4+4/8) Accurately ripped 12     [47999324|6a9e1994] (4+4/8) Accurately ripped 13     [97a3992f|c85a4074] (5+3/8) Accurately ripped 14     [978cf2f6|04a55071] (5+4/9) Accurately ripped 15     [a75b7c5b|295ce4fb] (4+3/7) Accurately ripped 16     [0d25ad94|d89e2b18] (4+3/7) Accurately ripped 17     [545e9816|318e8978] (4+3/7) Accurately ripped 18     [3c783c9f|8bda874c] (4+3/7) Accurately ripped 19     [c737d27b|d9535e39] (5+3/8) Accurately ripped 20     [d3d6f81c|a50639a5] (5+3/8) Accurately ripped
Track Peak [ CRC32 ] [W/O NULL] [ LOG ] -- 99,6 [0C46D7CB] [5B550808] 01 94,6 [D27B4BDC] [61CF1C54] CRC32 02 99,2 [4FC1A32D] [932234A8] CRC32 03 76,3 [947ADA9E] [4D4D1ECA] CRC32 04 99,1 [19F11598] [FBC42892] CRC32 05 99,1 [C325F86F] [BBA18E04] CRC32 06 99,2 [A5AAF5F5] [44A0FF43] CRC32 07 99,2 [E03047F0] [B6B2D2BC] CRC32 08 90,2 [E1241AE3] [2CA189C9] CRC32 09 85,1 [55D8AD6E] [61473CA4] CRC32 10 99,6 [6740397F] [0CDEA01A] CRC32 11 99,6 [C41D8952] [29D34B64] CRC32 12 86,1 [5E8BC56D] [4C4030A4] CRC32 13 69,7 [0E7E0A8C] [EC998A01] CRC32 14 98,8 [6839A8F3] [2DDE7D0F] CRC32 15 87,8 [B8CD75DE] [58672919] CRC32 16 81,4 [C21BA824] [F7E14A11] CRC32 17 70,9 [620DECD7] [094FB3CE] CRC32 18 99,2 [27459072] [BA7B4383] CRC32 19 89,4 [6137C3EE] [16851657] CRC32 20 90,7 [9E61A31D] [B6758737] CRC32
Вы не можете начинать темы
Вы не можете отвечать на сообщения
Вы не можете редактировать свои сообщения
Вы не можете удалять свои сообщения
Вы не можете голосовать в опросах
Вы не можете прикреплять файлы к сообщениям
Вы можете скачивать файлы
!ВНИМАНИЕ!

Сайт не предоставляет электронные версии произведений, а занимается лишь коллекционированием и каталогизацией ссылок, присылаемых и публикуемых на форуме нашими читателями. Если вы являетесь правообладателем какого-либо представленного материала и не желаете, чтобы ссылка на него находилась в нашем каталоге, свяжитесь с нами, и мы незамедлительно удалим ее. Файлы для обмена на трекере предоставлены пользователями сайта, и администрация не несет ответственности за их содержание. Просьба не заливать файлы, защищенные авторскими правами, а также файлы нелегального содержания!

Искали программы, игры, дополнения, музыка mp3, аниме, аудио книги, журналы? Добро пожаловать на свободный торрент трекер Torrents, у нас можно скачать бесплатно, без смс и регистрации и прочих ограничений лучшие, отборные сборки программ, игр. Скачать торрентом не составит труда даже не опытному пользователю. Раздачи ежедневно обновляются, только лучшие и качественные раздачи, подробные описания и скриншоты. Огромная коллекция программ для работы со звуком, графикой, дизайном, а так же множество плагинов и инструментов к ним с подробной инструкцией и рекомендациями. Прошивки для навигаторов, карты. Разнообразные игры, для Windows, Linux. В коллекцие есть и старые игры любых жанров, Rpg, Action, Shooter, strategy Множество дополнений, модификаций, сценариев для популярных игр в жанре экш, рпг, гонки, стратегии, логические игры. Множество аддонов и сценариев для Microsoft Flight Simulator Большая коллекция книг, учебников. Если нет возможности купить печатное издание - смело скачивайте цифровую версию книги или, быть может, журнала. Не любите читать - можно загрузить бесплатно аудикнигу. Для веб дизайнеров и программистов так же найдется множество специализированного софта, таких как: редакторы с подсветкой, среды программирования, компоненты, системы управления базами данных, разнообразные скрипты и шаблоны. Не так давно у нас появился материал для автолюбителей и владельцев мото - оригинальные и неоригинальные каталоги запчастей, книги и журналы по ремонту и обслуживанию, видеоуроки, статьи по чип тюнингу, прошивкам. Процедура получения контента элементарная, достаточно просто скачать торрент файл и добавить его в загрузку в вашем торрент клиенте. Если у вас нет специального торрент клиента, вы можете его скачать у нас.

A Returner's Magic Should Be Special | Electric Kiss | December 3, 2018