(Various) [CD] VA - De Pre Historie 1984 [EMI/Virgin, 261.784, Belgium] - 1992, FLAC (tracks+.cue), lossless 

Цитировать
De Pre Historie 1984
Жанр: Various
Носитель: CD
Страна-производитель диска (релиза): Belgium
Год издания: 1992
Издатель (лейбл): EMI/Virgin
Номер по каталогу: 261.784
Аудиокодек: FLAC (*.flac)
Тип рипа: tracks+.cue
Битрейт аудио: lossless
Продолжительность: 01:13:58
Источник (релизер): From RED
Наличие сканов в содержимом раздачи: нет

Треклист:
01. Pat Benatar – Love Is A Battlefield
02. Rockwell – Somebody's Watching Me
03. Style Council – Shout To The Top
04. Alan Parsons Project – Don't Answer Me
05. Nik Kershaw – Wouldn't It Be Good
06. Sade – Smooth Operator
07. Flying Pickets – Only You
08. Miami Sound Machine – Dr. Beat
09. Duran Duran – The Reflex
10. Depeche Mode – People Are People
11. Talk Talk – Such A Shame
12. Fiction Factory – (Feels Like) Heaven
13. Tom Robinson Crew – Listen To The Radio
14. Lionel Richie – Hello
15. Nino de Angelo – Jenseits Von Eden
16. Snowy White – Bird Of Paradise
17. Pointer Sisters – Jump (For My Love)
18. Wham! – Freedom

Лог создания рипа

Exact Audio Copy V1.3 from 2. September 2016
EAC extraction logfile from 21. May 2017, 0:37
Various Artists / De Pre Historie 1984
Used drive : ATAPI iHAS124 F Adapter: 1 ID: 2
Read mode : SecureUtilize accurate stream : YesDefeat audio cache : YesMake use of C2 pointers : No
Read offset correction : 6Overread into Lead-In and Lead-Out : NoFill up missing offset samples with silence : YesDelete leading and trailing silent blocks : NoNull samples used in CRC calculations : YesUsed interface : Native Win32 interface for Win NT & 2000Gap handling : Appended to previous track
Used output format : User Defined EncoderSelected bitrate : 1024 kBit/sQuality : HighAdd ID3 tag : NoCommand line compressor : C:\cmd.exeAdditional command line options : /c ""C:\F\CUETools.FLACCL.cmd.exe" -8 --verify %source% -o %dest% & "C:\M\metaflac.exe" --set-tag="ARTIST=%artist%" --set-tag="TITLE=%title%" --set-tag="ALBUM=%albumtitle%" --set-tag="DATE=%year%" --set-tag="TRACKNUMBER=%tracknr%" --set-tag="GENRE=%genre%" --set-tag="COMPOSER=%composer%" --set-tag="ALBUMARTIST=%albumartist%" %dest%"
TOC of the extracted CD
Track | Start | Length | Start sector | End sector --------------------------------------------------------- 1 | 0:00.33 | 4:05.65 | 33 | 18472 2 | 4:06.23 | 3:45.62 | 18473 | 35409 3 | 7:52.10 | 3:25.03 | 35410 | 50787 4 | 11:17.13 | 4:08.72 | 50788 | 69459 5 | 15:26.10 | 4:27.08 | 69460 | 89492 6 | 19:53.18 | 4:58.02 | 89493 | 111844 7 | 24:51.20 | 3:22.18 | 111845 | 127012 8 | 28:13.38 | 4:22.72 | 127013 | 146734 9 | 32:36.35 | 4:23.13 | 146735 | 166472 10 | 36:59.48 | 3:52.57 | 166473 | 183929 11 | 40:52.30 | 4:19.35 | 183930 | 203389 12 | 45:11.65 | 3:31.68 | 203390 | 219282 13 | 48:43.58 | 3:43.17 | 219283 | 236024 14 | 52:27.00 | 4:07.25 | 236025 | 254574 15 | 56:34.25 | 3:51.43 | 254575 | 271942 16 | 60:25.68 | 4:06.47 | 271943 | 290439 17 | 64:32.40 | 4:26.15 | 290440 | 310404 18 | 68:58.55 | 5:02.53 | 310405 | 333107
Track 1
Filename E:\EAC Rips\2017-05 Mei\Various Artists - De Pre Historie 1984 (1992) [FLAC] {BMG 261.784}\01 - Pat Benatar - Love Is A Battlefield.wav
Pre-gap length 0:00:02.33
Peak level 99.2 % Extraction speed 2.1 X Track quality 100.0 % Test CRC F4EA081F Copy CRC F4EA081F Accurately ripped (confidence 4) [5EC619AB] (AR v2) Copy OK
Track 2
Filename E:\EAC Rips\2017-05 Mei\Various Artists - De Pre Historie 1984 (1992) [FLAC] {BMG 261.784}\02 - Rockwell - Somebody's Watching Me.wav
Pre-gap length 0:00:01.03
Peak level 94.6 % Extraction speed 2.3 X Track quality 100.0 % Test CRC 8703FE3D Copy CRC 8703FE3D Accurately ripped (confidence 4) [884EFA36] (AR v2) Copy OK
Track 3
Filename E:\EAC Rips\2017-05 Mei\Various Artists - De Pre Historie 1984 (1992) [FLAC] {BMG 261.784}\03 - The Style Council - Shout To The Top.wav
Peak level 90.1 % Extraction speed 2.4 X Track quality 100.0 % Test CRC 837E4DA5 Copy CRC 837E4DA5 Accurately ripped (confidence 4) [27AAA6B3] (AR v2) Copy OK
Track 4
Filename E:\EAC Rips\2017-05 Mei\Various Artists - De Pre Historie 1984 (1992) [FLAC] {BMG 261.784}\04 - The Alan Parsons Project - Don't Answer Me.wav
Pre-gap length 0:00:01.00
Peak level 92.6 % Extraction speed 2.4 X Track quality 99.9 % Test CRC F58A15E3 Copy CRC F58A15E3 Accurately ripped (confidence 3) [9D3B051D] (AR v2) Copy OK
Track 5
Filename E:\EAC Rips\2017-05 Mei\Various Artists - De Pre Historie 1984 (1992) [FLAC] {BMG 261.784}\05 - Nik Kershaw - Wouldn't It Be Good.wav
Peak level 78.3 % Extraction speed 2.9 X Track quality 100.0 % Test CRC 74D0C860 Copy CRC 74D0C860 Accurately ripped (confidence 4) [8B63D2A2] (AR v2) Copy OK
Track 6
Filename E:\EAC Rips\2017-05 Mei\Various Artists - De Pre Historie 1984 (1992) [FLAC] {BMG 261.784}\06 - Sade - Smooth Operator.wav
Peak level 72.4 % Extraction speed 3.1 X Track quality 100.0 % Test CRC D03F4C17 Copy CRC D03F4C17 Accurately ripped (confidence 4) [81BB3848] (AR v2) Copy OK
Track 7
Filename E:\EAC Rips\2017-05 Mei\Various Artists - De Pre Historie 1984 (1992) [FLAC] {BMG 261.784}\07 - The Flying Pickets - Only You.wav
Peak level 95.0 % Extraction speed 3.1 X Track quality 100.0 % Test CRC F0F329CC Copy CRC F0F329CC Accurately ripped (confidence 4) [5E71538C] (AR v2) Copy OK
Track 8
Filename E:\EAC Rips\2017-05 Mei\Various Artists - De Pre Historie 1984 (1992) [FLAC] {BMG 261.784}\08 - Miami Sound Machine - Dr. Beat.wav
Peak level 97.7 % Extraction speed 3.0 X Track quality 99.9 % Test CRC 8FFA3503 Copy CRC 8FFA3503 Accurately ripped (confidence 4) [F46A0CDE] (AR v2) Copy OK
Track 9
Filename E:\EAC Rips\2017-05 Mei\Various Artists - De Pre Historie 1984 (1992) [FLAC] {BMG 261.784}\09 - Duran Duran - The Reflex.wav
Peak level 96.9 % Extraction speed 3.5 X Track quality 100.0 % Test CRC AB6B4DC7 Copy CRC AB6B4DC7 Accurately ripped (confidence 4) [DD87DC43] (AR v2) Copy OK
Track 10
Filename E:\EAC Rips\2017-05 Mei\Various Artists - De Pre Historie 1984 (1992) [FLAC] {BMG 261.784}\10 - Depeche Mode - People Are People.wav
Peak level 99.2 % Extraction speed 3.2 X Track quality 99.9 % Test CRC A4E3C466 Copy CRC A4E3C466 Accurately ripped (confidence 4) [8B284E1F] (AR v2) Copy OK
Track 11
Filename E:\EAC Rips\2017-05 Mei\Various Artists - De Pre Historie 1984 (1992) [FLAC] {BMG 261.784}\11 - Talk Talk - Such A Shame.wav
Peak level 99.2 % Extraction speed 3.7 X Track quality 100.0 % Test CRC BD0067D1 Copy CRC BD0067D1 Accurately ripped (confidence 4) [27FAA0E2] (AR v2) Copy OK
Track 12
Filename E:\EAC Rips\2017-05 Mei\Various Artists - De Pre Historie 1984 (1992) [FLAC] {BMG 261.784}\12 - Fiction Factory - Feels Like Heaven.wav
Peak level 96.2 % Extraction speed 3.8 X Track quality 100.0 % Test CRC E4388A0F Copy CRC E4388A0F Accurately ripped (confidence 4) [C4FA5117] (AR v2) Copy OK
Track 13
Filename E:\EAC Rips\2017-05 Mei\Various Artists - De Pre Historie 1984 (1992) [FLAC] {BMG 261.784}\13 - Tom Robinson Band - Listen To The Radio.wav
Pre-gap length 0:00:01.23
Peak level 72.5 % Extraction speed 3.9 X Track quality 100.0 % Test CRC 6775F1CC Copy CRC 6775F1CC Accurately ripped (confidence 4) [DFE9A15C] (AR v2) Copy OK
Track 14
Filename E:\EAC Rips\2017-05 Mei\Various Artists - De Pre Historie 1984 (1992) [FLAC] {BMG 261.784}\14 - Lionel Richie - Hello.wav
Peak level 93.3 % Extraction speed 3.6 X Track quality 99.9 % Test CRC 4FFC48B9 Copy CRC 4FFC48B9 Accurately ripped (confidence 4) [838E4B70] (AR v2) Copy OK
Track 15
Filename E:\EAC Rips\2017-05 Mei\Various Artists - De Pre Historie 1984 (1992) [FLAC] {BMG 261.784}\15 - Nino De Angelo - Jenseits Von Eden.wav
Peak level 94.8 % Extraction speed 4.1 X Track quality 100.0 % Test CRC FF1DBA36 Copy CRC FF1DBA36 Accurately ripped (confidence 4) [E6643890] (AR v2) Copy OK
Track 16
Filename E:\EAC Rips\2017-05 Mei\Various Artists - De Pre Historie 1984 (1992) [FLAC] {BMG 261.784}\16 - Snowy White - Bird Of Paradise.wav
Peak level 81.0 % Extraction speed 3.8 X Track quality 99.9 % Test CRC F4A94157 Copy CRC F4A94157 Accurately ripped (confidence 4) [765DF55D] (AR v2) Copy OK
Track 17
Filename E:\EAC Rips\2017-05 Mei\Various Artists - De Pre Historie 1984 (1992) [FLAC] {BMG 261.784}\17 - The Pointer Sisters - Jump (For My Love).wav
Peak level 99.2 % Extraction speed 4.3 X Track quality 100.0 % Test CRC FEFE73D0 Copy CRC FEFE73D0 Accurately ripped (confidence 4) [7E689E80] (AR v2) Copy OK
Track 18
Filename E:\EAC Rips\2017-05 Mei\Various Artists - De Pre Historie 1984 (1992) [FLAC] {BMG 261.784}\18 - Wham! - Freedom.wav
Peak level 89.3 % Extraction speed 4.5 X Track quality 100.0 % Test CRC 3281A8BE Copy CRC 3281A8BE Accurately ripped (confidence 2) [7568CF2A] (AR v2) Copy OK
All tracks accurately ripped
No errors occurred
End of status report
---- CUETools DB Plugin V2.1.6
[CTDB TOCID: r2ZsdUndF5bEzJyOXIPG9lgQ.ks-] foundSubmit result: r2ZsdUndF5bEzJyOXIPG9lgQ.ks- has been confirmedTrack | CTDB Status 1 | (10/10) Accurately ripped 2 | (10/10) Accurately ripped 3 | (10/10) Accurately ripped 4 | (10/10) Accurately ripped 5 | (10/10) Accurately ripped 6 | (10/10) Accurately ripped 7 | (10/10) Accurately ripped 8 | (10/10) Accurately ripped 9 | ( 9/10) Accurately ripped, or (1/10) differs in 312 samples @01:23:71,01:24:09,01:26:67,01:28:53,01:30:22-01:30:23,01:30:73,01:31:49,01:31:66,01:32:08,01:32:42,01:34:28,01:34:45-01:34:46,01:34:62-01:34:63,01:35:21,01:36:31-01:36:32,01:37:25,01:38:69-01:38:70,01:41:65-01:41:66,01:43:18-01:43:19,01:43:35,01:46:66,01:50:22-01:50:23,01:52:09,01:53:70 10 | (10/10) Accurately ripped 11 | (10/10) Accurately ripped 12 | (10/10) Accurately ripped 13 | (10/10) Accurately ripped 14 | (10/10) Accurately ripped 15 | (10/10) Accurately ripped 16 | (10/10) Accurately ripped 17 | (10/10) Accurately ripped 18 | (10/10) Accurately ripped
==== Log checksum B8A98A4124647DCE7567454B81A2AA8820367FEA6672A0E9C12C9E50F066817E ====

Содержание индексной карты (.CUE)

REM DATE 1992REM DISCID 22115912REM COMMENT "ExactAudioCopy v1.3"PERFORMER "Various Artists"TITLE "De Pre Historie 1984"REM COMPOSER ""FILE "01 - Pat Benatar - Love Is A Battlefield.wav" WAVE  TRACK 01 AUDIO    TITLE "Love Is A Battlefield"    PERFORMER "Pat Benatar"    REM COMPOSER ""    PREGAP 00:00:33    INDEX 01 00:00:00  TRACK 02 AUDIO    TITLE "Somebody's Watching Me"    PERFORMER "Rockwell"    REM COMPOSER ""    INDEX 00 04:04:62FILE "02 - Rockwell - Somebody's Watching Me.wav" WAVE    INDEX 01 00:00:00FILE "03 - The Style Council - Shout To The Top.wav" WAVE  TRACK 03 AUDIO    TITLE "Shout To The Top"    PERFORMER "The Style Council"    REM COMPOSER ""    INDEX 01 00:00:00  TRACK 04 AUDIO    TITLE "Don't Answer Me"    PERFORMER "The Alan Parsons Project"    REM COMPOSER ""    INDEX 00 03:24:03FILE "04 - The Alan Parsons Project - Don't Answer Me.wav" WAVE    INDEX 01 00:00:00FILE "05 - Nik Kershaw - Wouldn't It Be Good.wav" WAVE  TRACK 05 AUDIO    TITLE "Wouldn't It Be Good"    PERFORMER "Nik Kershaw"    REM COMPOSER ""    INDEX 01 00:00:00FILE "06 - Sade - Smooth Operator.wav" WAVE  TRACK 06 AUDIO    TITLE "Smooth Operator"    PERFORMER "Sade"    REM COMPOSER ""    INDEX 01 00:00:00FILE "07 - The Flying Pickets - Only You.wav" WAVE  TRACK 07 AUDIO    TITLE "Only You"    PERFORMER "The Flying Pickets"    REM COMPOSER ""    INDEX 01 00:00:00FILE "08 - Miami Sound Machine - Dr. Beat.wav" WAVE  TRACK 08 AUDIO    TITLE "Dr. Beat"    PERFORMER "Miami Sound Machine"    REM COMPOSER ""    INDEX 01 00:00:00FILE "09 - Duran Duran - The Reflex.wav" WAVE  TRACK 09 AUDIO    TITLE "The Reflex"    PERFORMER "Duran Duran"    REM COMPOSER ""    INDEX 01 00:00:00FILE "10 - Depeche Mode - People Are People.wav" WAVE  TRACK 10 AUDIO    TITLE "People Are People"    PERFORMER "Depeche Mode"    REM COMPOSER ""    INDEX 01 00:00:00FILE "11 - Talk Talk - Such A Shame.wav" WAVE  TRACK 11 AUDIO    TITLE "Such A Shame"    PERFORMER "Talk Talk"    REM COMPOSER ""    INDEX 01 00:00:00FILE "12 - Fiction Factory - Feels Like Heaven.wav" WAVE  TRACK 12 AUDIO    TITLE "Feels Like Heaven"    PERFORMER "Fiction Factory"    REM COMPOSER ""    INDEX 01 00:00:00  TRACK 13 AUDIO    TITLE "Listen To The Radio"    PERFORMER "Tom Robinson Band"    REM COMPOSER ""    INDEX 00 03:30:45FILE "13 - Tom Robinson Band - Listen To The Radio.wav" WAVE    INDEX 01 00:00:00FILE "14 - Lionel Richie - Hello.wav" WAVE  TRACK 14 AUDIO    TITLE "Hello"    PERFORMER "Lionel Richie"    REM COMPOSER ""    INDEX 01 00:00:00FILE "15 - Nino De Angelo - Jenseits Von Eden.wav" WAVE  TRACK 15 AUDIO    TITLE "Jenseits Von Eden"    PERFORMER "Nino De Angelo"    REM COMPOSER ""    INDEX 01 00:00:00FILE "16 - Snowy White - Bird Of Paradise.wav" WAVE  TRACK 16 AUDIO    TITLE "Bird Of Paradise"    PERFORMER "Snowy White"    REM COMPOSER ""    INDEX 01 00:00:00FILE "17 - The Pointer Sisters - Jump (For My Love).wav" WAVE  TRACK 17 AUDIO    TITLE "Jump (For My Love)"    PERFORMER "The Pointer Sisters"    REM COMPOSER ""    INDEX 01 00:00:00FILE "18 - Wham! - Freedom.wav" WAVE  TRACK 18 AUDIO    TITLE "Freedom"    PERFORMER "Wham!"    REM COMPOSER ""    INDEX 01 00:00:00

AccurateRip

[CUETools log; Date: 21.10.2018 11:47:39; Version: 2.1.5]Pregap length 00:00:33.[CTDB TOCID: r2ZsdUndF5bEzJyOXIPG9lgQ.ks-] found.Track | CTDB Status  1   | (19/19) Accurately ripped  2   | (19/19) Accurately ripped  3   | (19/19) Accurately ripped  4   | (19/19) Accurately ripped  5   | (19/19) Accurately ripped  6   | (19/19) Accurately ripped  7   | (19/19) Accurately ripped  8   | (19/19) Accurately ripped  9   | (18/19) Accurately ripped 10   | (19/19) Accurately ripped 11   | (19/19) Accurately ripped 12   | (19/19) Accurately ripped 13   | (19/19) Accurately ripped 14   | (19/19) Accurately ripped 15   | (19/19) Accurately ripped 16   | (19/19) Accurately ripped 17   | (19/19) Accurately ripped 18   | (19/19) Accurately ripped[AccurateRip ID: 002f96e6-027ba471-22115912] found.Track   [  CRC   |   V2   ] Status 01     [07c8df1a|5ec619ab] (03+06/22) Accurately ripped 02     [c6b6b30c|884efa36] (03+06/22) Accurately ripped 03     [a4d073fb|27aaa6b3] (03+06/21) Accurately ripped 04     [d910df68|9d3b051d] (03+05/21) Accurately ripped 05     [3b21be0c|8b63d2a2] (03+06/22) Accurately ripped 06     [f332ec92|81bb3848] (03+06/21) Accurately ripped 07     [6dfa4aa1|5e71538c] (03+06/21) Accurately ripped 08     [c66becd1|f46a0cde] (03+06/20) Accurately ripped 09     [d038b249|dd87dc43] (03+06/20) Accurately ripped 10     [ac45e469|8b284e1f] (03+06/20) Accurately ripped 11     [0b0e8106|27faa0e2] (03+06/21) Accurately ripped 12     [4d0d6b48|c4fa5117] (03+06/22) Accurately ripped 13     [fbce9fd8|dfe9a15c] (03+06/22) Accurately ripped 14     [4905c0cf|838e4b70] (03+06/22) Accurately ripped 15     [81698b68|e6643890] (03+06/21) Accurately ripped 16     [b770e447|765df55d] (02+06/20) Accurately ripped 17     [9e3a5221|7e689e80] (02+06/19) Accurately ripped 18     [3b3eab48|7568cf2a] (02+04/17) Accurately rippedOffsetted by -1341: 01     [0daee220] (05/22) Accurately ripped 02     [4eb882c3] (05/22) Accurately ripped 03     [b874a22b] (04/21) Accurately ripped 04     [f39295db] (05/21) Accurately ripped 05     [6d4ac6d2] (05/22) Accurately ripped 06     [6ed94c30] (05/21) Accurately ripped 07     [6e5bcd9a] (05/21) Accurately ripped 08     [b847be91] (04/20) Accurately ripped 09     [ff6849db] (05/20) Accurately ripped 10     [5d44d4ea] (04/20) Accurately ripped 11     [d5c60094] (05/21) Accurately ripped 12     [1c01cc14] (05/22) Accurately ripped 13     [dbcba4e5] (05/22) Accurately ripped 14     [6fcb8146] (05/22) Accurately ripped 15     [5ce0758c] (04/21) Accurately ripped 16     [4d5b3167] (05/20) Accurately ripped 17     [7d41fc43] (04/19) Accurately ripped 18     [f45b3319] (04/17) Accurately ripped
Track Peak [ CRC32 ] [W/O NULL] [ LOG ] -- 99,2 [A885F654] [861DB198] 01 99,2 [F4EA081F] [E2E7A2A4] CRC32 02 94,6 [8703FE3D] [D6A659F5] CRC32 03 90,1 [837E4DA5] [B039DEF1] CRC32 04 92,6 [F58A15E3] [818258ED] CRC32 05 78,3 [74D0C860] [A21A5F1E] CRC32 06 72,4 [D03F4C17] [436B8917] CRC32 07 95,0 [F0F329CC] [9A09D1E3] CRC32 08 97,7 [8FFA3503] [16F859A1] CRC32 09 96,9 [AB6B4DC7] [0F5ECCFF] CRC32 10 99,2 [A4E3C466] [4BA959F3] CRC32 11 99,2 [BD0067D1] [28F5E303] CRC32 12 96,2 [E4388A0F] [7BC59E18] CRC32 13 72,5 [6775F1CC] [7520B9CA] CRC32 14 93,3 [4FFC48B9] [C50CAAF8] CRC32 15 94,8 [FF1DBA36] [7D8200AA] CRC32 16 81,0 [F4A94157] [49CB87C6] CRC32 17 99,2 [FEFE73D0] [C5A011E2] CRC32 18 89,3 [3281A8BE] [C51D1389] CRC32
Вы не можете начинать темы
Вы не можете отвечать на сообщения
Вы не можете редактировать свои сообщения
Вы не можете удалять свои сообщения
Вы не можете голосовать в опросах
Вы не можете прикреплять файлы к сообщениям
Вы можете скачивать файлы
!ВНИМАНИЕ!

Сайт не предоставляет электронные версии произведений, а занимается лишь коллекционированием и каталогизацией ссылок, присылаемых и публикуемых на форуме нашими читателями. Если вы являетесь правообладателем какого-либо представленного материала и не желаете, чтобы ссылка на него находилась в нашем каталоге, свяжитесь с нами, и мы незамедлительно удалим ее. Файлы для обмена на трекере предоставлены пользователями сайта, и администрация не несет ответственности за их содержание. Просьба не заливать файлы, защищенные авторскими правами, а также файлы нелегального содержания!

Искали программы, игры, дополнения, музыка mp3, аниме, аудио книги, журналы? Добро пожаловать на свободный торрент трекер Torrents, у нас можно скачать бесплатно, без смс и регистрации и прочих ограничений лучшие, отборные сборки программ, игр. Скачать торрентом не составит труда даже не опытному пользователю. Раздачи ежедневно обновляются, только лучшие и качественные раздачи, подробные описания и скриншоты. Огромная коллекция программ для работы со звуком, графикой, дизайном, а так же множество плагинов и инструментов к ним с подробной инструкцией и рекомендациями. Прошивки для навигаторов, карты. Разнообразные игры, для Windows, Linux. В коллекцие есть и старые игры любых жанров, Rpg, Action, Shooter, strategy Множество дополнений, модификаций, сценариев для популярных игр в жанре экш, рпг, гонки, стратегии, логические игры. Множество аддонов и сценариев для Microsoft Flight Simulator Большая коллекция книг, учебников. Если нет возможности купить печатное издание - смело скачивайте цифровую версию книги или, быть может, журнала. Не любите читать - можно загрузить бесплатно аудикнигу. Для веб дизайнеров и программистов так же найдется множество специализированного софта, таких как: редакторы с подсветкой, среды программирования, компоненты, системы управления базами данных, разнообразные скрипты и шаблоны. Не так давно у нас появился материал для автолюбителей и владельцев мото - оригинальные и неоригинальные каталоги запчастей, книги и журналы по ремонту и обслуживанию, видеоуроки, статьи по чип тюнингу, прошивкам. Процедура получения контента элементарная, достаточно просто скачать торрент файл и добавить его в загрузку в вашем торрент клиенте. Если у вас нет специального торрент клиента, вы можете его скачать у нас.

Michaël Attias Quartet - Nerve Dance (2017) | 29.11.1819:38 Uhr Hitzefrei.18.09.17.LadyKinkyCat.When.The.Neighbor.Cums.Twice.GERMAN.XXX.1080p.MP4-KTR 0 / 01.502 Hits VID P2P DDL 0 Kommentare | التسوق الخاطف