(Various) [CD] VA - De Pre Historie 1971 [EMI/Virgin, 260.743, Belgium] - 1991, FLAC (tracks+.cue), lossless 

Цитировать
De Pre Historie 1971
Жанр: Various
Носитель: CD
Страна-производитель диска (релиза): Belgium
Год издания: 1991
Издатель (лейбл): EMI/Virgin
Номер по каталогу: 260.743
Аудиокодек: FLAC (*.flac)
Тип рипа: tracks+.cue
Битрейт аудио: lossless
Продолжительность: 01:04:47
Источник (релизер): From RED
Наличие сканов в содержимом раздачи: нет

Треклист:
01. Danyel Gerard – Butterfly
02. Middle Of The Road – Soley Soley
03. Redbone – The Witch Queen Of New Orleans
04. Sweet – Funny Funny
05. The New Seekers – I'd Like To Teach The World To Sing
06. Michel Delpech – Pour Un Flirt
07. Cher – Gypsies, Tramps And Thieves
08. Bill Withers – Ain't No Sunshine
09. Ike & Tina Turner – Proud Mary
10. Rod Stewart – Maggie May
11. The Bee Gees – Lonely Days
12. Jose Feliciano – Che Sara
13. Dawn – Knock Three Times
14. Peter Maffay – Du
15. The Fortunes – Here Comes That Rainy Day Feeling Again
16. Lynn Anderson – Rose Garden
17. Tom Jones – She's A Lady
18. Gilbert Montagne – The Fool
19. Aretha Franklin – Spanish Harlem
20. Focus – House Of The King

Лог создания рипа

Exact Audio Copy V1.3 from 2. September 2016
EAC extraction logfile from 19. May 2017, 1:27
Various Artists / De Pre Historie 1971
Used drive : ATAPI iHAS124 F Adapter: 1 ID: 1
Read mode : SecureUtilize accurate stream : YesDefeat audio cache : YesMake use of C2 pointers : No
Read offset correction : 6Overread into Lead-In and Lead-Out : NoFill up missing offset samples with silence : YesDelete leading and trailing silent blocks : NoNull samples used in CRC calculations : YesUsed interface : Native Win32 interface for Win NT & 2000Gap handling : Appended to previous track
Used output format : User Defined EncoderSelected bitrate : 1024 kBit/sQuality : HighAdd ID3 tag : NoCommand line compressor : C:\cmd.exeAdditional command line options : /c ""C:\F\CUETools.FLACCL.cmd.exe" -8 --verify %source% -o %dest% & "C:\M\metaflac.exe" --set-tag="ARTIST=%artist%" --set-tag="TITLE=%title%" --set-tag="ALBUM=%albumtitle%" --set-tag="DATE=%year%" --set-tag="TRACKNUMBER=%tracknr%" --set-tag="GENRE=%genre%" --set-tag="COMPOSER=%composer%" --set-tag="ALBUMARTIST=%albumartist%" %dest%"
TOC of the extracted CD
Track | Start | Length | Start sector | End sector --------------------------------------------------------- 1 | 0:00.33 | 3:27.62 | 33 | 15619 2 | 3:28.20 | 3:04.65 | 15620 | 29484 3 | 6:33.10 | 2:43.48 | 29485 | 41757 4 | 9:16.58 | 2:45.50 | 41758 | 54182 5 | 12:02.33 | 2:22.40 | 54183 | 64872 6 | 14:24.73 | 3:24.52 | 64873 | 80224 7 | 17:49.50 | 2:33.00 | 80225 | 91699 8 | 20:22.50 | 2:03.68 | 91700 | 100992 9 | 22:26.43 | 4:55.07 | 100993 | 123124 10 | 27:21.50 | 5:13.28 | 123125 | 146627 11 | 32:35.03 | 3:44.25 | 146628 | 163452 12 | 36:19.28 | 3:31.65 | 163453 | 179342 13 | 39:51.18 | 2:55.70 | 179343 | 192537 14 | 42:47.13 | 4:56.60 | 192538 | 214797 15 | 47:43.73 | 2:48.15 | 214798 | 227412 16 | 50:32.13 | 2:48.25 | 227413 | 240037 17 | 53:20.38 | 2:50.22 | 240038 | 252809 18 | 56:10.60 | 3:08.20 | 252810 | 266929 19 | 59:19.05 | 3:29.05 | 266930 | 282609 20 | 62:48.10 | 2:21.23 | 282610 | 293207
Track 1
Filename E:\EAC Rips\2017-05 Mei\Various Artists - De Pre Historie 1971 (1991) [FLAC] {BMG 260.743}\01 - Danyel Gerard - Butterfly.wav
Pre-gap length 0:00:02.33
Peak level 91.1 % Extraction speed 4.9 X Track quality 99.9 % Test CRC AD7D1A3B Copy CRC AD7D1A3B Accurately ripped (confidence 5) [6432097F] (AR v2) Copy OK
Track 2
Filename E:\EAC Rips\2017-05 Mei\Various Artists - De Pre Historie 1971 (1991) [FLAC] {BMG 260.743}\02 - Middle Of The Road - Soley Soley.wav
Pre-gap length 0:00:01.42
Peak level 88.8 % Extraction speed 6.0 X Track quality 100.0 % Test CRC 14D61766 Copy CRC 14D61766 Accurately ripped (confidence 5) [D0613EC4] (AR v2) Copy OK
Track 3
Filename E:\EAC Rips\2017-05 Mei\Various Artists - De Pre Historie 1971 (1991) [FLAC] {BMG 260.743}\03 - Redbone - The Witch Queen Of New Orleans.wav
Pre-gap length 0:00:01.07
Peak level 99.1 % Extraction speed 5.2 X Track quality 99.9 % Test CRC E1AD353E Copy CRC E1AD353E Accurately ripped (confidence 5) [CFB7CB90] (AR v2) Copy OK
Track 4
Filename E:\EAC Rips\2017-05 Mei\Various Artists - De Pre Historie 1971 (1991) [FLAC] {BMG 260.743}\04 - Sweet - Funny Funny.wav
Pre-gap length 0:00:01.60
Peak level 88.4 % Extraction speed 5.5 X Track quality 99.9 % Test CRC 14FC4EFF Copy CRC 14FC4EFF Accurately ripped (confidence 5) [D67D1C69] (AR v2) Copy OK
Track 5
Filename E:\EAC Rips\2017-05 Mei\Various Artists - De Pre Historie 1971 (1991) [FLAC] {BMG 260.743}\05 - The New Seekers - I'd Like To Teach The World To Sing.wav
Pre-gap length 0:00:01.13
Peak level 85.7 % Extraction speed 6.5 X Track quality 100.0 % Test CRC 0DB79718 Copy CRC 0DB79718 Accurately ripped (confidence 5) [536ED31A] (AR v2) Copy OK
Track 6
Filename E:\EAC Rips\2017-05 Mei\Various Artists - De Pre Historie 1971 (1991) [FLAC] {BMG 260.743}\06 - Michel Delpech - Pour Un Flirt.wav
Pre-gap length 0:00:00.53
Peak level 92.1 % Extraction speed 7.3 X Track quality 100.0 % Test CRC DD014215 Copy CRC DD014215 Accurately ripped (confidence 5) [9FEAB968] (AR v2) Copy OK
Track 7
Filename E:\EAC Rips\2017-05 Mei\Various Artists - De Pre Historie 1971 (1991) [FLAC] {BMG 260.743}\07 - Cher - Gypsies, Tramps And Thieves.wav
Pre-gap length 0:00:01.60
Peak level 100.0 % Extraction speed 7.2 X Track quality 100.0 % Test CRC 4CEB2A65 Copy CRC 4CEB2A65 Accurately ripped (confidence 5) [57F10191] (AR v2) Copy OK
Track 8
Filename E:\EAC Rips\2017-05 Mei\Various Artists - De Pre Historie 1971 (1991) [FLAC] {BMG 260.743}\08 - Bill Withers - Ain't No Sunshine.wav
Pre-gap length 0:00:01.05
Peak level 84.3 % Extraction speed 7.0 X Track quality 100.0 % Test CRC E3C843E4 Copy CRC E3C843E4 Accurately ripped (confidence 5) [49AFD74F] (AR v2) Copy OK
Track 9
Filename E:\EAC Rips\2017-05 Mei\Various Artists - De Pre Historie 1971 (1991) [FLAC] {BMG 260.743}\09 - Ike & Tina Turner - Proud Mary.wav
Pre-gap length 0:00:01.00
Peak level 97.7 % Extraction speed 8.5 X Track quality 100.0 % Test CRC B18CD1B6 Copy CRC B18CD1B6 Accurately ripped (confidence 5) [4F744722] (AR v2) Copy OK
Track 10
Filename E:\EAC Rips\2017-05 Mei\Various Artists - De Pre Historie 1971 (1991) [FLAC] {BMG 260.743}\10 - Rod Stewart - Maggie May.wav
Pre-gap length 0:00:01.00
Peak level 72.7 % Extraction speed 8.2 X Track quality 99.9 % Test CRC C8E8871A Copy CRC C8E8871A Accurately ripped (confidence 5) [23830460] (AR v2) Copy OK
Track 11
Filename E:\EAC Rips\2017-05 Mei\Various Artists - De Pre Historie 1971 (1991) [FLAC] {BMG 260.743}\11 - The Bee Gees - Lonely Days.wav
Pre-gap length 0:00:01.00
Peak level 93.2 % Extraction speed 9.0 X Track quality 100.0 % Test CRC 999B548C Copy CRC 999B548C Accurately ripped (confidence 5) [B935FB40] (AR v2) Copy OK
Track 12
Filename E:\EAC Rips\2017-05 Mei\Various Artists - De Pre Historie 1971 (1991) [FLAC] {BMG 260.743}\12 - José Feliciano - Che Sara.wav
Pre-gap length 0:00:01.03
Peak level 71.8 % Extraction speed 9.1 X Track quality 100.0 % Test CRC B33E81A7 Copy CRC B33E81A7 Accurately ripped (confidence 5) [9E7B589B] (AR v2) Copy OK
Track 13
Filename E:\EAC Rips\2017-05 Mei\Various Artists - De Pre Historie 1971 (1991) [FLAC] {BMG 260.743}\13 - Dawn - Knock Three Times.wav
Pre-gap length 0:00:01.20
Peak level 67.7 % Extraction speed 7.8 X Track quality 99.9 % Test CRC AECDE9CD Copy CRC AECDE9CD Accurately ripped (confidence 5) [497FCEC5] (AR v2) Copy OK
Track 14
Filename E:\EAC Rips\2017-05 Mei\Various Artists - De Pre Historie 1971 (1991) [FLAC] {BMG 260.743}\14 - Peter Maffay - Du.wav
Pre-gap length 0:00:01.00
Peak level 66.9 % Extraction speed 9.1 X Track quality 99.9 % Test CRC FC04C832 Copy CRC FC04C832 Accurately ripped (confidence 5) [F6BF1186] (AR v2) Copy OK
Track 15
Filename E:\EAC Rips\2017-05 Mei\Various Artists - De Pre Historie 1971 (1991) [FLAC] {BMG 260.743}\15 - The Fortunes - Here Comes That Rainy Day Feeling Again.wav
Pre-gap length 0:00:01.00
Peak level 94.7 % Extraction speed 9.4 X Track quality 100.0 % Test CRC 62B352D5 Copy CRC 62B352D5 Accurately ripped (confidence 4) [092DD253] (AR v2) Copy OK
Track 16
Filename E:\EAC Rips\2017-05 Mei\Various Artists - De Pre Historie 1971 (1991) [FLAC] {BMG 260.743}\16 - Lynn Anderson - Rose Garden.wav
Pre-gap length 0:00:01.00
Peak level 74.9 % Extraction speed 8.3 X Track quality 99.9 % Test CRC 3DD7C0E9 Copy CRC 3DD7C0E9 Accurately ripped (confidence 5) [9BEE7083] (AR v2) Copy OK
Track 17
Filename E:\EAC Rips\2017-05 Mei\Various Artists - De Pre Historie 1971 (1991) [FLAC] {BMG 260.743}\17 - Tom Jones - She's A Lady.wav
Pre-gap length 0:00:01.00
Peak level 70.2 % Extraction speed 8.5 X Track quality 99.9 % Test CRC 5C0EB7E4 Copy CRC 5C0EB7E4 Accurately ripped (confidence 5) [1EACDDBA] (AR v2) Copy OK
Track 18
Filename E:\EAC Rips\2017-05 Mei\Various Artists - De Pre Historie 1971 (1991) [FLAC] {BMG 260.743}\18 - Gilbert Montagne - The Fool.wav
Pre-gap length 0:00:01.00
Peak level 81.3 % Extraction speed 10.0 X Track quality 100.0 % Test CRC E43C1214 Copy CRC E43C1214 Accurately ripped (confidence 4) [02E12A77] (AR v2) Copy OK
Track 19
Filename E:\EAC Rips\2017-05 Mei\Various Artists - De Pre Historie 1971 (1991) [FLAC] {BMG 260.743}\19 - Aretha Franklin - Spanish Harlem.wav
Pre-gap length 0:00:01.00
Peak level 85.3 % Extraction speed 10.5 X Track quality 100.0 % Test CRC 9D8A3CF9 Copy CRC 9D8A3CF9 Accurately ripped (confidence 4) [968875A8] (AR v2) Copy OK
Track 20
Filename E:\EAC Rips\2017-05 Mei\Various Artists - De Pre Historie 1971 (1991) [FLAC] {BMG 260.743}\20 - Focus - House Of The King.wav
Pre-gap length 0:00:01.00
Peak level 72.7 % Extraction speed 9.9 X Track quality 100.0 % Test CRC 457A69C0 Copy CRC 457A69C0 Accurately ripped (confidence 5) [4BF757DA] (AR v2) Copy OK
All tracks accurately ripped
No errors occurred
End of status report
---- CUETools DB Plugin V2.1.6
[CTDB TOCID: WltfOE6WILVbTV0i1FctMF4VfeI-] foundSubmit result: WltfOE6WILVbTV0i1FctMF4VfeI- has been confirmedTrack | CTDB Status 1 | (17/17) Accurately ripped 2 | (17/17) Accurately ripped 3 | (17/17) Accurately ripped 4 | (17/17) Accurately ripped 5 | (17/17) Accurately ripped 6 | (17/17) Accurately ripped 7 | (17/17) Accurately ripped 8 | (17/17) Accurately ripped 9 | (17/17) Accurately ripped 10 | (17/17) Accurately ripped 11 | (17/17) Accurately ripped 12 | (16/17) Accurately ripped 13 | (16/17) Accurately ripped 14 | (16/17) Accurately ripped 15 | (17/17) Accurately ripped 16 | (17/17) Accurately ripped 17 | (17/17) Accurately ripped 18 | (17/17) Accurately ripped 19 | (16/17) Accurately ripped 20 | (16/17) Accurately ripped
==== Log checksum CBF475A476AE676A69605C81386A85B9BCD180C1D004BA4E005C0BFE9B779C13 ====

Содержание индексной карты (.CUE)

REM DATE 1991REM DISCID 180F4514REM COMMENT "ExactAudioCopy v1.3"PERFORMER "Various Artists"TITLE "De Pre Historie 1971"REM COMPOSER ""FILE "01 - Danyel Gerard - Butterfly.wav" WAVE  TRACK 01 AUDIO    TITLE "Butterfly"    PERFORMER "Danyel Gerard"    REM COMPOSER ""    PREGAP 00:00:33    INDEX 01 00:00:00  TRACK 02 AUDIO    TITLE "Soley Soley"    PERFORMER "Middle Of The Road"    REM COMPOSER ""    INDEX 00 03:26:20FILE "02 - Middle Of The Road - Soley Soley.wav" WAVE    INDEX 01 00:00:00  TRACK 03 AUDIO    TITLE "The Witch Queen Of New Orleans"    PERFORMER "Redbone"    REM COMPOSER ""    INDEX 00 03:03:58FILE "03 - Redbone - The Witch Queen Of New Orleans.wav" WAVE    INDEX 01 00:00:00  TRACK 04 AUDIO    TITLE "Funny Funny"    PERFORMER "Sweet"    REM COMPOSER ""    INDEX 00 02:41:63FILE "04 - Sweet - Funny Funny.wav" WAVE    INDEX 01 00:00:00  TRACK 05 AUDIO    TITLE "I'd Like To Teach The World To Sing"    PERFORMER "The New Seekers"    REM COMPOSER ""    INDEX 00 02:44:37FILE "05 - The New Seekers - I'd Like To Teach The World To Sing.wav" WAVE    INDEX 01 00:00:00  TRACK 06 AUDIO    TITLE "Pour Un Flirt"    PERFORMER "Michel Delpech"    REM COMPOSER ""    INDEX 00 02:21:62FILE "06 - Michel Delpech - Pour Un Flirt.wav" WAVE    INDEX 01 00:00:00  TRACK 07 AUDIO    TITLE "Gypsies, Tramps And Thieves"    PERFORMER "Cher"    REM COMPOSER ""    INDEX 00 03:22:67FILE "07 - Cher - Gypsies, Tramps And Thieves.wav" WAVE    INDEX 01 00:00:00  TRACK 08 AUDIO    TITLE "Ain't No Sunshine"    PERFORMER "Bill Withers"    REM COMPOSER ""    INDEX 00 02:31:70FILE "08 - Bill Withers - Ain't No Sunshine.wav" WAVE    INDEX 01 00:00:00  TRACK 09 AUDIO    TITLE "Proud Mary"    PERFORMER "Ike & Tina Turner"    REM COMPOSER ""    INDEX 00 02:02:68FILE "09 - Ike & Tina Turner - Proud Mary.wav" WAVE    INDEX 01 00:00:00  TRACK 10 AUDIO    TITLE "Maggie May"    PERFORMER "Rod Stewart"    REM COMPOSER ""    INDEX 00 04:54:07FILE "10 - Rod Stewart - Maggie May.wav" WAVE    INDEX 01 00:00:00  TRACK 11 AUDIO    TITLE "Lonely Days"    PERFORMER "The Bee Gees"    REM COMPOSER ""    INDEX 00 05:12:28FILE "11 - The Bee Gees - Lonely Days.wav" WAVE    INDEX 01 00:00:00  TRACK 12 AUDIO    TITLE "Che Sara"    PERFORMER "Jose Feliciano"    REM COMPOSER ""    INDEX 00 03:43:22FILE "12 - Jose Feliciano - Che Sara.wav" WAVE    INDEX 01 00:00:00  TRACK 13 AUDIO    TITLE "Knock Three Times"    PERFORMER "Dawn"    REM COMPOSER ""    INDEX 00 03:30:45FILE "13 - Dawn - Knock Three Times.wav" WAVE    INDEX 01 00:00:00  TRACK 14 AUDIO    TITLE "Du"    PERFORMER "Peter Maffay"    REM COMPOSER ""    INDEX 00 02:54:70FILE "14 - Peter Maffay - Du.wav" WAVE    INDEX 01 00:00:00  TRACK 15 AUDIO    TITLE "Here Comes That Rainy Day Feeling Again"    PERFORMER "The Fortunes"    REM COMPOSER ""    INDEX 00 04:55:60FILE "15 - The Fortunes - Here Comes That Rainy Day Feeling Again.wav" WAVE    INDEX 01 00:00:00  TRACK 16 AUDIO    TITLE "Rose Garden"    PERFORMER "Lynn Anderson"    REM COMPOSER ""    INDEX 00 02:47:15FILE "16 - Lynn Anderson - Rose Garden.wav" WAVE    INDEX 01 00:00:00  TRACK 17 AUDIO    TITLE "She's A Lady"    PERFORMER "Tom Jones"    REM COMPOSER ""    INDEX 00 02:47:25FILE "17 - Tom Jones - She's A Lady.wav" WAVE    INDEX 01 00:00:00  TRACK 18 AUDIO    TITLE "The Fool"    PERFORMER "Gilbert Montagne"    REM COMPOSER ""    INDEX 00 02:49:22FILE "18 - Gilbert Montagne - The Fool.wav" WAVE    INDEX 01 00:00:00  TRACK 19 AUDIO    TITLE "Spanish Harlem"    PERFORMER "Aretha Franklin"    REM COMPOSER ""    INDEX 00 03:07:20FILE "19 - Aretha Franklin - Spanish Harlem.wav" WAVE    INDEX 01 00:00:00  TRACK 20 AUDIO    TITLE "House Of The King"    PERFORMER "Focus"    REM COMPOSER ""    INDEX 00 03:28:05FILE "20 - Focus - House Of The King.wav" WAVE    INDEX 01 00:00:00

AccurateRip

[CUETools log; Date: 20.10.2018 10:24:24; Version: 2.1.5]Pregap length 00:00:33.[CTDB TOCID: WltfOE6WILVbTV0i1FctMF4VfeI-] found.Track | CTDB Status  1   | (28/28) Accurately ripped  2   | (28/28) Accurately ripped  3   | (28/28) Accurately ripped  4   | (28/28) Accurately ripped  5   | (28/28) Accurately ripped  6   | (28/28) Accurately ripped  7   | (28/28) Accurately ripped  8   | (28/28) Accurately ripped  9   | (28/28) Accurately ripped 10   | (27/28) Accurately ripped 11   | (28/28) Accurately ripped 12   | (27/28) Accurately ripped 13   | (27/28) Accurately ripped 14   | (27/28) Accurately ripped 15   | (28/28) Accurately ripped 16   | (28/28) Accurately ripped 17   | (28/28) Accurately ripped 18   | (27/28) Accurately ripped 19   | (27/28) Accurately ripped 20   | (27/28) Accurately ripped[AccurateRip ID: 002eb804-02b4166c-180f4514] found.Track   [  CRC   |   V2   ] Status 01     [b712c570|6432097f] (04+07/24) Accurately ripped 02     [2c55f88f|d0613ec4] (05+07/25) Accurately ripped 03     [5ead60c3|cfb7cb90] (04+07/23) Accurately ripped 04     [efa9cba5|d67d1c69] (05+07/25) Accurately ripped 05     [9ff03a3b|536ed31a] (05+07/25) Accurately ripped 06     [c0b521d7|9feab968] (05+07/24) Accurately ripped 07     [b93d220a|57f10191] (05+07/24) Accurately ripped 08     [a479d516|49afd74f] (04+07/23) Accurately ripped 09     [bda46590|4f744722] (04+07/24) Accurately ripped 10     [34b638bf|23830460] (04+07/23) Accurately ripped 11     [b1bc6a8c|b935fb40] (05+07/24) Accurately ripped 12     [aba4d687|9e7b589b] (05+07/24) Accurately ripped 13     [8f3f7a70|497fcec5] (04+07/23) Accurately ripped 14     [eb8795e5|f6bf1186] (04+07/23) Accurately ripped 15     [3e7b4b4a|092dd253] (05+06/23) Accurately ripped 16     [f537db4b|9bee7083] (04+07/24) Accurately ripped 17     [69b71a72|1eacddba] (04+07/23) Accurately ripped 18     [2cf09dea|02e12a77] (04+06/22) Accurately ripped 19     [2e30a266|968875a8] (05+05/21) Accurately ripped 20     [1af9bdac|4bf757da] (04+06/21) Accurately rippedOffsetted by -1753: 01     [eb18c405] (04/24) Accurately ripped 02     [ac19a15a] (04/25) Accurately ripped 03     [a98796fc] (04/23) Accurately ripped 04     [7c1c9046] (04/25) Accurately ripped 05     [c280ba82] (04/25) Accurately ripped 06     [d80162ed] (04/24) Accurately ripped 07     [d6e28418] (04/24) Accurately ripped 08     [eeff40ac] (04/23) Accurately ripped 09     [a6be6a97] (04/24) Accurately ripped 10     [9a8682cf] (04/23) Accurately ripped 11     [c71550ac] (04/24) Accurately ripped 12     [07e1eb86] (04/24) Accurately ripped 13     [34bab792] (04/23) Accurately ripped 14     [be1ae267] (04/23) Accurately ripped 15     [62f248d8] (04/23) Accurately ripped 16     [ec0a43b5] (04/24) Accurately ripped 17     [366a0e59] (04/23) Accurately ripped 18     [62e030c9] (04/22) Accurately ripped 19     [d913ad62] (04/21) Accurately ripped 20     [a6d1b0a9] (04/21) Accurately ripped
Track Peak [ CRC32 ] [W/O NULL] [ LOG ] -- 100,0 [BBAFBDA4] [D0CA1B5F] 01 91,1 [AD7D1A3B] [0C4BC1D7] CRC32 02 88,8 [14D61766] [B4A4C050] CRC32 03 99,1 [E1AD353E] [8652513B] CRC32 04 88,4 [14FC4EFF] [9AA8607A] CRC32 05 85,7 [0DB79718] [95C3AFC6] CRC32 06 92,1 [DD014215] [D5F628C4] CRC32 07 100,0 [4CEB2A65] [950238D9] CRC32 08 84,3 [E3C843E4] [69E661C2] CRC32 09 97,7 [B18CD1B6] [2F4590EE] CRC32 10 72,7 [C8E8871A] [8D447AF6] CRC32 11 93,2 [999B548C] [13AFC381] CRC32 12 71,8 [B33E81A7] [DDE679B0] CRC32 13 67,7 [AECDE9CD] [7FF1C023] CRC32 14 66,9 [FC04C832] [8E2D933D] CRC32 15 94,7 [62B352D5] [5125AEF6] CRC32 16 74,9 [3DD7C0E9] [C6637F6E] CRC32 17 70,2 [5C0EB7E4] [2FF22979] CRC32 18 81,3 [E43C1214] [964282E7] CRC32 19 85,3 [9D8A3CF9] [9A1D2BF1] CRC32 20 72,7 [457A69C0] [C263B1E4] CRC32
Вы не можете начинать темы
Вы не можете отвечать на сообщения
Вы не можете редактировать свои сообщения
Вы не можете удалять свои сообщения
Вы не можете голосовать в опросах
Вы не можете прикреплять файлы к сообщениям
Вы можете скачивать файлы
!ВНИМАНИЕ!

Сайт не предоставляет электронные версии произведений, а занимается лишь коллекционированием и каталогизацией ссылок, присылаемых и публикуемых на форуме нашими читателями. Если вы являетесь правообладателем какого-либо представленного материала и не желаете, чтобы ссылка на него находилась в нашем каталоге, свяжитесь с нами, и мы незамедлительно удалим ее. Файлы для обмена на трекере предоставлены пользователями сайта, и администрация не несет ответственности за их содержание. Просьба не заливать файлы, защищенные авторскими правами, а также файлы нелегального содержания!

Искали программы, игры, дополнения, музыка mp3, аниме, аудио книги, журналы? Добро пожаловать на свободный торрент трекер Torrents, у нас можно скачать бесплатно, без смс и регистрации и прочих ограничений лучшие, отборные сборки программ, игр. Скачать торрентом не составит труда даже не опытному пользователю. Раздачи ежедневно обновляются, только лучшие и качественные раздачи, подробные описания и скриншоты. Огромная коллекция программ для работы со звуком, графикой, дизайном, а так же множество плагинов и инструментов к ним с подробной инструкцией и рекомендациями. Прошивки для навигаторов, карты. Разнообразные игры, для Windows, Linux. В коллекцие есть и старые игры любых жанров, Rpg, Action, Shooter, strategy Множество дополнений, модификаций, сценариев для популярных игр в жанре экш, рпг, гонки, стратегии, логические игры. Множество аддонов и сценариев для Microsoft Flight Simulator Большая коллекция книг, учебников. Если нет возможности купить печатное издание - смело скачивайте цифровую версию книги или, быть может, журнала. Не любите читать - можно загрузить бесплатно аудикнигу. Для веб дизайнеров и программистов так же найдется множество специализированного софта, таких как: редакторы с подсветкой, среды программирования, компоненты, системы управления базами данных, разнообразные скрипты и шаблоны. Не так давно у нас появился материал для автолюбителей и владельцев мото - оригинальные и неоригинальные каталоги запчастей, книги и журналы по ремонту и обслуживанию, видеоуроки, статьи по чип тюнингу, прошивкам. Процедура получения контента элементарная, достаточно просто скачать торрент файл и добавить его в загрузку в вашем торрент клиенте. Если у вас нет специального торрент клиента, вы можете его скачать у нас.

Dark Souls III- XATAB | ละคร วายุเทพยุทธ์ | 3:03 Foreign Music موسيقى اجنبية حماسية