(Various) [CD] VA - De Pre Historie 1989 [EMI/Virgin, 262.689, Belgium] - 1992, FLAC (tracks+.cue), lossless 

Цитировать
De Pre Historie 1989
Жанр: Various
Носитель: CD
Страна-производитель диска (релиза): Belgium
Год издания: 1992
Издатель (лейбл): EMI/Virgin
Номер по каталогу: 262.689
Аудиокодек: FLAC (*.flac)
Тип рипа: tracks+.cue
Битрейт аудио: lossless
Продолжительность: 01:14:23
Источник (релизер): From RED
Наличие сканов в содержимом раздачи: нет

Треклист:
01. Roxette – The Look
02. Tina Turner – The Best
03. Fine Young Cannibals – She Drives Me Crazy
04. Roy Orbison – You Got It
05. The Beach Boys – Kokomo
06. Bart Peeters & The Radios – I'm Into Folk
07. Sydney Youngblood – If Only I Could
08. Technotronic – Pump Up The Jam
09. Milli Vanilli – Girl I'm Gonna Miss You
10. Neneh Cherry – Buffalo Stance
11. Bobby Brown – My Prerogative
12. Soul II Soul – Back To Life
13. Paula Abdul – Straight Up
14. The Four Tops – Loco In Acapulco
15. Samantha Fox – I Only Wanna Be With You
16. Phil Collins – Two Hearts
17. Lisa Stansfield – All Around The World
18. Paco – Amor De Mis Amores
19. Vaya Con Dios – Don't Cry For Louie
20. Tanita Tikaram – Twist In My Sobriety

Лог создания рипа

Exact Audio Copy V1.3 from 2. September 2016
EAC extraction logfile from 21. May 2017, 17:22
Various Artists / De Pre Historie 1989
Used drive : ATAPI iHAS124 F Adapter: 1 ID: 0
Read mode : SecureUtilize accurate stream : YesDefeat audio cache : YesMake use of C2 pointers : No
Read offset correction : 6Overread into Lead-In and Lead-Out : NoFill up missing offset samples with silence : YesDelete leading and trailing silent blocks : NoNull samples used in CRC calculations : YesUsed interface : Native Win32 interface for Win NT & 2000Gap handling : Appended to previous track
Used output format : User Defined EncoderSelected bitrate : 1024 kBit/sQuality : HighAdd ID3 tag : NoCommand line compressor : C:\cmd.exeAdditional command line options : /c ""C:\F\CUETools.FLACCL.cmd.exe" -8 --verify %source% -o %dest% & "C:\M\metaflac.exe" --set-tag="ARTIST=%artist%" --set-tag="TITLE=%title%" --set-tag="ALBUM=%albumtitle%" --set-tag="DATE=%year%" --set-tag="TRACKNUMBER=%tracknr%" --set-tag="GENRE=%genre%" --set-tag="COMPOSER=%composer%" --set-tag="ALBUMARTIST=%albumartist%" %dest%"
TOC of the extracted CD
Track | Start | Length | Start sector | End sector --------------------------------------------------------- 1 | 0:00.33 | 3:58.15 | 33 | 17897 2 | 3:58.48 | 4:10.47 | 17898 | 36694 3 | 8:09.20 | 3:36.73 | 36695 | 52967 4 | 11:46.18 | 3:31.02 | 52968 | 68794 5 | 15:17.20 | 3:35.58 | 68795 | 84977 6 | 18:53.03 | 2:49.65 | 84978 | 97717 7 | 21:42.68 | 3:30.07 | 97718 | 113474 8 | 25:13.00 | 3:36.23 | 113475 | 129697 9 | 28:49.23 | 4:22.10 | 129698 | 149357 10 | 33:11.33 | 4:04.42 | 149358 | 167699 11 | 37:16.00 | 3:31.03 | 167700 | 183527 12 | 40:47.03 | 3:49.15 | 183528 | 200717 13 | 44:36.18 | 4:06.17 | 200718 | 219184 14 | 48:42.35 | 3:29.53 | 219185 | 234912 15 | 52:12.13 | 2:44.65 | 234913 | 247277 16 | 54:57.03 | 3:22.52 | 247278 | 262479 17 | 58:19.55 | 4:22.33 | 262480 | 282162 18 | 62:42.13 | 3:50.40 | 282163 | 299452 19 | 66:32.53 | 3:02.15 | 299453 | 313117 20 | 69:34.68 | 4:52.10 | 313118 | 335027
Track 1
Filename E:\EAC Rips\2017-05 Mei\Various Artists - De Pre Historie 1989 (1992) [FLAC] {BMG 262.689}\01 - Roxette - The Look.wav
Pre-gap length 0:00:02.33
Peak level 89.9 % Extraction speed 4.0 X Track quality 100.0 % Test CRC 1A33C88F Copy CRC 1A33C88F Accurately ripped (confidence 4) [C28BF821] (AR v2) Copy OK
Track 2
Filename E:\EAC Rips\2017-05 Mei\Various Artists - De Pre Historie 1989 (1992) [FLAC] {BMG 262.689}\02 - Tina Turner - The Best.wav
Peak level 97.6 % Extraction speed 3.7 X Track quality 99.9 % Test CRC 836EDEEA Copy CRC 836EDEEA Accurately ripped (confidence 4) [E086F51D] (AR v2) Copy OK
Track 3
Filename E:\EAC Rips\2017-05 Mei\Various Artists - De Pre Historie 1989 (1992) [FLAC] {BMG 262.689}\03 - Fine Young Cannibals - She Drives Me Crazy.wav
Pre-gap length 0:00:01.00
Peak level 100.0 % Extraction speed 4.8 X Track quality 100.0 % Test CRC D4C6768E Copy CRC D4C6768E Accurately ripped (confidence 4) [2D452583] (AR v2) Copy OK
Track 4
Filename E:\EAC Rips\2017-05 Mei\Various Artists - De Pre Historie 1989 (1992) [FLAC] {BMG 262.689}\04 - Roy Orbison - You Got It.wav
Peak level 96.2 % Extraction speed 5.0 X Track quality 100.0 % Test CRC 0469045C Copy CRC 0469045C Accurately ripped (confidence 4) [CF539304] (AR v2) Copy OK
Track 5
Filename E:\EAC Rips\2017-05 Mei\Various Artists - De Pre Historie 1989 (1992) [FLAC] {BMG 262.689}\05 - The Beach Boys - Kokomo.wav
Peak level 97.4 % Extraction speed 4.2 X Track quality 99.9 % Test CRC 49CD15F3 Copy CRC 49CD15F3 Accurately ripped (confidence 4) [4611AAE2] (AR v2) Copy OK
Track 6
Filename E:\EAC Rips\2017-05 Mei\Various Artists - De Pre Historie 1989 (1992) [FLAC] {BMG 262.689}\06 - The Radios - I'm Into Folk.wav
Peak level 98.6 % Extraction speed 5.3 X Track quality 100.0 % Test CRC 8C6E6680 Copy CRC 8C6E6680 Accurately ripped (confidence 4) [660DA3C8] (AR v2) Copy OK
Track 7
Filename E:\EAC Rips\2017-05 Mei\Various Artists - De Pre Historie 1989 (1992) [FLAC] {BMG 262.689}\07 - Sydney Youngblood - If Only I Could.wav
Peak level 94.8 % Extraction speed 5.7 X Track quality 100.0 % Test CRC 6BFFA886 Copy CRC 6BFFA886 Accurately ripped (confidence 4) [CB9C1B82] (AR v2) Copy OK
Track 8
Filename E:\EAC Rips\2017-05 Mei\Various Artists - De Pre Historie 1989 (1992) [FLAC] {BMG 262.689}\08 - Technotronic - Pump Up The Jam.wav
Peak level 95.9 % Extraction speed 5.9 X Track quality 100.0 % Test CRC 5AC74C7C Copy CRC 5AC74C7C Accurately ripped (confidence 4) [0E32CB1D] (AR v2) Copy OK
Track 9
Filename E:\EAC Rips\2017-05 Mei\Various Artists - De Pre Historie 1989 (1992) [FLAC] {BMG 262.689}\09 - Milli Vanilli - Girl I'm Gonna Miss You.wav
Peak level 96.3 % Extraction speed 6.3 X Track quality 100.0 % Test CRC BBC57577 Copy CRC BBC57577 Accurately ripped (confidence 4) [102B10AA] (AR v2) Copy OK
Track 10
Filename E:\EAC Rips\2017-05 Mei\Various Artists - De Pre Historie 1989 (1992) [FLAC] {BMG 262.689}\10 - Neneh Cherry - Buffalo Stance.wav
Peak level 95.7 % Extraction speed 6.6 X Track quality 100.0 % Test CRC 7E38D535 Copy CRC 7E38D535 Accurately ripped (confidence 4) [58502427] (AR v2) Copy OK
Track 11
Filename E:\EAC Rips\2017-05 Mei\Various Artists - De Pre Historie 1989 (1992) [FLAC] {BMG 262.689}\11 - Bobby Brown - My Prerogative.wav
Peak level 88.5 % Extraction speed 6.6 X Track quality 100.0 % Test CRC 64AE1C34 Copy CRC 64AE1C34 Accurately ripped (confidence 4) [26F965F5] (AR v2) Copy OK
Track 12
Filename E:\EAC Rips\2017-05 Mei\Various Artists - De Pre Historie 1989 (1992) [FLAC] {BMG 262.689}\12 - Soul II Soul - Back To Life.wav
Peak level 91.2 % Extraction speed 6.8 X Track quality 100.0 % Test CRC ED5B88DF Copy CRC ED5B88DF Accurately ripped (confidence 4) [999216E0] (AR v2) Copy OK
Track 13
Filename E:\EAC Rips\2017-05 Mei\Various Artists - De Pre Historie 1989 (1992) [FLAC] {BMG 262.689}\13 - Paula Abdul - Straight Up.wav
Peak level 90.5 % Extraction speed 7.2 X Track quality 100.0 % Test CRC 812A03A4 Copy CRC 812A03A4 Accurately ripped (confidence 4) [C98B4C9E] (AR v2) Copy OK
Track 14
Filename E:\EAC Rips\2017-05 Mei\Various Artists - De Pre Historie 1989 (1992) [FLAC] {BMG 262.689}\14 - Four Tops - Loco In Acapulco.wav
Pre-gap length 0:00:01.02
Peak level 95.8 % Extraction speed 7.2 X Track quality 100.0 % Test CRC FB9811D0 Copy CRC FB9811D0 Accurately ripped (confidence 4) [CE78C31D] (AR v2) Copy OK
Track 15
Filename E:\EAC Rips\2017-05 Mei\Various Artists - De Pre Historie 1989 (1992) [FLAC] {BMG 262.689}\15 - Samantha Fox - I Only Wanna Be With You.wav
Pre-gap length 0:00:00.60
Peak level 99.3 % Extraction speed 7.0 X Track quality 100.0 % Test CRC B3DD039B Copy CRC B3DD039B Accurately ripped (confidence 4) [F579D9F7] (AR v2) Copy OK
Track 16
Filename E:\EAC Rips\2017-05 Mei\Various Artists - De Pre Historie 1989 (1992) [FLAC] {BMG 262.689}\16 - Phil Collins - Two Hearts.wav
Pre-gap length 0:00:00.40
Peak level 96.2 % Extraction speed 7.5 X Track quality 100.0 % Test CRC ACDF2441 Copy CRC ACDF2441 Accurately ripped (confidence 4) [672E7AEE] (AR v2) Copy OK
Track 17
Filename E:\EAC Rips\2017-05 Mei\Various Artists - De Pre Historie 1989 (1992) [FLAC] {BMG 262.689}\17 - Lisa Stansfield - All Around The World.wav
Peak level 89.6 % Extraction speed 3.4 X Track quality 99.8 % Test CRC 53F43F8B Copy CRC 53F43F8B Accurately ripped (confidence 4) [5479CC1F] (AR v2) Copy OK
Track 18
Filename E:\EAC Rips\2017-05 Mei\Various Artists - De Pre Historie 1989 (1992) [FLAC] {BMG 262.689}\18 - Paco - Amor De Mis Amores.wav
Peak level 95.3 % Extraction speed 2.1 X Track quality 99.7 % Test CRC 468FD537 Copy CRC 468FD537 Accurately ripped (confidence 4) [9DBEAF82] (AR v2) Copy OK
Track 19
Filename E:\EAC Rips\2017-05 Mei\Various Artists - De Pre Historie 1989 (1992) [FLAC] {BMG 262.689}\19 - Vaya Con Dios - Don't Cry For Louie.wav
Peak level 97.8 % Extraction speed 1.2 X Track quality 99.4 % Test CRC 79FC1354 Copy CRC 79FC1354 Accurately ripped (confidence 4) [BDD1BCE0] (AR v2) Copy OK
Track 20
Filename E:\EAC Rips\2017-05 Mei\Various Artists - De Pre Historie 1989 (1992) [FLAC] {BMG 262.689}\20 - Tanita Tikaram - Twist In My Sobriety.wav
Pre-gap length 0:00:00.38
Peak level 97.1 % Extraction speed 3.0 X Track quality 99.9 % Test CRC 4168CA40 Copy CRC 4168CA40 Accurately ripped (confidence 4) [990255C4] (AR v2) Copy OK
All tracks accurately ripped
No errors occurred
End of status report
---- CUETools DB Plugin V2.1.6
[CTDB TOCID: 6VPFbwNt2KNW6D6JUz37p1Rh_4c-] foundSubmit result: 6VPFbwNt2KNW6D6JUz37p1Rh_4c- has been confirmedTrack | CTDB Status 1 | (8/8) Accurately ripped 2 | (8/8) Accurately ripped 3 | (8/8) Accurately ripped 4 | (8/8) Accurately ripped 5 | (8/8) Accurately ripped 6 | (8/8) Accurately ripped 7 | (8/8) Accurately ripped 8 | (8/8) Accurately ripped 9 | (8/8) Accurately ripped 10 | (8/8) Accurately ripped 11 | (8/8) Accurately ripped 12 | (8/8) Accurately ripped 13 | (8/8) Accurately ripped 14 | (8/8) Accurately ripped 15 | (8/8) Accurately ripped 16 | (7/8) Accurately ripped 17 | (8/8) Accurately ripped 18 | (8/8) Accurately ripped 19 | (7/8) Accurately ripped 20 | (7/8) Accurately ripped
==== Log checksum 3164EE0BF1B35F50BB0FB2824675EB1377F76306AEA187D97D10C38D4311F381 ====

Содержание индексной карты (.CUE)

REM DATE 1992REM DISCID 2D117314REM COMMENT "ExactAudioCopy v1.3"PERFORMER "Various Artists"TITLE "De Pre Historie 1989"REM COMPOSER ""FILE "01 - Roxette - The Look.wav" WAVE  TRACK 01 AUDIO    TITLE "The Look"    PERFORMER "Roxette"    REM COMPOSER ""    PREGAP 00:00:33    INDEX 01 00:00:00FILE "02 - Tina Turner - The Best.wav" WAVE  TRACK 02 AUDIO    TITLE "The Best"    PERFORMER "Tina Turner"    REM COMPOSER ""    INDEX 01 00:00:00  TRACK 03 AUDIO    TITLE "She Drives Me Crazy"    PERFORMER "Fine Young Cannibals"    REM COMPOSER ""    INDEX 00 04:09:47FILE "03 - Fine Young Cannibals - She Drives Me Crazy.wav" WAVE    INDEX 01 00:00:00FILE "04 - Roy Orbison - You Got It.wav" WAVE  TRACK 04 AUDIO    TITLE "You Got It"    PERFORMER "Roy Orbison"    REM COMPOSER ""    INDEX 01 00:00:00FILE "05 - The Beach Boys - Kokomo.wav" WAVE  TRACK 05 AUDIO    TITLE "Kokomo"    PERFORMER "The Beach Boys"    REM COMPOSER ""    INDEX 01 00:00:00FILE "06 - The Radios - I'm Into Folk.wav" WAVE  TRACK 06 AUDIO    TITLE "I'm Into Folk"    PERFORMER "The Radios"    REM COMPOSER ""    INDEX 01 00:00:00FILE "07 - Sydney Youngblood - If Only I Could.wav" WAVE  TRACK 07 AUDIO    TITLE "If Only I Could"    PERFORMER "Sydney Youngblood"    REM COMPOSER ""    INDEX 01 00:00:00FILE "08 - Technotronic - Pump Up The Jam.wav" WAVE  TRACK 08 AUDIO    TITLE "Pump Up The Jam"    PERFORMER "Technotronic"    REM COMPOSER ""    INDEX 01 00:00:00FILE "09 - Milli Vanilli - Girl I'm Gonna Miss You.wav" WAVE  TRACK 09 AUDIO    TITLE "Girl I'm Gonna Miss You"    PERFORMER "Milli Vanilli"    REM COMPOSER ""    INDEX 01 00:00:00FILE "10 - Neneh Cherry - Buffalo Stance.wav" WAVE  TRACK 10 AUDIO    TITLE "Buffalo Stance"    PERFORMER "Neneh Cherry"    REM COMPOSER ""    INDEX 01 00:00:00FILE "11 - Bobby Brown - My Prerogative.wav" WAVE  TRACK 11 AUDIO    TITLE "My Prerogative"    PERFORMER "Bobby Brown"    REM COMPOSER ""    INDEX 01 00:00:00FILE "12 - Soul II Soul - Back To Life.wav" WAVE  TRACK 12 AUDIO    TITLE "Back To Life"    PERFORMER "Soul II Soul"    REM COMPOSER ""    INDEX 01 00:00:00FILE "13 - Paula Abdul - Straight Up.wav" WAVE  TRACK 13 AUDIO    TITLE "Straight Up"    PERFORMER "Paula Abdul"    REM COMPOSER ""    INDEX 01 00:00:00  TRACK 14 AUDIO    TITLE "Loco In Acapulco"    PERFORMER "Four Tops"    REM COMPOSER ""    INDEX 00 04:05:15FILE "14 - Four Tops - Loco In Acapulco.wav" WAVE    INDEX 01 00:00:00  TRACK 15 AUDIO    TITLE "I Only Wanna Be With You"    PERFORMER "Samantha Fox"    REM COMPOSER ""    INDEX 00 03:28:68FILE "15 - Samantha Fox - I Only Wanna Be With You.wav" WAVE    INDEX 01 00:00:00  TRACK 16 AUDIO    TITLE "Two Hearts"    PERFORMER "Phil Collins"    REM COMPOSER ""    INDEX 00 02:44:25FILE "16 - Phil Collins - Two Hearts.wav" WAVE    INDEX 01 00:00:00FILE "17 - Lisa Stansfield - All Around The World.wav" WAVE  TRACK 17 AUDIO    TITLE "All Around The World"    PERFORMER "Lisa Stansfield"    REM COMPOSER ""    INDEX 01 00:00:00FILE "18 - Paco - Amor De Mis Amores.wav" WAVE  TRACK 18 AUDIO    TITLE "Amor De Mis Amores"    PERFORMER "Paco"    REM COMPOSER ""    INDEX 01 00:00:00FILE "19 - Vaya Con Dios - Don't Cry For Louie.wav" WAVE  TRACK 19 AUDIO    TITLE "Don't Cry For Louie"    PERFORMER "Vaya Con Dios"    REM COMPOSER ""    INDEX 01 00:00:00  TRACK 20 AUDIO    TITLE "Twist In My Sobriety"    PERFORMER "Tanita Tikaram"    REM COMPOSER ""    INDEX 00 03:01:52FILE "20 - Tanita Tikaram - Twist In My Sobriety.wav" WAVE    INDEX 01 00:00:00

AccurateRip

[CUETools log; Date: 21.10.2018 18:18:18; Version: 2.1.5]Pregap length 00:00:33.[CTDB TOCID: 6VPFbwNt2KNW6D6JUz37p1Rh_4c-] found.Track | CTDB Status  1   | (17/17) Accurately ripped  2   | (17/17) Accurately ripped  3   | (17/17) Accurately ripped  4   | (17/17) Accurately ripped  5   | (17/17) Accurately ripped  6   | (17/17) Accurately ripped  7   | (17/17) Accurately ripped  8   | (17/17) Accurately ripped  9   | (17/17) Accurately ripped 10   | (16/17) Accurately ripped 11   | (17/17) Accurately ripped 12   | (16/17) Accurately ripped 13   | (17/17) Accurately ripped 14   | (17/17) Accurately ripped 15   | (17/17) Accurately ripped 16   | (16/17) Accurately ripped 17   | (17/17) Accurately ripped 18   | (17/17) Accurately ripped 19   | (16/17) Accurately ripped 20   | (15/17) Accurately ripped[AccurateRip ID: 00355cdc-030d3875-2d117314] found.Track   [  CRC   |   V2   ] Status 01     [5e57a72c|c28bf821] (07+08/15) Accurately ripped 02     [b2aec068|e086f51d] (07+08/15) Accurately ripped 03     [44e1c644|2d452583] (07+08/15) Accurately ripped 04     [c6beccc3|cf539304] (07+08/15) Accurately ripped 05     [2c77f267|4611aae2] (07+08/15) Accurately ripped 06     [45712b75|660da3c8] (07+08/15) Accurately ripped 07     [44444b7b|cb9c1b82] (06+08/14) Accurately ripped 08     [30f46f5c|0e32cb1d] (06+08/14) Accurately ripped 09     [929c1678|102b10aa] (07+08/15) Accurately ripped 10     [315ff23d|58502427] (07+09/16) Accurately ripped 11     [a3189725|26f965f5] (07+08/15) Accurately ripped 12     [58e47d95|999216e0] (07+08/15) Accurately ripped 13     [fd9229e2|c98b4c9e] (07+08/15) Accurately ripped 14     [0c401401|ce78c31d] (07+08/15) Accurately ripped 15     [d2ef729a|f579d9f7] (07+08/15) Accurately ripped 16     [134fdc44|672e7aee] (07+08/15) Accurately ripped 17     [55daad48|5479cc1f] (07+08/15) Accurately ripped 18     [cdec486f|9dbeaf82] (07+08/15) Accurately ripped 19     [497ecbb8|bdd1bce0] (07+08/15) Accurately ripped 20     [45615aa4|990255c4] (07+09/16) Accurately ripped
Track Peak [ CRC32 ] [W/O NULL] [ LOG ] -- 100,0 [B79F037A] [AAEDF3F1] 01 89,9 [1A33C88F] [A53E1514] CRC32 02 97,6 [836EDEEA] [2879F22F] CRC32 03 100,0 [D4C6768E] [B6DF4DC0] CRC32 04 96,2 [0469045C] [38E7593F] CRC32 05 97,4 [49CD15F3] [760E02CC] CRC32 06 98,6 [8C6E6680] [1EC704EF] CRC32 07 94,8 [6BFFA886] [3377D489] CRC32 08 95,9 [5AC74C7C] [ACF5C451] CRC32 09 96,3 [BBC57577] [9FDAD657] CRC32 10 95,7 [7E38D535] [C7F1163F] CRC32 11 88,5 [64AE1C34] [D48D219C] CRC32 12 91,2 [ED5B88DF] [7CD7A536] CRC32 13 90,5 [812A03A4] [38C83711] CRC32 14 95,8 [FB9811D0] [C1CC458F] CRC32 15 99,3 [B3DD039B] [18CF73A0] CRC32 16 96,2 [ACDF2441] [FB16C300] CRC32 17 89,6 [53F43F8B] [A26BE2CC] CRC32 18 95,3 [468FD537] [3232FF27] CRC32 19 97,8 [79FC1354] [D0AFB987] CRC32 20 97,1 [4168CA40] [9A38FDCF] CRC32
Вы не можете начинать темы
Вы не можете отвечать на сообщения
Вы не можете редактировать свои сообщения
Вы не можете удалять свои сообщения
Вы не можете голосовать в опросах
Вы не можете прикреплять файлы к сообщениям
Вы можете скачивать файлы
!ВНИМАНИЕ!

Сайт не предоставляет электронные версии произведений, а занимается лишь коллекционированием и каталогизацией ссылок, присылаемых и публикуемых на форуме нашими читателями. Если вы являетесь правообладателем какого-либо представленного материала и не желаете, чтобы ссылка на него находилась в нашем каталоге, свяжитесь с нами, и мы незамедлительно удалим ее. Файлы для обмена на трекере предоставлены пользователями сайта, и администрация не несет ответственности за их содержание. Просьба не заливать файлы, защищенные авторскими правами, а также файлы нелегального содержания!

Искали программы, игры, дополнения, музыка mp3, аниме, аудио книги, журналы? Добро пожаловать на свободный торрент трекер Torrents, у нас можно скачать бесплатно, без смс и регистрации и прочих ограничений лучшие, отборные сборки программ, игр. Скачать торрентом не составит труда даже не опытному пользователю. Раздачи ежедневно обновляются, только лучшие и качественные раздачи, подробные описания и скриншоты. Огромная коллекция программ для работы со звуком, графикой, дизайном, а так же множество плагинов и инструментов к ним с подробной инструкцией и рекомендациями. Прошивки для навигаторов, карты. Разнообразные игры, для Windows, Linux. В коллекцие есть и старые игры любых жанров, Rpg, Action, Shooter, strategy Множество дополнений, модификаций, сценариев для популярных игр в жанре экш, рпг, гонки, стратегии, логические игры. Множество аддонов и сценариев для Microsoft Flight Simulator Большая коллекция книг, учебников. Если нет возможности купить печатное издание - смело скачивайте цифровую версию книги или, быть может, журнала. Не любите читать - можно загрузить бесплатно аудикнигу. Для веб дизайнеров и программистов так же найдется множество специализированного софта, таких как: редакторы с подсветкой, среды программирования, компоненты, системы управления базами данных, разнообразные скрипты и шаблоны. Не так давно у нас появился материал для автолюбителей и владельцев мото - оригинальные и неоригинальные каталоги запчастей, книги и журналы по ремонту и обслуживанию, видеоуроки, статьи по чип тюнингу, прошивкам. Процедура получения контента элементарная, достаточно просто скачать торрент файл и добавить его в загрузку в вашем торрент клиенте. Если у вас нет специального торрент клиента, вы можете его скачать у нас.

January 2016 | Menjnk holnap moziba (2007) Nézettség: 27 Hossz: 85 min IMDB: 6.8 Beküldve: 2018/12/03 Menjnk holnap moziba 2007 | Biography