(Various) [CD] VA - De Pre Historie 1970 [EMI/Virgin, 260.742, Belgium] - 1991, FLAC (tracks+.cue), lossless 

Цитировать
De Pre Historie 1970
Жанр: Various
Носитель: CD
Страна-производитель диска (релиза): Belgium
Год издания: 1991
Издатель (лейбл): EMI/Virgin
Номер по каталогу: 260.742
Аудиокодек: FLAC (*.flac)
Тип рипа: tracks+.cue
Битрейт аудио: lossless
Продолжительность: 01:05:00
Источник (релизер): From RED
Наличие сканов в содержимом раздачи: нет

Треклист:
01. Christie – Yellow River
02. Rotation – Ra-Ta-Ta
03. Soulful Dynamics – Mademoiselle Ninette
04. James Brown – Sex Machine
05. The Guess Who – American Woman
06. The Beach Boys – Cottonfields
07. Norman Greenbaum – Spirit In The Sky
08. MASH (Johnny Mandel) – Suicide Is Painless
09. The Carpenters – Close To Yo
10. B.J. Thomas – Raindrops Keep Falling On My Head
11. Jimmy Frey – Rozen Voor Sandra
12. Hotlegs – Neanderthal Man
13. Jimmy Cliff – Wild World
14. Santana – Black Magic Woman
15. Michel Delpech – Wight Is Wight
16. Melanie & The Edwin Hawkins Singers – Lay Down
17. Smokey Robinson & The Miracles – Tears Of A Clown
18. Diana Ross & The Supremes – Someday We'll Be Together
19. Elvis Presley – The Wonder Of You
20. Will Tura – Liefdeverdriet

Лог создания рипа

Exact Audio Copy V1.3 from 2. September 2016
EAC extraction logfile from 19. May 2017, 1:00
Various Artists / De Pre Historie 1970
Used drive : ATAPI iHAS124 F Adapter: 1 ID: 0
Read mode : SecureUtilize accurate stream : YesDefeat audio cache : YesMake use of C2 pointers : No
Read offset correction : 6Overread into Lead-In and Lead-Out : NoFill up missing offset samples with silence : YesDelete leading and trailing silent blocks : NoNull samples used in CRC calculations : YesUsed interface : Native Win32 interface for Win NT & 2000Gap handling : Appended to previous track
Used output format : User Defined EncoderSelected bitrate : 1024 kBit/sQuality : HighAdd ID3 tag : NoCommand line compressor : C:\cmd.exeAdditional command line options : /c ""C:\F\CUETools.FLACCL.cmd.exe" -8 --verify %source% -o %dest% & "C:\M\metaflac.exe" --set-tag="ARTIST=%artist%" --set-tag="TITLE=%title%" --set-tag="ALBUM=%albumtitle%" --set-tag="DATE=%year%" --set-tag="TRACKNUMBER=%tracknr%" --set-tag="GENRE=%genre%" --set-tag="COMPOSER=%composer%" --set-tag="ALBUMARTIST=%albumartist%" %dest%"
TOC of the extracted CD
Track | Start | Length | Start sector | End sector --------------------------------------------------------- 1 | 0:00.33 | 2:42.57 | 33 | 12239 2 | 2:43.15 | 2:07.65 | 12240 | 21829 3 | 4:51.05 | 2:30.00 | 21830 | 33079 4 | 7:21.05 | 5:03.68 | 33080 | 55872 5 | 12:24.73 | 3:47.20 | 55873 | 72917 6 | 16:12.18 | 2:59.15 | 72918 | 86357 7 | 19:11.33 | 3:56.62 | 86358 | 104119 8 | 23:08.20 | 2:51.05 | 104120 | 116949 9 | 25:59.25 | 3:40.38 | 116950 | 133487 10 | 29:39.63 | 2:55.57 | 133488 | 146669 11 | 32:35.45 | 2:58.55 | 146670 | 160074 12 | 35:34.25 | 3:01.28 | 160075 | 173677 13 | 38:35.53 | 3:46.20 | 173678 | 190647 14 | 42:21.73 | 3:13.30 | 190648 | 205152 15 | 45:35.28 | 3:50.35 | 205153 | 222437 16 | 49:25.63 | 3:44.52 | 222438 | 239289 17 | 53:10.40 | 2:56.33 | 239290 | 252522 18 | 56:06.73 | 3:24.32 | 252523 | 267854 19 | 59:31.30 | 2:33.03 | 267855 | 279332 20 | 62:04.33 | 2:56.00 | 279333 | 292532
Track 1
Filename E:\EAC Rips\2017-05 Mei\Various Artists - De Pre Historie 1970 (1991) [FLAC] {BMG 260.742}\01 - Christie - Yellow River.wav
Pre-gap length 0:00:02.33
Peak level 99.2 % Extraction speed 3.2 X Track quality 100.0 % Test CRC 9D004DFC Copy CRC 9D004DFC Accurately ripped (confidence 2) [6A79F950] (AR v1) Copy OK
Track 2
Filename E:\EAC Rips\2017-05 Mei\Various Artists - De Pre Historie 1970 (1991) [FLAC] {BMG 260.742}\02 - Rotation - Ra-Ta-Ta.wav
Peak level 81.4 % Extraction speed 3.3 X Track quality 100.0 % Test CRC 3C3E5394 Copy CRC 3C3E5394 Accurately ripped (confidence 3) [16CB9903] (AR v1) Copy OK
Track 3
Filename E:\EAC Rips\2017-05 Mei\Various Artists - De Pre Historie 1970 (1991) [FLAC] {BMG 260.742}\03 - Soulful Dynamics - Mademoiselle Ninette.wav
Peak level 88.1 % Extraction speed 3.6 X Track quality 100.0 % Test CRC 925BADA4 Copy CRC 925BADA4 Accurately ripped (confidence 3) [AA8EA001] (AR v1) Copy OK
Track 4
Filename E:\EAC Rips\2017-05 Mei\Various Artists - De Pre Historie 1970 (1991) [FLAC] {BMG 260.742}\04 - James Brown - Get Up (I Feel Like Being A) Sex Machine.wav
Peak level 97.3 % Extraction speed 4.4 X Track quality 100.0 % Test CRC 31ACE326 Copy CRC 31ACE326 Accurately ripped (confidence 2) [4014836F] (AR v1) Copy OK
Track 5
Filename E:\EAC Rips\2017-05 Mei\Various Artists - De Pre Historie 1970 (1991) [FLAC] {BMG 260.742}\05 - The Guess Who - American Woman.wav
Peak level 92.5 % Extraction speed 4.5 X Track quality 100.0 % Test CRC FE646263 Copy CRC FE646263 Accurately ripped (confidence 2) [16200379] (AR v1) Copy OK
Track 6
Filename E:\EAC Rips\2017-05 Mei\Various Artists - De Pre Historie 1970 (1991) [FLAC] {BMG 260.742}\06 - The Beach Boys - Cottonfields.wav
Peak level 92.4 % Extraction speed 4.6 X Track quality 100.0 % Test CRC 5C521B6B Copy CRC 5C521B6B Accurately ripped (confidence 3) [8EF1B0C6] (AR v1) Copy OK
Track 7
Filename E:\EAC Rips\2017-05 Mei\Various Artists - De Pre Historie 1970 (1991) [FLAC] {BMG 260.742}\07 - Norman Greenbaum - Spirit In The Sky.wav
Peak level 96.7 % Extraction speed 5.0 X Track quality 100.0 % Test CRC 29FB8DB2 Copy CRC 29FB8DB2 Accurately ripped (confidence 2) [8908D11A] (AR v1) Copy OK
Track 8
Filename E:\EAC Rips\2017-05 Mei\Various Artists - De Pre Historie 1970 (1991) [FLAC] {BMG 260.742}\08 - Johnny Mandel - Suicide Is Painless.wav
Peak level 86.3 % Extraction speed 5.0 X Track quality 100.0 % Test CRC 4A122E51 Copy CRC 4A122E51 Accurately ripped (confidence 2) [015DB930] (AR v1) Copy OK
Track 9
Filename E:\EAC Rips\2017-05 Mei\Various Artists - De Pre Historie 1970 (1991) [FLAC] {BMG 260.742}\09 - Carpenters - Close To You.wav
Peak level 75.3 % Extraction speed 5.3 X Track quality 100.0 % Test CRC 955C6559 Copy CRC 955C6559 Accurately ripped (confidence 3) [9699FC50] (AR v1) Copy OK
Track 10
Filename E:\EAC Rips\2017-05 Mei\Various Artists - De Pre Historie 1970 (1991) [FLAC] {BMG 260.742}\10 - B.J. Thomas - Raindrops Keep Falling On My Head.wav
Peak level 88.1 % Extraction speed 5.3 X Track quality 100.0 % Test CRC 52241464 Copy CRC 52241464 Accurately ripped (confidence 3) [9381829C] (AR v1) Copy OK
Track 11
Filename E:\EAC Rips\2017-05 Mei\Various Artists - De Pre Historie 1970 (1991) [FLAC] {BMG 260.742}\11 - Jimmy Frey - Rozen Voor Sandra.wav
Peak level 96.6 % Extraction speed 5.5 X Track quality 100.0 % Test CRC 8251C7BF Copy CRC 8251C7BF Accurately ripped (confidence 2) [B53C5AD4] (AR v1) Copy OK
Track 12
Filename E:\EAC Rips\2017-05 Mei\Various Artists - De Pre Historie 1970 (1991) [FLAC] {BMG 260.742}\12 - Hotlegs - Neanderthal Man.wav
Peak level 75.2 % Extraction speed 5.7 X Track quality 100.0 % Test CRC EF0F683C Copy CRC EF0F683C Accurately ripped (confidence 3) [A82DA05D] (AR v1) Copy OK
Track 13
Filename E:\EAC Rips\2017-05 Mei\Various Artists - De Pre Historie 1970 (1991) [FLAC] {BMG 260.742}\13 - Jimmy Cliff - Wild World.wav
Peak level 94.2 % Extraction speed 6.1 X Track quality 100.0 % Test CRC E700D21B Copy CRC E700D21B Accurately ripped (confidence 3) [33BC1F90] (AR v1) Copy OK
Track 14
Filename E:\EAC Rips\2017-05 Mei\Various Artists - De Pre Historie 1970 (1991) [FLAC] {BMG 260.742}\14 - Santana - Black Magic Woman.wav
Peak level 92.8 % Extraction speed 6.1 X Track quality 100.0 % Test CRC C885098B Copy CRC C885098B Accurately ripped (confidence 2) [436B9D12] (AR v1) Copy OK
Track 15
Filename E:\EAC Rips\2017-05 Mei\Various Artists - De Pre Historie 1970 (1991) [FLAC] {BMG 260.742}\15 - Michel Delpech - Wight Is Wight.wav
Peak level 99.2 % Extraction speed 6.4 X Track quality 100.0 % Test CRC F2EECB97 Copy CRC F2EECB97 Accurately ripped (confidence 3) [B495F876] (AR v1) Copy OK
Track 16
Filename E:\EAC Rips\2017-05 Mei\Various Artists - De Pre Historie 1970 (1991) [FLAC] {BMG 260.742}\16 - Melanie & The Edwin Hawkins Singers - Lay Down.wav
Peak level 84.6 % Extraction speed 6.4 X Track quality 100.0 % Test CRC 817DF90F Copy CRC 817DF90F Accurately ripped (confidence 3) [E6BD264E] (AR v1) Copy OK
Track 17
Filename E:\EAC Rips\2017-05 Mei\Various Artists - De Pre Historie 1970 (1991) [FLAC] {BMG 260.742}\17 - Smokey Robinson & The Miracles - Tears Of A Clown.wav
Peak level 81.1 % Extraction speed 1.5 X Track quality 99.6 % Test CRC A245413D Copy CRC A245413D Accurately ripped (confidence 2) [96441EC4] (AR v1) Copy OK
Track 18
Filename E:\EAC Rips\2017-05 Mei\Various Artists - De Pre Historie 1970 (1991) [FLAC] {BMG 260.742}\18 - Diana Ross & The Supremes - Someday We'll Be Together.wav
Peak level 93.5 % Extraction speed 2.8 X Track quality 99.9 % Test CRC 2B24C239 Copy CRC 2B24C239 Accurately ripped (confidence 2) [07E3F42B] (AR v1) Copy OK
Track 19
Filename E:\EAC Rips\2017-05 Mei\Various Artists - De Pre Historie 1970 (1991) [FLAC] {BMG 260.742}\19 - Elvis Presley - The Wonder Of You.wav
Peak level 70.7 % Extraction speed 1.8 X Track quality 99.7 % Test CRC 1D797171 Copy CRC 1D797171 Accurately ripped (confidence 2) [E15710AA] (AR v1) Copy OK
Track 20
Filename E:\EAC Rips\2017-05 Mei\Various Artists - De Pre Historie 1970 (1991) [FLAC] {BMG 260.742}\20 - Will Tura - Liefdeverdriet.wav
Peak level 93.7 % Extraction speed 2.3 X Track quality 99.8 % Test CRC 68A2CF68 Copy CRC 68A2CF68 Accurately ripped (confidence 2) [0FE44BD3] (AR v1) Copy OK
All tracks accurately ripped
No errors occurred
End of status report
---- CUETools DB Plugin V2.1.6
[CTDB TOCID: c85c2vFAOIU1tMRP7E5yhV2mKRQ-] foundSubmit result: c85c2vFAOIU1tMRP7E5yhV2mKRQ- has been confirmedTrack | CTDB Status 1 | (14/14) Accurately ripped 2 | (14/14) Accurately ripped 3 | (14/14) Accurately ripped 4 | (14/14) Accurately ripped 5 | (14/14) Accurately ripped 6 | (14/14) Accurately ripped 7 | (14/14) Accurately ripped 8 | (14/14) Accurately ripped 9 | (14/14) Accurately ripped 10 | (14/14) Accurately ripped 11 | (13/14) Accurately ripped 12 | (13/14) Accurately ripped 13 | (14/14) Accurately ripped 14 | (13/14) Accurately ripped 15 | (13/14) Accurately ripped 16 | (14/14) Accurately ripped 17 | (13/14) Accurately ripped 18 | (14/14) Accurately ripped 19 | (14/14) Accurately ripped 20 | (14/14) Accurately ripped
==== Log checksum FA0A8CBAD94026F2A6A15B4108A71B03CAB4AF242568A4EAE041376AA4E3B939 ====

Содержание индексной карты (.CUE)

REM DATE 1991REM DISCID 310F3C14REM COMMENT "ExactAudioCopy v1.3"CATALOG 0000000000000PERFORMER "Various Artists"TITLE "De Pre Historie 1970"REM COMPOSER ""FILE "01 - Christie - Yellow River.wav" WAVE  TRACK 01 AUDIO    TITLE "Yellow River"    PERFORMER "Christie"    REM COMPOSER ""    PREGAP 00:00:33    INDEX 01 00:00:00FILE "02 - Rotation - Ra-Ta-Ta.wav" WAVE  TRACK 02 AUDIO    TITLE "Ra-Ta-Ta"    PERFORMER "Rotation"    REM COMPOSER ""    INDEX 01 00:00:00FILE "03 - Soulful Dynamics - Mademoiselle Ninette.wav" WAVE  TRACK 03 AUDIO    TITLE "Mademoiselle Ninette"    PERFORMER "Soulful Dynamics"    REM COMPOSER ""    INDEX 01 00:00:00FILE "04 - James Brown - Get Up (I Feel Like Being A) Sex Machine.wav" WAVE  TRACK 04 AUDIO    TITLE "Get Up (I Feel Like Being A) Sex Machine"    PERFORMER "James Brown"    REM COMPOSER ""    INDEX 01 00:00:00FILE "05 - The Guess Who - American Woman.wav" WAVE  TRACK 05 AUDIO    TITLE "American Woman"    PERFORMER "The Guess Who"    REM COMPOSER ""    INDEX 01 00:00:00FILE "06 - The Beach Boys - Cottonfields.wav" WAVE  TRACK 06 AUDIO    TITLE "Cottonfields"    PERFORMER "The Beach Boys"    REM COMPOSER ""    INDEX 01 00:00:00FILE "07 - Norman Greenbaum - Spirit In The Sky.wav" WAVE  TRACK 07 AUDIO    TITLE "Spirit In The Sky"    PERFORMER "Norman Greenbaum"    REM COMPOSER ""    INDEX 01 00:00:00FILE "08 - Johnny Mandel - Suicide Is Painless.wav" WAVE  TRACK 08 AUDIO    TITLE "Suicide Is Painless"    PERFORMER "Johnny Mandel"    REM COMPOSER ""    INDEX 01 00:00:00FILE "09 - Carpenters - Close To You.wav" WAVE  TRACK 09 AUDIO    TITLE "Close To You"    PERFORMER "Carpenters"    REM COMPOSER ""    INDEX 01 00:00:00FILE "10 - B.J. Thomas - Raindrops Keep Falling On My Head.wav" WAVE  TRACK 10 AUDIO    TITLE "Raindrops Keep Falling On My Head"    PERFORMER "B.J. Thomas"    REM COMPOSER ""    INDEX 01 00:00:00FILE "11 - Jimmy Frey - Rozen Voor Sandra.wav" WAVE  TRACK 11 AUDIO    TITLE "Rozen Voor Sandra"    PERFORMER "Jimmy Frey"    REM COMPOSER ""    INDEX 01 00:00:00FILE "12 - Hotlegs - Neanderthal Man.wav" WAVE  TRACK 12 AUDIO    TITLE "Neanderthal Man"    PERFORMER "Hotlegs"    REM COMPOSER ""    INDEX 01 00:00:00FILE "13 - Jimmy Cliff - Wild World.wav" WAVE  TRACK 13 AUDIO    TITLE "Wild World"    PERFORMER "Jimmy Cliff"    REM COMPOSER ""    INDEX 01 00:00:00FILE "14 - Santana - Black Magic Woman.wav" WAVE  TRACK 14 AUDIO    TITLE "Black Magic Woman"    PERFORMER "Santana"    REM COMPOSER ""    INDEX 01 00:00:00FILE "15 - Michel Delpech - Wight Is Wight.wav" WAVE  TRACK 15 AUDIO    TITLE "Wight Is Wight"    PERFORMER "Michel Delpech"    REM COMPOSER ""    INDEX 01 00:00:00FILE "16 - Melanie & The Edwin Hawkins Singers - Lay Down.wav" WAVE  TRACK 16 AUDIO    TITLE "Lay Down"    PERFORMER "Melanie & The Edwin Hawkins Singers"    REM COMPOSER ""    INDEX 01 00:00:00FILE "17 - Smokey Robinson & The Miracles - Tears Of A Clown.wav" WAVE  TRACK 17 AUDIO    TITLE "Tears Of A Clown"    PERFORMER "Smokey Robinson & The Miracles"    REM COMPOSER ""    INDEX 01 00:00:00FILE "18 - Diana Ross & The Supremes - Someday We'll Be Together.wav" WAVE  TRACK 18 AUDIO    TITLE "Someday We'll Be Together"    PERFORMER "Diana Ross & The Supremes"    REM COMPOSER ""    INDEX 01 00:00:00FILE "19 - Elvis Presley - The Wonder Of You.wav" WAVE  TRACK 19 AUDIO    TITLE "The Wonder Of You"    PERFORMER "Elvis Presley"    REM COMPOSER ""    INDEX 01 00:00:00FILE "20 - Will Tura - Liefdeverdriet.wav" WAVE  TRACK 20 AUDIO    TITLE "Liefdeverdriet"    PERFORMER "Will Tura"    REM COMPOSER ""    INDEX 01 00:00:00

AccurateRip

[CUETools log; Date: 20.10.2018 9:38:00; Version: 2.1.5]Pregap length 00:00:33.[CTDB TOCID: c85c2vFAOIU1tMRP7E5yhV2mKRQ-] found.Track | CTDB Status  1   | (25/25) Accurately ripped  2   | (25/25) Accurately ripped  3   | (25/25) Accurately ripped  4   | (25/25) Accurately ripped  5   | (25/25) Accurately ripped  6   | (25/25) Accurately ripped  7   | (25/25) Accurately ripped  8   | (25/25) Accurately ripped  9   | (24/25) Accurately ripped 10   | (25/25) Accurately ripped 11   | (24/25) Accurately ripped 12   | (24/25) Accurately ripped 13   | (25/25) Accurately ripped 14   | (23/25) Accurately ripped 15   | (24/25) Accurately ripped 16   | (25/25) Accurately ripped 17   | (24/25) Accurately ripped 18   | (25/25) Accurately ripped 19   | (24/25) Accurately ripped 20   | (24/25) Accurately ripped[AccurateRip ID: 002eccce-02b321a9-310f3c14] found.Track   [  CRC   |   V2   ] Status 01     [6a79f950|8d769a0c] (02+02/21) Accurately ripped 02     [16cb9903|aa58c635] (03+00/20) Accurately ripped 03     [aa8ea001|630f8417] (03+00/21) Accurately ripped 04     [4014836f|98588ee1] (02+00/19) Accurately ripped 05     [16200379|ea492009] (02+00/19) Accurately ripped 06     [8ef1b0c6|4de194bd] (03+00/20) Accurately ripped 07     [8908d11a|f00d4a7b] (02+00/19) Accurately ripped 08     [015db930|c4645180] (02+00/19) Accurately ripped 09     [9699fc50|3f7fdd06] (03+00/21) Accurately ripped 10     [9381829c|77fa68ba] (03+00/20) Accurately ripped 11     [b53c5ad4|dbd86c77] (02+00/20) Accurately ripped 12     [a82da05d|ae9b7b27] (03+00/21) Accurately ripped 13     [33bc1f90|586711ea] (03+00/21) Accurately ripped 14     [436b9d12|bd0ae009] (02+00/19) Accurately ripped 15     [b495f876|e0601ce6] (03+00/19) Accurately ripped 16     [e6bd264e|178d894e] (03+00/21) Accurately ripped 17     [96441ec4|9294f334] (02+00/18) Accurately ripped 18     [07e3f42b|2fcae6a0] (02+00/20) Accurately ripped 19     [e15710aa|ceef7d26] (02+00/17) Accurately ripped 20     [0fe44bd3|fdb79ee6] (02+00/18) Accurately rippedOffsetted by -913: 01     [b73b75e8] (05/21) Accurately ripped 02     [327d4ba6] (05/20) Accurately ripped 03     [1281e74e] (05/21) Accurately ripped 04     [f74ca083] (05/19) Accurately ripped 05     [b8d16218] (05/19) Accurately ripped 06     [9b7bdbeb] (05/20) Accurately ripped 07     [b7b1b6a4] (05/19) Accurately ripped 08     [cb81d31d] (05/19) Accurately ripped 09     [080e23a7] (05/21) Accurately ripped 10     [173652a3] (05/20) Accurately ripped 11     [ee04db63] (05/20) Accurately ripped 12     [721d6d52] (05/21) Accurately ripped 13     [8dd23102] (05/21) Accurately ripped 14     [530fe9d9] (05/19) Accurately ripped 15     [bc8d1a99] (04/19) Accurately ripped 16     [b74f9504] (05/21) Accurately ripped 17     [e5e421c5] (04/18) Accurately ripped 18     [6a6e223e] (05/20) Accurately ripped 19     [75ce9fc2] (04/17) Accurately ripped 20     [b6b6d2f0] (04/18) Accurately rippedOffsetted by 859: 01     [04421bc8] (00/21) No match (V2 was not tested) 02     [3560f9a2] (00/20) No match (V2 was not tested) 03     [07fbe412] (00/21) No match (V2 was not tested) 04     [f0c9d913] (00/19) No match (V2 was not tested) 05     [c90aa8c4] (00/19) No match (V2 was not tested) 06     [59163f8f] (00/20) No match (V2 was not tested) 07     [63955eec] (00/19) No match (V2 was not tested) 08     [b5055c61] (00/19) No match (V2 was not tested) 09     [bb23bab3] (00/21) No match (V2 was not tested) 10     [06c40b6f] (00/20) No match (V2 was not tested) 11     [df6ceccf] (00/20) No match (V2 was not tested) 12     [7661e136] (00/21) No match (V2 was not tested) 13     [bc353d6a] (00/21) No match (V2 was not tested) 14     [29c4b1a5] (00/19) No match (V2 was not tested) 15     [29069e95] (00/19) No match (V2 was not tested) 16     [80fef1bc] (00/21) No match (V2 was not tested) 17     [a245d399] (00/18) No match (V2 was not tested) 18     [962638fa] (00/20) No match (V2 was not tested) 19     [f77117a2] (00/17) No match (V2 was not tested) 20     [d947b7f4] (00/18) No match (V2 was not tested)
Track Peak [ CRC32 ] [W/O NULL] [ LOG ] -- 99,2 [43C02E34] [E5D717CB] 01 99,2 [9D004DFC] [5178FB47] CRC32 02 81,4 [3C3E5394] [F2E5CF19] CRC32 03 88,1 [925BADA4] [2C69E61F] CRC32 04 97,3 [31ACE326] [5B4EB654] CRC32 05 92,5 [FE646263] [9C545EA7] CRC32 06 92,4 [5C521B6B] [1CB0D5E1] CRC32 07 96,7 [29FB8DB2] [D3038D4E] CRC32 08 86,3 [4A122E51] [E1AF8D6C] CRC32 09 75,3 [955C6559] [7291BA25] CRC32 10 88,1 [52241464] [9C4B8692] CRC32 11 96,6 [8251C7BF] [52689807] CRC32 12 75,2 [EF0F683C] [BE8EC3A4] CRC32 13 94,2 [E700D21B] [5F410A87] CRC32 14 92,8 [C885098B] [D5B06025] CRC32 15 99,2 [F2EECB97] [955B1CE2] CRC32 16 84,6 [817DF90F] [7B253451] CRC32 17 81,1 [A245413D] [A27AD729] CRC32 18 93,5 [2B24C239] [887931CD] CRC32 19 70,7 [1D797171] [32B9CC0C] CRC32 20 93,7 [68A2CF68] [221FCDFA] CRC32
Вы не можете начинать темы
Вы не можете отвечать на сообщения
Вы не можете редактировать свои сообщения
Вы не можете удалять свои сообщения
Вы не можете голосовать в опросах
Вы не можете прикреплять файлы к сообщениям
Вы можете скачивать файлы
!ВНИМАНИЕ!

Сайт не предоставляет электронные версии произведений, а занимается лишь коллекционированием и каталогизацией ссылок, присылаемых и публикуемых на форуме нашими читателями. Если вы являетесь правообладателем какого-либо представленного материала и не желаете, чтобы ссылка на него находилась в нашем каталоге, свяжитесь с нами, и мы незамедлительно удалим ее. Файлы для обмена на трекере предоставлены пользователями сайта, и администрация не несет ответственности за их содержание. Просьба не заливать файлы, защищенные авторскими правами, а также файлы нелегального содержания!

Искали программы, игры, дополнения, музыка mp3, аниме, аудио книги, журналы? Добро пожаловать на свободный торрент трекер Torrents, у нас можно скачать бесплатно, без смс и регистрации и прочих ограничений лучшие, отборные сборки программ, игр. Скачать торрентом не составит труда даже не опытному пользователю. Раздачи ежедневно обновляются, только лучшие и качественные раздачи, подробные описания и скриншоты. Огромная коллекция программ для работы со звуком, графикой, дизайном, а так же множество плагинов и инструментов к ним с подробной инструкцией и рекомендациями. Прошивки для навигаторов, карты. Разнообразные игры, для Windows, Linux. В коллекцие есть и старые игры любых жанров, Rpg, Action, Shooter, strategy Множество дополнений, модификаций, сценариев для популярных игр в жанре экш, рпг, гонки, стратегии, логические игры. Множество аддонов и сценариев для Microsoft Flight Simulator Большая коллекция книг, учебников. Если нет возможности купить печатное издание - смело скачивайте цифровую версию книги или, быть может, журнала. Не любите читать - можно загрузить бесплатно аудикнигу. Для веб дизайнеров и программистов так же найдется множество специализированного софта, таких как: редакторы с подсветкой, среды программирования, компоненты, системы управления базами данных, разнообразные скрипты и шаблоны. Не так давно у нас появился материал для автолюбителей и владельцев мото - оригинальные и неоригинальные каталоги запчастей, книги и журналы по ремонту и обслуживанию, видеоуроки, статьи по чип тюнингу, прошивкам. Процедура получения контента элементарная, достаточно просто скачать торрент файл и добавить его в загрузку в вашем торрент клиенте. Если у вас нет специального торрент клиента, вы можете его скачать у нас.

Importance of Education - 1569 Words | 16.05.1621:09 Uhr Henry Jackman - The 5th Wave Soundtrack256 kbit/s 0 / 03.700 Hits VID P2P DDL 0 Kommentare | Ashley Bell