(Rock & Roll) [CD] VA - The Rock \'N\' Roll Era - 1961 [Time-Life Music, TL 516/05, Germany] - 1992, FLAC (tracks+.cue), lossless 

Цитировать
The Rock 'N' Roll Era - 1961
Жанр: Rock & Roll
Носитель: CD
Страна-производитель диска (релиза): Germany
Год издания: 1992
Издатель (лейбл): Time-Life Music
Номер по каталогу: TL 516/05
Аудиокодек: FLAC (*.flac)
Тип рипа: tracks+.cue
Битрейт аудио: lossless
Продолжительность: 00:55:00
Источник (релизер): Naftamusic
Наличие сканов в содержимом раздачи: да

Треклист:
01. Del Shannon - Runaway
02. Johnny Burnette - You're Sixteen
03. Billy Fury - Halfway To Paradise
04. Roy Orbison - Running Scared
05. Duane Eddy - Theme From Dixie
06. Clarence 'Frogman' Henry - (I Don't Know Why) But I Do
07. John Leyton - Johnny Remember Me
08. Connie Francis - Where The Boys Are
09. Bobby Vee - Take Good Care Of My Baby
10. Adam Faith - This Is It
11. Eddie Cochran - Weekend
12. The Shadows - Kon-Tiki
13. Jerry Lee Lewis - What'd I Say
14. The Shirelles - Will You Love Me Tomorrow
15. Marty Wilde - Rubber Ball
16. Neil Sedaka - Happy Birthday Sweet Sixteen
17. Maurice Williams And The Zodiacs - Stay
18. Ricky Nelson - Hello Mary Lou
19. Helen Shapiro - Walkin' Back To Happiness
20. Sam Cooke - Cupid
21. Sandy Nelson - Let There Be Drums
22. Dion - Runaround Sue
23. Eden Kane - Well I Ask You
24. The Tokens - The Lion Sleeps Tonight

Лог создания рипа

Exact Audio Copy V1.0 beta 3 from 29. August 2011
EAC extraction logfile from 13. December 2012, 20:54
Various Artists / The Rock 'n' Roll Era
Used drive : PLEXTOR DVDR PX-891SA Adapter: 0 ID: 4
Read mode : SecureUtilize accurate stream : YesDefeat audio cache : YesMake use of C2 pointers : No
Read offset correction : 6Overread into Lead-In and Lead-Out : NoFill up missing offset samples with silence : YesDelete leading and trailing silent blocks : NoNull samples used in CRC calculations : YesUsed interface : Native Win32 interface for Win NT & 2000Gap handling : Appended to previous track
Used output format : User Defined EncoderSelected bitrate : 1024 kBit/sQuality : HighAdd ID3 tag : NoCommand line compressor : C:\Program Files (x86)\Exact Audio Copy\FLAC\FLAC.EXEAdditional command line options : -0 -V -T "ARTIST=%artist%" -T "TITLE=%title%" -T "ALBUM=%albumtitle%" -T "DATE=%year%" -T "TRACKNUMBER=%tracknr%" -T "TOTALTRACKS=%numtracks%" -T "GENRE=%genre%" -T "COMMENT=Naftamusic Release!" %source%
TOC of the extracted CD
Track | Start | Length | Start sector | End sector --------------------------------------------------------- 1 | 0:00.00 | 2:21.40 | 0 | 10614 2 | 2:21.40 | 1:59.15 | 10615 | 19554 3 | 4:20.55 | 2:27.62 | 19555 | 30641 4 | 6:48.42 | 2:13.48 | 30642 | 40664 5 | 9:02.15 | 1:56.52 | 40665 | 49416 6 | 10:58.67 | 2:21.03 | 49417 | 59994 7 | 13:19.70 | 2:42.25 | 59995 | 72169 8 | 16:02.20 | 2:39.62 | 72170 | 84156 9 | 18:42.07 | 2:37.13 | 84157 | 95944 10 | 21:19.20 | 1:47.37 | 95945 | 104006 11 | 23:06.57 | 1:52.13 | 104007 | 112419 12 | 24:58.70 | 1:56.00 | 112420 | 121119 13 | 26:54.70 | 2:27.07 | 121120 | 132151 14 | 29:22.02 | 2:43.73 | 132152 | 144449 15 | 32:06.00 | 2:15.25 | 144450 | 154599 16 | 34:21.25 | 2:35.52 | 154600 | 166276 17 | 36:57.02 | 1:39.60 | 166277 | 173761 18 | 38:36.62 | 2:20.28 | 173762 | 184289 19 | 40:57.15 | 2:32.00 | 184290 | 195689 20 | 43:29.15 | 2:31.17 | 195690 | 207031 21 | 46:00.32 | 2:21.03 | 207032 | 217609 22 | 48:21.35 | 2:41.50 | 217610 | 229734 23 | 51:03.10 | 2:17.67 | 229735 | 240076 24 | 53:21.02 | 2:39.18 | 240077 | 252019
Track 1
Filename F:\Nafta Releases\VA - The Rock'N'Roll Era 1961 (1992)[FLAC] - Naftamusic\01 - Del Shannon - Runaway.wav
Pre-gap length 0:00:02.00
Peak level 65.5 % Extraction speed 3.1 X Track quality 100.0 % Test CRC 15BFBB5A Copy CRC 15BFBB5A Accurately ripped (confidence 2) [259C8C9A] (AR v2) Copy OK
Track 2
Filename F:\Nafta Releases\VA - The Rock'N'Roll Era 1961 (1992)[FLAC] - Naftamusic\02 - Johnny Burnette - You're Sixteen.wav
Pre-gap length 0:00:02.33
Peak level 74.7 % Extraction speed 2.3 X Track quality 99.9 % Test CRC 8E1DDB54 Copy CRC 8E1DDB54 Accurately ripped (confidence 2) [31C4AB2F] (AR v2) Copy OK
Track 3
Filename F:\Nafta Releases\VA - The Rock'N'Roll Era 1961 (1992)[FLAC] - Naftamusic\03 - Billy Fury - Halfway To Paradise.wav
Pre-gap length 0:00:02.65
Peak level 59.3 % Extraction speed 3.6 X Track quality 100.0 % Test CRC 39229046 Copy CRC 39229046 Accurately ripped (confidence 2) [E2E0FF41] (AR v2) Copy OK
Track 4
Filename F:\Nafta Releases\VA - The Rock'N'Roll Era 1961 (1992)[FLAC] - Naftamusic\04 - Roy Orbison - Running Scared.wav
Pre-gap length 0:00:02.47
Peak level 72.8 % Extraction speed 3.7 X Track quality 100.0 % Test CRC B0F33E99 Copy CRC B0F33E99 Accurately ripped (confidence 2) [5524E33C] (AR v2) Copy OK
Track 5
Filename F:\Nafta Releases\VA - The Rock'N'Roll Era 1961 (1992)[FLAC] - Naftamusic\05 - Duane Eddy - Theme From Dixie.wav
Pre-gap length 0:00:02.55
Peak level 55.7 % Extraction speed 3.8 X Track quality 100.0 % Test CRC 307C09E3 Copy CRC 307C09E3 Accurately ripped (confidence 2) [1DF7675A] (AR v2) Copy OK
Track 6
Filename F:\Nafta Releases\VA - The Rock'N'Roll Era 1961 (1992)[FLAC] - Naftamusic\06 - Clarence ''Frogman'' Henry - (I Don't Know Why) But I Do.wav
Pre-gap length 0:00:02.32
Peak level 85.7 % Extraction speed 4.1 X Track quality 100.0 % Test CRC 7C07D7AC Copy CRC 7C07D7AC Accurately ripped (confidence 2) [245F4C18] (AR v2) Copy OK
Track 7
Filename F:\Nafta Releases\VA - The Rock'N'Roll Era 1961 (1992)[FLAC] - Naftamusic\07 - John Leyton - Johnny Remember Me.wav
Pre-gap length 0:00:02.33
Peak level 64.1 % Extraction speed 3.3 X Track quality 99.9 % Test CRC 2A56144B Copy CRC 2A56144B Accurately ripped (confidence 2) [5F558669] (AR v2) Copy OK
Track 8
Filename F:\Nafta Releases\VA - The Rock'N'Roll Era 1961 (1992)[FLAC] - Naftamusic\08 - Connie Francis - Where The Boys Are.wav
Pre-gap length 0:00:02.55
Peak level 67.0 % Extraction speed 4.6 X Track quality 100.0 % Test CRC 21E3AF66 Copy CRC 21E3AF66 Accurately ripped (confidence 2) [5FC4975C] (AR v2) Copy OK
Track 9
Filename F:\Nafta Releases\VA - The Rock'N'Roll Era 1961 (1992)[FLAC] - Naftamusic\09 - Bobby Vee - Take Good Care Of My Baby.wav
Pre-gap length 0:00:02.40
Peak level 74.1 % Extraction speed 4.8 X Track quality 100.0 % Test CRC 1371A804 Copy CRC 1371A804 Accurately ripped (confidence 2) [F6887F3D] (AR v2) Copy OK
Track 10
Filename F:\Nafta Releases\VA - The Rock'N'Roll Era 1961 (1992)[FLAC] - Naftamusic\10 - Adam Faith - This Is It.wav
Pre-gap length 0:00:02.40
Peak level 64.9 % Extraction speed 4.5 X Track quality 100.0 % Test CRC 79003AA1 Copy CRC 79003AA1 Accurately ripped (confidence 2) [0FD700AA] (AR v2) Copy OK
Track 11
Filename F:\Nafta Releases\VA - The Rock'N'Roll Era 1961 (1992)[FLAC] - Naftamusic\11 - Eddie Cochran - Weekend.wav
Pre-gap length 0:00:02.50
Peak level 85.0 % Extraction speed 4.7 X Track quality 100.0 % Test CRC 37746BD3 Copy CRC 37746BD3 Accurately ripped (confidence 2) [3D47733A] (AR v2) Copy OK
Track 12
Filename F:\Nafta Releases\VA - The Rock'N'Roll Era 1961 (1992)[FLAC] - Naftamusic\12 - The Shadows - Kon-Tiki.wav
Pre-gap length 0:00:02.19
Peak level 72.1 % Extraction speed 4.8 X Track quality 100.0 % Test CRC 1D316FE6 Copy CRC 1D316FE6 Accurately ripped (confidence 2) [1B2D1AE7] (AR v2) Copy OK
Track 13
Filename F:\Nafta Releases\VA - The Rock'N'Roll Era 1961 (1992)[FLAC] - Naftamusic\13 - Jerry Lee Lewis - What'd I Say.wav
Pre-gap length 0:00:02.43
Peak level 85.5 % Extraction speed 5.1 X Track quality 100.0 % Test CRC D43AB008 Copy CRC D43AB008 Accurately ripped (confidence 2) [B7C156E4] (AR v2) Copy OK
Track 14
Filename F:\Nafta Releases\VA - The Rock'N'Roll Era 1961 (1992)[FLAC] - Naftamusic\14 - The Shirelles - Will You Love Me Tomorrow.wav
Pre-gap length 0:00:02.55
Peak level 70.8 % Extraction speed 4.1 X Track quality 99.9 % Test CRC 93A76175 Copy CRC 93A76175 Accurately ripped (confidence 2) [F51B113A] (AR v2) Copy OK
Track 15
Filename F:\Nafta Releases\VA - The Rock'N'Roll Era 1961 (1992)[FLAC] - Naftamusic\15 - Marty Wilde - Rubber Ball.wav
Pre-gap length 0:00:02.53
Peak level 64.1 % Extraction speed 5.4 X Track quality 100.0 % Test CRC DAA180F0 Copy CRC DAA180F0 Accurately ripped (confidence 2) [5ACA580B] (AR v2) Copy OK
Track 16
Filename F:\Nafta Releases\VA - The Rock'N'Roll Era 1961 (1992)[FLAC] - Naftamusic\16 - Neil Sedaka - Happy Birthday Sweet Sixteen.wav
Pre-gap length 0:00:02.53
Peak level 57.3 % Extraction speed 4.2 X Track quality 99.9 % Test CRC 99283144 Copy CRC 99283144 Accurately ripped (confidence 2) [538C77FD] (AR v2) Copy OK
Track 17
Filename F:\Nafta Releases\VA - The Rock'N'Roll Era 1961 (1992)[FLAC] - Naftamusic\17 - Maurice Williams And The Zodiacs - Stay.wav
Pre-gap length 0:00:02.27
Peak level 82.5 % Extraction speed 5.3 X Track quality 100.0 % Test CRC 3A5881B1 Copy CRC 3A5881B1 Accurately ripped (confidence 2) [2643B60A] (AR v2) Copy OK
Track 18
Filename F:\Nafta Releases\VA - The Rock'N'Roll Era 1961 (1992)[FLAC] - Naftamusic\18 - Ricky Nelson - Hello Mary Lou.wav
Pre-gap length 0:00:02.35
Peak level 56.6 % Extraction speed 5.8 X Track quality 100.0 % Test CRC 9517B41D Copy CRC 9517B41D Accurately ripped (confidence 2) [E007D9B5] (AR v2) Copy OK
Track 19
Filename F:\Nafta Releases\VA - The Rock'N'Roll Era 1961 (1992)[FLAC] - Naftamusic\19 - Helen Shapiro - Walkin' Back To Happiness.wav
Pre-gap length 0:00:02.53
Peak level 66.7 % Extraction speed 6.0 X Track quality 100.0 % Test CRC ED7F812F Copy CRC ED7F812F Accurately ripped (confidence 2) [CA731567] (AR v2) Copy OK
Track 20
Filename F:\Nafta Releases\VA - The Rock'N'Roll Era 1961 (1992)[FLAC] - Naftamusic\20 - Sam Cooke - Cupid.wav
Pre-gap length 0:00:02.55
Peak level 80.8 % Extraction speed 6.1 X Track quality 100.0 % Test CRC 199E6FC9 Copy CRC 199E6FC9 Accurately ripped (confidence 2) [661D3B0B] (AR v2) Copy OK
Track 21
Filename F:\Nafta Releases\VA - The Rock'N'Roll Era 1961 (1992)[FLAC] - Naftamusic\21 - Sandy Nelson - Let There Be Drums.wav
Pre-gap length 0:00:02.37
Peak level 63.5 % Extraction speed 6.2 X Track quality 100.0 % Test CRC A5091844 Copy CRC A5091844 Accurately ripped (confidence 2) [8AF91798] (AR v2) Copy OK
Track 22
Filename F:\Nafta Releases\VA - The Rock'N'Roll Era 1961 (1992)[FLAC] - Naftamusic\22 - Dion - Runaround Sue.wav
Pre-gap length 0:00:02.55
Peak level 90.3 % Extraction speed 4.8 X Track quality 99.9 % Test CRC D5638E76 Copy CRC D5638E76 Accurately ripped (confidence 2) [E31006FD] (AR v2) Copy OK
Track 23
Filename F:\Nafta Releases\VA - The Rock'N'Roll Era 1961 (1992)[FLAC] - Naftamusic\23 - Eden Kane - Well I Ask You.wav
Pre-gap length 0:00:02.73
Peak level 66.9 % Extraction speed 6.4 X Track quality 100.0 % Test CRC AE8BA4F1 Copy CRC AE8BA4F1 Accurately ripped (confidence 2) [FABDD04F] (AR v2) Copy OK
Track 24
Filename F:\Nafta Releases\VA - The Rock'N'Roll Era 1961 (1992)[FLAC] - Naftamusic\24 - The Tokens - The Lion Sleeps Tonight.wav
Pre-gap length 0:00:02.52
Peak level 61.9 % Extraction speed 6.7 X Track quality 100.0 % Test CRC 7AE8E659 Copy CRC 7AE8E659 Accurately ripped (confidence 2) [49E6E40D] (AR v2) Copy OK
All tracks accurately ripped
No errors occurred
End of status report
==== Log checksum 1101170476A81E620AA691C21FF58951B86C8F3593C5861160332D23C0DE86A5 ====

Содержание индексной карты (.CUE)

REM GENRE "Rock & Roll"REM DATE 1992REM DISCID 2B0D2018REM COMMENT "ExactAudioCopy v1.0b3"PERFORMER "Various Artists"TITLE "The Rock 'N' Roll Era - 1961"FILE "01 - Del Shannon - Runaway.wav" WAVE  TRACK 01 AUDIO    TITLE "Runaway"    PERFORMER "Del Shannon"    INDEX 01 00:00:00  TRACK 02 AUDIO    TITLE "You're Sixteen"    PERFORMER "Johnny Burnette"    INDEX 00 02:19:07FILE "02 - Johnny Burnette - You're Sixteen.wav" WAVE    INDEX 01 00:00:00  TRACK 03 AUDIO    TITLE "Halfway To Paradise"    PERFORMER "Billy Fury"    INDEX 00 01:56:25FILE "03 - Billy Fury - Halfway To Paradise.wav" WAVE    INDEX 01 00:00:00  TRACK 04 AUDIO    TITLE "Running Scared"    PERFORMER "Roy Orbison"    INDEX 00 02:25:15FILE "04 - Roy Orbison - Running Scared.wav" WAVE    INDEX 01 00:00:00  TRACK 05 AUDIO    TITLE "Theme From Dixie"    PERFORMER "Duane Eddy"    INDEX 00 02:10:68FILE "05 - Duane Eddy - Theme From Dixie.wav" WAVE    INDEX 01 00:00:00  TRACK 06 AUDIO    TITLE "(I Don't Know Why) But I Do"    PERFORMER "Clarence ''Frogman'' Henry"    INDEX 00 01:54:20FILE "06 - Clarence ''Frogman'' Henry - (I Don't Know Why) But I Do.wav" WAVE    INDEX 01 00:00:00  TRACK 07 AUDIO    TITLE "Johnny Remember Me"    PERFORMER "John Leyton"    INDEX 00 02:18:45FILE "07 - John Leyton - Johnny Remember Me.wav" WAVE    INDEX 01 00:00:00  TRACK 08 AUDIO    TITLE "Where The Boys Are"    PERFORMER "Connie Francis"    INDEX 00 02:39:45FILE "08 - Connie Francis - Where The Boys Are.wav" WAVE    INDEX 01 00:00:00  TRACK 09 AUDIO    TITLE "Take Good Care Of My Baby"    PERFORMER "Bobby Vee"    INDEX 00 02:37:22FILE "09 - Bobby Vee - Take Good Care Of My Baby.wav" WAVE    INDEX 01 00:00:00  TRACK 10 AUDIO    TITLE "This Is It"    PERFORMER "Adam Faith"    INDEX 00 02:34:48FILE "10 - Adam Faith - This Is It.wav" WAVE    INDEX 01 00:00:00  TRACK 11 AUDIO    TITLE "Weekend"    PERFORMER "Eddie Cochran"    INDEX 00 01:44:62FILE "11 - Eddie Cochran - Weekend.wav" WAVE    INDEX 01 00:00:00  TRACK 12 AUDIO    TITLE "Kon-Tiki"    PERFORMER "The Shadows"    INDEX 00 01:49:69FILE "12 - The Shadows - Kon-Tiki.wav" WAVE    INDEX 01 00:00:00  TRACK 13 AUDIO    TITLE "What'd I Say"    PERFORMER "Jerry Lee Lewis"    INDEX 00 01:53:32FILE "13 - Jerry Lee Lewis - What'd I Say.wav" WAVE    INDEX 01 00:00:00  TRACK 14 AUDIO    TITLE "Will You Love Me Tomorrow"    PERFORMER "The Shirelles"    INDEX 00 02:24:27FILE "14 - The Shirelles - Will You Love Me Tomorrow.wav" WAVE    INDEX 01 00:00:00  TRACK 15 AUDIO    TITLE "Rubber Ball"    PERFORMER "Marty Wilde"    INDEX 00 02:41:20FILE "15 - Marty Wilde - Rubber Ball.wav" WAVE    INDEX 01 00:00:00  TRACK 16 AUDIO    TITLE "Happy Birthday Sweet Sixteen"    PERFORMER "Neil Sedaka"    INDEX 00 02:12:47FILE "16 - Neil Sedaka - Happy Birthday Sweet Sixteen.wav" WAVE    INDEX 01 00:00:00  TRACK 17 AUDIO    TITLE "Stay"    PERFORMER "Maurice Williams And The Zodiacs"    INDEX 00 02:33:25FILE "17 - Maurice Williams And The Zodiacs - Stay.wav" WAVE    INDEX 01 00:00:00  TRACK 18 AUDIO    TITLE "Hello Mary Lou"    PERFORMER "Ricky Nelson"    INDEX 00 01:37:25FILE "18 - Ricky Nelson - Hello Mary Lou.wav" WAVE    INDEX 01 00:00:00  TRACK 19 AUDIO    TITLE "Walkin' Back To Happiness"    PERFORMER "Helen Shapiro"    INDEX 00 02:17:50FILE "19 - Helen Shapiro - Walkin' Back To Happiness.wav" WAVE    INDEX 01 00:00:00  TRACK 20 AUDIO    TITLE "Cupid"    PERFORMER "Sam Cooke"    INDEX 00 02:29:20FILE "20 - Sam Cooke - Cupid.wav" WAVE    INDEX 01 00:00:00  TRACK 21 AUDIO    TITLE "Let There Be Drums"    PERFORMER "Sandy Nelson"    INDEX 00 02:28:55FILE "21 - Sandy Nelson - Let There Be Drums.wav" WAVE    INDEX 01 00:00:00  TRACK 22 AUDIO    TITLE "Runaround Sue"    PERFORMER "Dion"    INDEX 00 02:18:23FILE "22 - Dion - Runaround Sue.wav" WAVE    INDEX 01 00:00:00  TRACK 23 AUDIO    TITLE "Well I Ask You"    PERFORMER "Eden Kane"    INDEX 00 02:38:52FILE "23 - Eden Kane - Well I Ask You.wav" WAVE    INDEX 01 00:00:00  TRACK 24 AUDIO    TITLE "The Lion Sleeps Tonight"    PERFORMER "The Tokens"    INDEX 00 02:15:15FILE "24 - The Tokens - The Lion Sleeps Tonight.wav" WAVE    INDEX 01 00:00:00

AccurateRip

[CUETools log; Date: 13.10.2018 14:17:25; Version: 2.1.5][CTDB TOCID: grM2zhPmT9jv6tESRgxAydobpNI-] found.Track | CTDB Status  1   | (43/43) Accurately ripped  2   | (43/43) Accurately ripped  3   | (43/43) Accurately ripped  4   | (43/43) Accurately ripped  5   | (43/43) Accurately ripped  6   | (43/43) Accurately ripped  7   | (42/43) Accurately ripped  8   | (43/43) Accurately ripped  9   | (43/43) Accurately ripped 10   | (43/43) Accurately ripped 11   | (43/43) Accurately ripped 12   | (43/43) Accurately ripped 13   | (43/43) Accurately ripped 14   | (43/43) Accurately ripped 15   | (43/43) Accurately ripped 16   | (43/43) Accurately ripped 17   | (43/43) Accurately ripped 18   | (43/43) Accurately ripped 19   | (43/43) Accurately ripped 20   | (43/43) Accurately ripped 21   | (43/43) Accurately ripped 22   | (43/43) Accurately ripped 23   | (43/43) Accurately ripped 24   | (43/43) Accurately ripped[AccurateRip ID: 002f4723-033550b2-2b0d2018] found.Track   [  CRC   |   V2   ] Status 01     [6f1ad830|259c8c9a] (10+11/21) Accurately ripped 02     [5ad29645|31c4ab2f] (10+11/21) Accurately ripped 03     [5c71126c|e2e0ff41] (10+11/21) Accurately ripped 04     [393b834a|5524e33c] (10+11/21) Accurately ripped 05     [5901cf7f|1df7675a] (10+11/21) Accurately ripped 06     [59e342d9|245f4c18] (10+11/21) Accurately ripped 07     [e16053ab|5f558669] (10+11/21) Accurately ripped 08     [342b22f2|5fc4975c] (10+11/21) Accurately ripped 09     [987231be|f6887f3d] (10+11/21) Accurately ripped 10     [583ac016|0fd700aa] (10+11/21) Accurately ripped 11     [862668ed|3d47733a] (10+11/21) Accurately ripped 12     [fd2366f7|1b2d1ae7] (10+11/21) Accurately ripped 13     [2ce1592a|b7c156e4] (10+10/20) Accurately ripped 14     [c476dd5e|f51b113a] (10+10/20) Accurately ripped 15     [07b5c3a7|5aca580b] (10+10/20) Accurately ripped 16     [cb025a79|538c77fd] (10+11/21) Accurately ripped 17     [9baf3ae9|2643b60a] (10+11/21) Accurately ripped 18     [d911b5ee|e007d9b5] (10+11/21) Accurately ripped 19     [0038591b|ca731567] (10+10/20) Accurately ripped 20     [6f042ced|661d3b0b] (10+10/20) Accurately ripped 21     [a6bdecf2|8af91798] (11+10/21) Accurately ripped 22     [3e682594|e31006fd] (10+10/20) Accurately ripped 23     [7c998974|fabdd04f] (10+10/20) Accurately ripped 24     [75371131|49e6e40d] (08+10/18) Accurately ripped
Track Peak [ CRC32 ] [W/O NULL] [ LOG ] -- 90,3 [37B7C2D2] [930737FB] 01 65,5 [15BFBB5A] [F2FBA87B] CRC32 02 74,7 [8E1DDB54] [03E1E1E7] CRC32 03 59,3 [39229046] [EC2DFC53] CRC32 04 72,8 [B0F33E99] [48F5E3F3] CRC32 05 55,7 [307C09E3] [DED8E9E9] CRC32 06 85,7 [7C07D7AC] [D58C3C69] CRC32 07 64,1 [2A56144B] [E3C0B588] CRC32 08 67,0 [21E3AF66] [14E63604] CRC32 09 74,1 [1371A804] [06A6B99A] CRC32 10 64,9 [79003AA1] [2720851D] CRC32 11 85,0 [37746BD3] [01C05A8E] CRC32 12 72,1 [1D316FE6] [D0D7D803] CRC32 13 85,5 [D43AB008] [3B01C716] CRC32 14 70,8 [93A76175] [CA0ED5B7] CRC32 15 64,1 [DAA180F0] [9C2E213F] CRC32 16 57,3 [99283144] [E3696403] CRC32 17 82,5 [3A5881B1] [B4E15476] CRC32 18 56,6 [9517B41D] [5765015F] CRC32 19 66,7 [ED7F812F] [D2E3F61F] CRC32 20 80,8 [199E6FC9] [F92AE9F4] CRC32 21 63,5 [A5091844] [1C152CC0] CRC32 22 90,3 [D5638E76] [F19F62F7] CRC32 23 66,9 [AE8BA4F1] [41AA00E4] CRC32 24 61,9 [7AE8E659] [3E237CE9] CRC32
Вы не можете начинать темы
Вы не можете отвечать на сообщения
Вы не можете редактировать свои сообщения
Вы не можете удалять свои сообщения
Вы не можете голосовать в опросах
Вы не можете прикреплять файлы к сообщениям
Вы можете скачивать файлы
!ВНИМАНИЕ!

Сайт не предоставляет электронные версии произведений, а занимается лишь коллекционированием и каталогизацией ссылок, присылаемых и публикуемых на форуме нашими читателями. Если вы являетесь правообладателем какого-либо представленного материала и не желаете, чтобы ссылка на него находилась в нашем каталоге, свяжитесь с нами, и мы незамедлительно удалим ее. Файлы для обмена на трекере предоставлены пользователями сайта, и администрация не несет ответственности за их содержание. Просьба не заливать файлы, защищенные авторскими правами, а также файлы нелегального содержания!

Искали программы, игры, дополнения, музыка mp3, аниме, аудио книги, журналы? Добро пожаловать на свободный торрент трекер Torrents, у нас можно скачать бесплатно, без смс и регистрации и прочих ограничений лучшие, отборные сборки программ, игр. Скачать торрентом не составит труда даже не опытному пользователю. Раздачи ежедневно обновляются, только лучшие и качественные раздачи, подробные описания и скриншоты. Огромная коллекция программ для работы со звуком, графикой, дизайном, а так же множество плагинов и инструментов к ним с подробной инструкцией и рекомендациями. Прошивки для навигаторов, карты. Разнообразные игры, для Windows, Linux. В коллекцие есть и старые игры любых жанров, Rpg, Action, Shooter, strategy Множество дополнений, модификаций, сценариев для популярных игр в жанре экш, рпг, гонки, стратегии, логические игры. Множество аддонов и сценариев для Microsoft Flight Simulator Большая коллекция книг, учебников. Если нет возможности купить печатное издание - смело скачивайте цифровую версию книги или, быть может, журнала. Не любите читать - можно загрузить бесплатно аудикнигу. Для веб дизайнеров и программистов так же найдется множество специализированного софта, таких как: редакторы с подсветкой, среды программирования, компоненты, системы управления базами данных, разнообразные скрипты и шаблоны. Не так давно у нас появился материал для автолюбителей и владельцев мото - оригинальные и неоригинальные каталоги запчастей, книги и журналы по ремонту и обслуживанию, видеоуроки, статьи по чип тюнингу, прошивкам. Процедура получения контента элементарная, достаточно просто скачать торрент файл и добавить его в загрузку в вашем торрент клиенте. Если у вас нет специального торрент клиента, вы можете его скачать у нас.

Mein Landrezept (1) | Macross Frontier | subtituladas