(Various) [CD] VA - De Pre Historie 1987 [EMI/Virgin, 262.687, Belgium] - 1992, FLAC (tracks+.cue), lossless 

Цитировать
De Pre Historie 1987
Жанр: Various
Носитель: CD
Страна-производитель диска (релиза): Belgium
Год издания: 1992
Издатель (лейбл): EMI/Virgin
Номер по каталогу: 262.687
Аудиокодек: FLAC (*.flac)
Тип рипа: tracks+.cue
Битрейт аудио: lossless
Продолжительность: 01:14:43
Источник (релизер): From RED
Наличие сканов в содержимом раздачи: нет

Треклист:
01. Rick Astley – Never Gonna Give You Up
02. Mel & Kim – Respectable
03. Cliff Richard – Some People
04. T'Pau – China In Your Hands
05. ABC – When Smokey Sings
06. Billy Ocean – Get Outta My Dreams, Get Into My Car
07. Vaya Con Dios – Just A Friend Of Mine
08. Eurythmics – Miracle Of Love
09. Peter Gabriel & Kate Bush – Don't Give Up
10. Black – Wonderful Life
11. Won Ton Ton – I Lie And I Cheat
12. Viktor Lazlo – Breathless
13. Nina Simone – My Baby Just Cares For Me
14. Belinda Carlisle – Heaven Is A Place On Earth
15. Julien Clerc – Hélène
16. Boy George – Everything I Own
17. The Communards – Never Can Say Goodbye
18. The Scorpions – Still Loving You

Лог создания рипа

Exact Audio Copy V1.3 from 2. September 2016
EAC extraction logfile from 21. May 2017, 11:54
Various Artists / De Pre Historie 1987
Used drive : ATAPI iHAS124 F Adapter: 1 ID: 2
Read mode : SecureUtilize accurate stream : YesDefeat audio cache : YesMake use of C2 pointers : No
Read offset correction : 6Overread into Lead-In and Lead-Out : NoFill up missing offset samples with silence : YesDelete leading and trailing silent blocks : NoNull samples used in CRC calculations : YesUsed interface : Native Win32 interface for Win NT & 2000Gap handling : Appended to previous track
Used output format : User Defined EncoderSelected bitrate : 1024 kBit/sQuality : HighAdd ID3 tag : NoCommand line compressor : C:\cmd.exeAdditional command line options : /c ""C:\F\CUETools.FLACCL.cmd.exe" -8 --verify %source% -o %dest% & "C:\M\metaflac.exe" --set-tag="ARTIST=%artist%" --set-tag="TITLE=%title%" --set-tag="ALBUM=%albumtitle%" --set-tag="DATE=%year%" --set-tag="TRACKNUMBER=%tracknr%" --set-tag="GENRE=%genre%" --set-tag="COMPOSER=%composer%" --set-tag="ALBUMARTIST=%albumartist%" %dest%"
TOC of the extracted CD
Track | Start | Length | Start sector | End sector --------------------------------------------------------- 1 | 0:00.32 | 3:33.73 | 32 | 16079 2 | 3:34.30 | 3:19.62 | 16080 | 31066 3 | 6:54.17 | 3:50.10 | 31067 | 48326 4 | 10:44.27 | 3:58.70 | 48327 | 66246 5 | 14:43.22 | 4:20.13 | 66247 | 85759 6 | 19:03.35 | 4:38.52 | 85760 | 106661 7 | 23:42.12 | 3:23.20 | 106662 | 121906 8 | 27:05.32 | 4:36.13 | 121907 | 142619 9 | 31:41.45 | 5:56.02 | 142620 | 169321 10 | 37:37.47 | 4:50.20 | 169322 | 191091 11 | 42:27.67 | 3:53.28 | 191092 | 208594 12 | 46:21.20 | 3:37.25 | 208595 | 224894 13 | 49:58.45 | 3:37.37 | 224895 | 241206 14 | 53:36.07 | 4:06.25 | 241207 | 259681 15 | 57:42.32 | 3:40.33 | 259682 | 276214 16 | 61:22.65 | 3:52.72 | 276215 | 293686 17 | 65:15.62 | 4:41.33 | 293687 | 314794 18 | 69:57.20 | 4:53.05 | 314795 | 336774
Track 1
Filename E:\EAC Rips\2017-05 Mei\Various Artists - De Pre Historie 1987 (1992) [FLAC] {BMG 262.687}\01 - Rick Astley - Never Gonna Give You Up.wav
Pre-gap length 0:00:02.32
Peak level 99.2 % Extraction speed 2.1 X Track quality 100.0 % Test CRC 079B861D Copy CRC 079B861D Accurately ripped (confidence 5) [FE7444A7] (AR v2) Copy OK
Track 2
Filename E:\EAC Rips\2017-05 Mei\Various Artists - De Pre Historie 1987 (1992) [FLAC] {BMG 262.687}\02 - Mel & Kim - Respectable.wav
Peak level 76.3 % Extraction speed 1.9 X Track quality 99.9 % Test CRC 39CA6AE5 Copy CRC 39CA6AE5 Accurately ripped (confidence 5) [0DEAB8C5] (AR v2) Copy OK
Track 3
Filename E:\EAC Rips\2017-05 Mei\Various Artists - De Pre Historie 1987 (1992) [FLAC] {BMG 262.687}\03 - Cliff Richard - Some People.wav
Pre-gap length 0:00:00.67
Peak level 99.2 % Extraction speed 2.4 X Track quality 100.0 % Test CRC BB80F0EF Copy CRC BB80F0EF Accurately ripped (confidence 5) [C3D19A69] (AR v2) Copy OK
Track 4
Filename E:\EAC Rips\2017-05 Mei\Various Artists - De Pre Historie 1987 (1992) [FLAC] {BMG 262.687}\04 - T’Pau - China In Your Hand.wav
Pre-gap length 0:00:00.67
Peak level 99.2 % Extraction speed 2.6 X Track quality 100.0 % Test CRC 833E79C4 Copy CRC 833E79C4 Accurately ripped (confidence 5) [AC190AA7] (AR v2) Copy OK
Track 5
Filename E:\EAC Rips\2017-05 Mei\Various Artists - De Pre Historie 1987 (1992) [FLAC] {BMG 262.687}\05 - ABC - When Smokey Sings.wav
Peak level 99.1 % Extraction speed 2.8 X Track quality 100.0 % Test CRC 553A92B7 Copy CRC 553A92B7 Accurately ripped (confidence 5) [786BDDEE] (AR v2) Copy OK
Track 6
Filename E:\EAC Rips\2017-05 Mei\Various Artists - De Pre Historie 1987 (1992) [FLAC] {BMG 262.687}\06 - Billy Ocean - Get Outta My Dreams, Get Into My Car.wav
Peak level 94.2 % Extraction speed 3.0 X Track quality 100.0 % Test CRC AFD30600 Copy CRC AFD30600 Accurately ripped (confidence 6) [1B6E846D] (AR v2) Copy OK
Track 7
Filename E:\EAC Rips\2017-05 Mei\Various Artists - De Pre Historie 1987 (1992) [FLAC] {BMG 262.687}\07 - Vaya Con Dios - Just A Friend Of Mine.wav
Pre-gap length 0:00:01.12
Peak level 89.4 % Extraction speed 3.0 X Track quality 100.0 % Test CRC D79F27E8 Copy CRC D79F27E8 Accurately ripped (confidence 5) [DCC13596] (AR v2) Copy OK
Track 8
Filename E:\EAC Rips\2017-05 Mei\Various Artists - De Pre Historie 1987 (1992) [FLAC] {BMG 262.687}\08 - Eurythmics - Miracle Of Love.wav
Pre-gap length 0:00:00.45
Peak level 90.8 % Extraction speed 3.3 X Track quality 100.0 % Test CRC 9A679DB6 Copy CRC 9A679DB6 Accurately ripped (confidence 6) [E400CFC6] (AR v2) Copy OK
Track 9
Filename E:\EAC Rips\2017-05 Mei\Various Artists - De Pre Historie 1987 (1992) [FLAC] {BMG 262.687}\09 - Peter Gabriel & Kate Bush - Don’T Give Up.wav
Peak level 86.5 % Extraction speed 3.5 X Track quality 100.0 % Test CRC 254F940F Copy CRC 254F940F Accurately ripped (confidence 5) [1C5528F7] (AR v2) Copy OK
Track 10
Filename E:\EAC Rips\2017-05 Mei\Various Artists - De Pre Historie 1987 (1992) [FLAC] {BMG 262.687}\10 - Black - Wonderful Life.wav
Peak level 99.2 % Extraction speed 3.6 X Track quality 100.0 % Test CRC 098F3CF7 Copy CRC 098F3CF7 Accurately ripped (confidence 5) [B53B1F0A] (AR v2) Copy OK
Track 11
Filename E:\EAC Rips\2017-05 Mei\Various Artists - De Pre Historie 1987 (1992) [FLAC] {BMG 262.687}\11 - Won Ton Ton - I Lie And I Cheat.wav
Pre-gap length 0:00:01.00
Peak level 99.2 % Extraction speed 3.2 X Track quality 99.9 % Test CRC 57FAE03D Copy CRC 57FAE03D Accurately ripped (confidence 5) [0D6560B7] (AR v2) Copy OK
Track 12
Filename E:\EAC Rips\2017-05 Mei\Various Artists - De Pre Historie 1987 (1992) [FLAC] {BMG 262.687}\12 - Viktor Lazlo - Breathless.wav
Peak level 99.2 % Extraction speed 3.7 X Track quality 100.0 % Test CRC 93A31322 Copy CRC 93A31322 Accurately ripped (confidence 5) [71052F8F] (AR v2) Copy OK
Track 13
Filename E:\EAC Rips\2017-05 Mei\Various Artists - De Pre Historie 1987 (1992) [FLAC] {BMG 262.687}\13 - Nina Simone - My Baby Just Cares For Me.wav
Peak level 82.1 % Extraction speed 3.8 X Track quality 100.0 % Test CRC 53882D09 Copy CRC 53882D09 Accurately ripped (confidence 5) [FA2964CF] (AR v2) Copy OK
Track 14
Filename E:\EAC Rips\2017-05 Mei\Various Artists - De Pre Historie 1987 (1992) [FLAC] {BMG 262.687}\14 - Belinda Carlisle - Heaven Is A Place On Earth.wav
Peak level 99.2 % Extraction speed 3.5 X Track quality 99.9 % Test CRC C4B4EEC2 Copy CRC C4B4EEC2 Accurately ripped (confidence 5) [36BFCD4B] (AR v2) Copy OK
Track 15
Filename E:\EAC Rips\2017-05 Mei\Various Artists - De Pre Historie 1987 (1992) [FLAC] {BMG 262.687}\15 - Julien Clerc - Hélène.wav
Pre-gap length 0:00:01.00
Peak level 99.2 % Extraction speed 3.5 X Track quality 99.9 % Test CRC 63E5EB4D Copy CRC 63E5EB4D Accurately ripped (confidence 5) [15DD9F8A] (AR v2) Copy OK
Track 16
Filename E:\EAC Rips\2017-05 Mei\Various Artists - De Pre Historie 1987 (1992) [FLAC] {BMG 262.687}\16 - Boy George - Everything I Own.wav
Pre-gap length 0:00:00.45
Peak level 99.2 % Extraction speed 4.1 X Track quality 100.0 % Test CRC B3E9CA16 Copy CRC B3E9CA16 Accurately ripped (confidence 5) [071CF3E8] (AR v2) Copy OK
Track 17
Filename E:\EAC Rips\2017-05 Mei\Various Artists - De Pre Historie 1987 (1992) [FLAC] {BMG 262.687}\17 - The Communards - Never Can Say Goodbye.wav
Pre-gap length 0:00:00.72
Peak level 99.2 % Extraction speed 4.3 X Track quality 100.0 % Test CRC 7F4E2172 Copy CRC 7F4E2172 Accurately ripped (confidence 5) [02F96796] (AR v2) Copy OK
Track 18
Filename E:\EAC Rips\2017-05 Mei\Various Artists - De Pre Historie 1987 (1992) [FLAC] {BMG 262.687}\18 - Scorpions - Still Loving You.wav
Peak level 99.2 % Extraction speed 4.4 X Track quality 100.0 % Test CRC BFDAF402 Copy CRC BFDAF402 Accurately ripped (confidence 5) [A362C5B7] (AR v2) Copy OK
All tracks accurately ripped
No errors occurred
End of status report
---- CUETools DB Plugin V2.1.6
[CTDB TOCID: zH4_Z24LE8eucstuoqiLyG8NJBM-] foundSubmit result: zH4_Z24LE8eucstuoqiLyG8NJBM- has been confirmedTrack | CTDB Status 1 | (9/9) Accurately ripped 2 | (9/9) Accurately ripped 3 | (9/9) Accurately ripped 4 | (9/9) Accurately ripped 5 | (9/9) Accurately ripped 6 | (8/9) Accurately ripped, or (1/9) differs in 82 samples @01:54:21,01:54:32,02:01:17,02:02:52-02:02:53,02:22:71 7 | (9/9) Accurately ripped 8 | (9/9) Accurately ripped 9 | (9/9) Accurately ripped 10 | (9/9) Accurately ripped 11 | (9/9) Accurately ripped 12 | (9/9) Accurately ripped 13 | (9/9) Accurately ripped 14 | (9/9) Accurately ripped 15 | (9/9) Accurately ripped 16 | (9/9) Accurately ripped 17 | (9/9) Accurately ripped 18 | (9/9) Accurately ripped
==== Log checksum 61263AB1B260DD15BD31591648336FDC796749CC59955F4BB935FAE64407E017 ====

Содержание индексной карты (.CUE)

REM DATE 1992REM DISCID 0B118A12REM COMMENT "ExactAudioCopy v1.3"PERFORMER "Various Artists"TITLE "De Pre Historie 1987"REM COMPOSER ""FILE "01 - Rick Astley - Never Gonna Give You Up.wav" WAVE  TRACK 01 AUDIO    TITLE "Never Gonna Give You Up"    PERFORMER "Rick Astley"    REM COMPOSER ""    PREGAP 00:00:32    INDEX 01 00:00:00FILE "02 - Mel & Kim - Respectable.wav" WAVE  TRACK 02 AUDIO    TITLE "Respectable"    PERFORMER "Mel & Kim"    REM COMPOSER ""    INDEX 01 00:00:00  TRACK 03 AUDIO    TITLE "Some People"    PERFORMER "Cliff Richard"    REM COMPOSER ""    INDEX 00 03:18:70FILE "03 - Cliff Richard - Some People.wav" WAVE    INDEX 01 00:00:00  TRACK 04 AUDIO    TITLE "China In Your Hand"    PERFORMER "T’Pau"    REM COMPOSER ""    INDEX 00 03:49:18FILE "04 - T’Pau - China In Your Hand.wav" WAVE    INDEX 01 00:00:00FILE "05 - ABC - When Smokey Sings.wav" WAVE  TRACK 05 AUDIO    TITLE "When Smokey Sings"    PERFORMER "ABC"    REM COMPOSER ""    INDEX 01 00:00:00FILE "06 - Billy Ocean - Get Outta My Dreams, Get Into My Car.wav" WAVE  TRACK 06 AUDIO    TITLE "Get Outta My Dreams, Get Into My Car"    PERFORMER "Billy Ocean"    REM COMPOSER ""    INDEX 01 00:00:00  TRACK 07 AUDIO    TITLE "Just A Friend Of Mine"    PERFORMER "Vaya Con Dios"    REM COMPOSER ""    INDEX 00 04:37:40FILE "07 - Vaya Con Dios - Just A Friend Of Mine.wav" WAVE    INDEX 01 00:00:00  TRACK 08 AUDIO    TITLE "Miracle Of Love"    PERFORMER "Eurythmics"    REM COMPOSER ""    INDEX 00 03:22:50FILE "08 - Eurythmics - Miracle Of Love.wav" WAVE    INDEX 01 00:00:00FILE "09 - Peter Gabriel & Kate Bush - Don’T Give Up.wav" WAVE  TRACK 09 AUDIO    TITLE "Don’T Give Up"    PERFORMER "Peter Gabriel & Kate Bush"    REM COMPOSER ""    INDEX 01 00:00:00FILE "10 - Black - Wonderful Life.wav" WAVE  TRACK 10 AUDIO    TITLE "Wonderful Life"    PERFORMER "Black"    REM COMPOSER ""    INDEX 01 00:00:00  TRACK 11 AUDIO    TITLE "I Lie And I Cheat"    PERFORMER "Won Ton Ton"    REM COMPOSER ""    INDEX 00 04:49:20FILE "11 - Won Ton Ton - I Lie And I Cheat.wav" WAVE    INDEX 01 00:00:00FILE "12 - Viktor Lazlo - Breathless.wav" WAVE  TRACK 12 AUDIO    TITLE "Breathless"    PERFORMER "Viktor Lazlo"    REM COMPOSER ""    INDEX 01 00:00:00FILE "13 - Nina Simone - My Baby Just Cares For Me.wav" WAVE  TRACK 13 AUDIO    TITLE "My Baby Just Cares For Me"    PERFORMER "Nina Simone"    REM COMPOSER ""    INDEX 01 00:00:00FILE "14 - Belinda Carlisle - Heaven Is A Place On Earth.wav" WAVE  TRACK 14 AUDIO    TITLE "Heaven Is A Place On Earth"    PERFORMER "Belinda Carlisle"    REM COMPOSER ""    INDEX 01 00:00:00  TRACK 15 AUDIO    TITLE "Helene"    PERFORMER "Julien Clerc"    REM COMPOSER ""    INDEX 00 04:05:25FILE "15 - Julien Clerc - Helene.wav" WAVE    INDEX 01 00:00:00  TRACK 16 AUDIO    TITLE "Everything I Own"    PERFORMER "Boy George"    REM COMPOSER ""    INDEX 00 03:39:63FILE "16 - Boy George - Everything I Own.wav" WAVE    INDEX 01 00:00:00  TRACK 17 AUDIO    TITLE "Never Can Say Goodbye"    PERFORMER "The Communards"    REM COMPOSER ""    INDEX 00 03:52:00FILE "17 - The Communards - Never Can Say Goodbye.wav" WAVE    INDEX 01 00:00:00FILE "18 - Scorpions - Still Loving You.wav" WAVE  TRACK 18 AUDIO    TITLE "Still Loving You"    PERFORMER "Scorpions"    REM COMPOSER ""    INDEX 01 00:00:00

AccurateRip

[CUETools log; Date: 21.10.2018 17:25:02; Version: 2.1.5]Pregap length 00:00:32.[CTDB TOCID: zH4_Z24LE8eucstuoqiLyG8NJBM-] found.Track | CTDB Status  1   | (20/21) Accurately ripped  2   | (21/21) Accurately ripped  3   | (21/21) Accurately ripped  4   | (21/21) Accurately ripped  5   | (21/21) Accurately ripped  6   | (20/21) Accurately ripped  7   | (21/21) Accurately ripped  8   | (21/21) Accurately ripped  9   | (21/21) Accurately ripped 10   | (21/21) Accurately ripped 11   | (21/21) Accurately ripped 12   | (21/21) Accurately ripped 13   | (21/21) Accurately ripped 14   | (21/21) Accurately ripped 15   | (21/21) Accurately ripped 16   | (21/21) Accurately ripped 17   | (21/21) Accurately ripped 18   | (20/21) Accurately ripped[AccurateRip ID: 002fd5f7-02830647-0b118a12] found.Track   [  CRC   |   V2   ] Status 01     [a203e13e|fe7444a7] (06+08/14) Accurately ripped 02     [45ac8b89|0deab8c5] (06+08/14) Accurately ripped 03     [ef972222|c3d19a69] (06+08/14) Accurately ripped 04     [f83d2811|ac190aa7] (06+08/14) Accurately ripped 05     [8742e906|786bddee] (06+08/14) Accurately ripped 06     [da7ce4f6|1b6e846d] (07+09/16) Accurately ripped 07     [834f8a00|dcc13596] (06+08/14) Accurately ripped 08     [1f9396c7|e400cfc6] (07+09/16) Accurately ripped 09     [5b13d704|1c5528f7] (06+08/14) Accurately ripped 10     [96cee1c0|b53b1f0a] (06+08/14) Accurately ripped 11     [c6ae3f5b|0d6560b7] (06+08/14) Accurately ripped 12     [e18be49b|71052f8f] (06+08/14) Accurately ripped 13     [4eb8379c|fa2964cf] (06+08/14) Accurately ripped 14     [bb703e77|36bfcd4b] (06+08/14) Accurately ripped 15     [356e1889|15dd9f8a] (06+08/14) Accurately ripped 16     [45a403f1|071cf3e8] (06+08/14) Accurately ripped 17     [c33b968e|02f96796] (06+08/14) Accurately ripped 18     [45d069ef|a362c5b7] (05+08/13) Accurately ripped
Track Peak [ CRC32 ] [W/O NULL] [ LOG ] -- 99,2 [AB25AF07] [484A112F] 01 99,2 [079B861D] [9C75A657] CRC32 02 76,3 [39CA6AE5] [1636E6EC] CRC32 03 99,2 [BB80F0EF] [7AB19B70] CRC32 04 99,2 [833E79C4] [84FA0505] CRC32 05 99,1 [553A92B7] [439BAD52] CRC32 06 94,2 [AFD30600] [1AC420EC] CRC32 07 89,4 [D79F27E8] [1E5C22B7] CRC32 08 90,8 [9A679DB6] [B6EEE52B] CRC32 09 86,5 [254F940F] [E7792BE5] CRC32 10 99,2 [098F3CF7] [B656AAAB] CRC32 11 99,2 [57FAE03D] [7995B052] CRC32 12 99,2 [93A31322] [7E3CFFAA] CRC32 13 82,1 [53882D09] [E46BAF19] CRC32 14 99,2 [C4B4EEC2] [355F73D2] CRC32 15 99,2 [63E5EB4D] [B4C49861] CRC32 16 99,2 [B3E9CA16] [7178AFF2] CRC32 17 99,2 [7F4E2172] [C56C66FE] CRC32 18 99,2 [BFDAF402] [C93E6E78] CRC32
Вы не можете начинать темы
Вы не можете отвечать на сообщения
Вы не можете редактировать свои сообщения
Вы не можете удалять свои сообщения
Вы не можете голосовать в опросах
Вы не можете прикреплять файлы к сообщениям
Вы можете скачивать файлы
!ВНИМАНИЕ!

Сайт не предоставляет электронные версии произведений, а занимается лишь коллекционированием и каталогизацией ссылок, присылаемых и публикуемых на форуме нашими читателями. Если вы являетесь правообладателем какого-либо представленного материала и не желаете, чтобы ссылка на него находилась в нашем каталоге, свяжитесь с нами, и мы незамедлительно удалим ее. Файлы для обмена на трекере предоставлены пользователями сайта, и администрация не несет ответственности за их содержание. Просьба не заливать файлы, защищенные авторскими правами, а также файлы нелегального содержания!

Искали программы, игры, дополнения, музыка mp3, аниме, аудио книги, журналы? Добро пожаловать на свободный торрент трекер Torrents, у нас можно скачать бесплатно, без смс и регистрации и прочих ограничений лучшие, отборные сборки программ, игр. Скачать торрентом не составит труда даже не опытному пользователю. Раздачи ежедневно обновляются, только лучшие и качественные раздачи, подробные описания и скриншоты. Огромная коллекция программ для работы со звуком, графикой, дизайном, а так же множество плагинов и инструментов к ним с подробной инструкцией и рекомендациями. Прошивки для навигаторов, карты. Разнообразные игры, для Windows, Linux. В коллекцие есть и старые игры любых жанров, Rpg, Action, Shooter, strategy Множество дополнений, модификаций, сценариев для популярных игр в жанре экш, рпг, гонки, стратегии, логические игры. Множество аддонов и сценариев для Microsoft Flight Simulator Большая коллекция книг, учебников. Если нет возможности купить печатное издание - смело скачивайте цифровую версию книги или, быть может, журнала. Не любите читать - можно загрузить бесплатно аудикнигу. Для веб дизайнеров и программистов так же найдется множество специализированного софта, таких как: редакторы с подсветкой, среды программирования, компоненты, системы управления базами данных, разнообразные скрипты и шаблоны. Не так давно у нас появился материал для автолюбителей и владельцев мото - оригинальные и неоригинальные каталоги запчастей, книги и журналы по ремонту и обслуживанию, видеоуроки, статьи по чип тюнингу, прошивкам. Процедура получения контента элементарная, достаточно просто скачать торрент файл и добавить его в загрузку в вашем торрент клиенте. Если у вас нет специального торрент клиента, вы можете его скачать у нас.

Madame Nicht Die Feine Art 2017 German Dts Dl 1080p Bluray X265-unfired | Servant or Slave | Legend of the Seeker