(Various) [CD] VA - De Pre Historie 1966 [EMI/Virgin, 260.738, Belgium] - 1990, FLAC (tracks+.cue), lossless 

Цитировать
De Pre Historie 1966
Жанр: Various
Носитель: CD
Страна-производитель диска (релиза): Belgium
Год издания: 1990
Издатель (лейбл): EMI/Virgin
Номер по каталогу: 260.738
Аудиокодек: FLAC (*.flac)
Тип рипа: tracks+.cue
Битрейт аудио: lossless
Продолжительность: 00:58:56
Источник (релизер): From RED
Наличие сканов в содержимом раздачи: нет

Треклист:
01. Percy Sledge – When A Man Loves A Woman
02. The Walker Brothers – The Sun Ain't Gonna Shine Anymore
03. James Brown – It's A Man's, Man's, Man's World
04. Bobby Hebb – Sunny
05. Tom Jones – Green Green Grass Of Home
06. Al Martino – Spanish Eyes
07. Dusty Springfield – You Don't Have To Say You Love Me
08. Dave Berry – Mama
09. Cher – Bang Bang
10. Ferre Grignard – Ring Ring I've Got To Sing
11. The Mamas & The Papas – Monday Monday
12. Donovan – Mellow Yellow
13. The New Vaudeville Band – Winchester Cathedral
14. Chris Montez – The More I See You
15. Herman's Hermits – No Milk Today
16. The Supremes – You Can't Hurry Love
17. Junior Walker & The All Stars – How Sweet It Is (To Be Loved By You)
18. Four Tops – Reach Out, I'll Be There
19. Los Bravos – Black Is Black
20. The Troggs – Wild Thing

Лог создания рипа

X Lossless Decoder version 20170729 (150.3)
XLD extraction logfile from 2018-03-17 18:56:07 +0000
Various Artists / De Pre Historie 1966 - Vol 1
Used drive : HL-DT-ST DVDRAM GP57EW40 (revision PF00)Media type : Pressed CD
Ripper mode : XLD Secure RipperDisable audio cache : OK for the drive with a cache less than 1375KiBMake use of C2 pointers : NORead offset correction : 6Max retry count : 100Gap status : Analyzed, Appended (except HTOA)
TOC of the extracted CD Track | Start | Length | Start sector | End sector --------------------------------------------------------- 1 | 00:00:32 | 02:50:35 | 32 | 12816 2 | 02:50:67 | 03:02:50 | 12817 | 26516 3 | 05:53:42 | 02:40:40 | 26517 | 38556 4 | 08:34:07 | 02:44:20 | 38557 | 50876 5 | 11:18:27 | 03:05:28 | 50877 | 64779 6 | 14:23:55 | 02:46:52 | 64780 | 77281 7 | 17:10:32 | 02:49:15 | 77282 | 89971 8 | 19:59:47 | 02:49:60 | 89972 | 102706 9 | 22:49:32 | 02:48:25 | 102707 | 115331 10 | 25:37:57 | 03:54:45 | 115332 | 132926 11 | 29:32:27 | 03:22:20 | 132927 | 148096 12 | 32:54:47 | 03:41:00 | 148097 | 164671 13 | 36:35:47 | 02:25:50 | 164672 | 175596 14 | 39:01:22 | 02:41:48 | 175597 | 187719 15 | 41:42:70 | 02:54:00 | 187720 | 200769 16 | 44:36:70 | 02:47:05 | 200770 | 213299 17 | 47:24:00 | 03:01:05 | 213300 | 226879 18 | 50:25:05 | 02:57:55 | 226880 | 240209 19 | 53:22:60 | 02:58:07 | 240210 | 253566 20 | 56:20:67 | 02:35:40 | 253567 | 265231
AccurateRip Summary (DiscID: 002a8a05-0271f4c4-130dd014) Track 01 : OK (v2, confidence 6/6) Track 02 : OK (v2, confidence 6/6) Track 03 : OK (v2, confidence 6/6) Track 04 : OK (v2, confidence 6/6) Track 05 : OK (v2, confidence 6/6) Track 06 : OK (v2, confidence 6/6) Track 07 : OK (v2, confidence 6/6) Track 08 : OK (v2, confidence 6/6) Track 09 : OK (v2, confidence 6/6) Track 10 : OK (v2, confidence 6/6) Track 11 : OK (v2, confidence 6/6) Track 12 : OK (v2, confidence 6/6) Track 13 : OK (v2, confidence 6/6) Track 14 : OK (v2, confidence 6/6) Track 15 : OK (v2, confidence 6/6) Track 16 : OK (v2, confidence 6/6) Track 17 : OK (v2, confidence 6/6) Track 18 : OK (v2, confidence 6/6) Track 19 : OK (v2, confidence 6/6) Track 20 : OK (v2, confidence 6/6) ->All tracks accurately ripped.
All Tracks Album gain : -3.41 dB Peak : 0.992188 Statistics Read error : 0 Jitter error (maybe fixed) : 0 Retry sector count : 0 Damaged sector count : 0
Track 01 Filename : /rips/Various Artists - De Pre Historie 1966 - Vol 1 (1965) [FLAC]/01 - Percy Sledge - When A Man Loves A Woman.flac Pre-gap length : 00:02:32
Track gain : -1.63 dB Peak : 0.992157 CRC32 hash (test run) : B62745BF CRC32 hash : B62745BF CRC32 hash (skip zero) : B8CFF621 AccurateRip v1 signature : 7A58E50C AccurateRip v2 signature : 0A696050 ->Accurately ripped (v2, confidence 6/6) Statistics Read error : 0 Jitter error (maybe fixed) : 0 Retry sector count : 0 Damaged sector count : 0
Track 02 Filename : /rips/Various Artists - De Pre Historie 1966 - Vol 1 (1965) [FLAC]/02 - The Walker Brothers - The Sun Ain't Gonna Shine Anymore.flac
Track gain : -0.47 dB Peak : 0.686493 CRC32 hash (test run) : CB127570 CRC32 hash : CB127570 CRC32 hash (skip zero) : 4C8B9671 AccurateRip v1 signature : 4741BCF0 AccurateRip v2 signature : D791F4EE ->Accurately ripped (v2, confidence 6/6) Statistics Read error : 0 Jitter error (maybe fixed) : 0 Retry sector count : 0 Damaged sector count : 0
Track 03 Filename : /rips/Various Artists - De Pre Historie 1966 - Vol 1 (1965) [FLAC]/03 - James Brown - It's A Man's, Man's, Man's World.flac
Track gain : -5.66 dB Peak : 0.830322 CRC32 hash (test run) : 5783A925 CRC32 hash : 5783A925 CRC32 hash (skip zero) : 03B03EB6 AccurateRip v1 signature : 6963859C AccurateRip v2 signature : B78E1160 ->Accurately ripped (v2, confidence 6/6) Statistics Read error : 0 Jitter error (maybe fixed) : 0 Retry sector count : 0 Damaged sector count : 0
Track 04 Filename : /rips/Various Artists - De Pre Historie 1966 - Vol 1 (1965) [FLAC]/04 - Bobby Hebb - Sunny.flac
Track gain : -3.00 dB Peak : 0.989014 CRC32 hash (test run) : F458B8AE CRC32 hash : F458B8AE CRC32 hash (skip zero) : 9CF4D5B8 AccurateRip v1 signature : 199539D7 AccurateRip v2 signature : 23471B74 ->Accurately ripped (v2, confidence 6/6) Statistics Read error : 0 Jitter error (maybe fixed) : 0 Retry sector count : 0 Damaged sector count : 0
Track 05 Filename : /rips/Various Artists - De Pre Historie 1966 - Vol 1 (1965) [FLAC]/05 - Tom Jones - Green Green Grass Of Home.flac
Track gain : -0.75 dB Peak : 0.862610 CRC32 hash (test run) : D35C0A53 CRC32 hash : D35C0A53 CRC32 hash (skip zero) : 97323696 AccurateRip v1 signature : C2DC395E AccurateRip v2 signature : 5DAC1973 ->Accurately ripped (v2, confidence 6/6) Statistics Read error : 0 Jitter error (maybe fixed) : 0 Retry sector count : 0 Damaged sector count : 0
Track 06 Filename : /rips/Various Artists - De Pre Historie 1966 - Vol 1 (1965) [FLAC]/06 - Al Martino - Spanish Eyes.flac
Track gain : -4.95 dB Peak : 0.925873 CRC32 hash (test run) : 65DB04B6 CRC32 hash : 65DB04B6 CRC32 hash (skip zero) : F13A7508 AccurateRip v1 signature : 011123BE AccurateRip v2 signature : F1397E8B ->Accurately ripped (v2, confidence 6/6) Statistics Read error : 0 Jitter error (maybe fixed) : 0 Retry sector count : 0 Damaged sector count : 0
Track 07 Filename : /rips/Various Artists - De Pre Historie 1966 - Vol 1 (1965) [FLAC]/07 - Dusty Springfield - You Don't Have To Say You Love Me.flac
Track gain : -4.30 dB Peak : 0.992188 CRC32 hash (test run) : AF58B0E8 CRC32 hash : AF58B0E8 CRC32 hash (skip zero) : DEED1637 AccurateRip v1 signature : 2A647862 AccurateRip v2 signature : D0C1CD28 ->Accurately ripped (v2, confidence 6/6) Statistics Read error : 0 Jitter error (maybe fixed) : 0 Retry sector count : 0 Damaged sector count : 0
Track 08 Filename : /rips/Various Artists - De Pre Historie 1966 - Vol 1 (1965) [FLAC]/08 - Dave Berry - Mama.flac
Track gain : -1.58 dB Peak : 0.743500 CRC32 hash (test run) : BB01BB1A CRC32 hash : BB01BB1A CRC32 hash (skip zero) : DF05FF71 AccurateRip v1 signature : 25E50D53 AccurateRip v2 signature : C1007731 ->Accurately ripped (v2, confidence 6/6) Statistics Read error : 0 Jitter error (maybe fixed) : 0 Retry sector count : 0 Damaged sector count : 0
Track 09 Filename : /rips/Various Artists - De Pre Historie 1966 - Vol 1 (1965) [FLAC]/09 - Cher - Bang Bang.flac
Track gain : -2.21 dB Peak : 0.992188 CRC32 hash (test run) : 02FF33A2 CRC32 hash : 02FF33A2 CRC32 hash (skip zero) : 7CF83361 AccurateRip v1 signature : F82B1DD0 AccurateRip v2 signature : B75C6831 ->Accurately ripped (v2, confidence 6/6) Statistics Read error : 0 Jitter error (maybe fixed) : 0 Retry sector count : 0 Damaged sector count : 0
Track 10 Filename : /rips/Various Artists - De Pre Historie 1966 - Vol 1 (1965) [FLAC]/10 - Ferre Grignard - Ring Ring I've Got To Sing.flac
Track gain : -2.91 dB Peak : 0.902130 CRC32 hash (test run) : 20EC5448 CRC32 hash : 20EC5448 CRC32 hash (skip zero) : A6CBE7E8 AccurateRip v1 signature : 5D476079 AccurateRip v2 signature : 3D3CEEA2 ->Accurately ripped (v2, confidence 6/6) Statistics Read error : 0 Jitter error (maybe fixed) : 0 Retry sector count : 0 Damaged sector count : 0
Track 11 Filename : /rips/Various Artists - De Pre Historie 1966 - Vol 1 (1965) [FLAC]/11 - The Mamas & The Papas - Monday Monday.flac
Track gain : -2.36 dB Peak : 0.992157 CRC32 hash (test run) : 55D1C642 CRC32 hash : 55D1C642 CRC32 hash (skip zero) : 52DFDEC4 AccurateRip v1 signature : 380DED71 AccurateRip v2 signature : 56D7E289 ->Accurately ripped (v2, confidence 6/6) Statistics Read error : 0 Jitter error (maybe fixed) : 0 Retry sector count : 0 Damaged sector count : 0
Track 12 Filename : /rips/Various Artists - De Pre Historie 1966 - Vol 1 (1965) [FLAC]/12 - Donovan - Mellow Yellow.flac
Track gain : -1.86 dB Peak : 0.772583 CRC32 hash (test run) : 9A7E5489 CRC32 hash : 9A7E5489 CRC32 hash (skip zero) : 8E149EDC AccurateRip v1 signature : F6AFD7A0 AccurateRip v2 signature : 6FA9B367 ->Accurately ripped (v2, confidence 6/6) Statistics Read error : 0 Jitter error (maybe fixed) : 0 Retry sector count : 0 Damaged sector count : 0
Track 13 Filename : /rips/Various Artists - De Pre Historie 1966 - Vol 1 (1965) [FLAC]/13 - New Vaudeville Band - Winchester Cathedral.flac
Track gain : -2.00 dB Peak : 0.770447 CRC32 hash (test run) : 7EB8535C CRC32 hash : 7EB8535C CRC32 hash (skip zero) : 9B4B121B AccurateRip v1 signature : 47CC4109 AccurateRip v2 signature : D4DA3063 ->Accurately ripped (v2, confidence 6/6) Statistics Read error : 0 Jitter error (maybe fixed) : 0 Retry sector count : 0 Damaged sector count : 0
Track 14 Filename : /rips/Various Artists - De Pre Historie 1966 - Vol 1 (1965) [FLAC]/14 - Chris Montez - The More I See You.flac
Track gain : -0.85 dB Peak : 0.992188 CRC32 hash (test run) : DA4B2439 CRC32 hash : DA4B2439 CRC32 hash (skip zero) : 21BAACB4 AccurateRip v1 signature : 18B8CF06 AccurateRip v2 signature : 6998D5E9 ->Accurately ripped (v2, confidence 6/6) Statistics Read error : 0 Jitter error (maybe fixed) : 0 Retry sector count : 0 Damaged sector count : 0
Track 15 Filename : /rips/Various Artists - De Pre Historie 1966 - Vol 1 (1965) [FLAC]/15 - Herman's Hermits - No Milk Today.flac
Track gain : -2.54 dB Peak : 0.672394 CRC32 hash (test run) : F418E444 CRC32 hash : F418E444 CRC32 hash (skip zero) : 9DB2B8D1 AccurateRip v1 signature : E4F6C049 AccurateRip v2 signature : F7F7D1D6 ->Accurately ripped (v2, confidence 6/6) Statistics Read error : 0 Jitter error (maybe fixed) : 0 Retry sector count : 0 Damaged sector count : 0
Track 16 Filename : /rips/Various Artists - De Pre Historie 1966 - Vol 1 (1965) [FLAC]/16 - The Supremes - You Can't Hurry Love.flac
Track gain : -5.08 dB Peak : 0.873566 CRC32 hash (test run) : A2B82DB0 CRC32 hash : A2B82DB0 CRC32 hash (skip zero) : CFC28101 AccurateRip v1 signature : 9AE8A957 AccurateRip v2 signature : 29F1D5D3 ->Accurately ripped (v2, confidence 6/6) Statistics Read error : 0 Jitter error (maybe fixed) : 0 Retry sector count : 0 Damaged sector count : 0
Track 17 Filename : /rips/Various Artists - De Pre Historie 1966 - Vol 1 (1965) [FLAC]/17 - Jr Walker & The All Stars - How Sweet It Is (To Be Loved By You).flac
Track gain : -3.57 dB Peak : 0.796967 CRC32 hash (test run) : 09A95485 CRC32 hash : 09A95485 CRC32 hash (skip zero) : 7CA489CD AccurateRip v1 signature : DC6AD21A AccurateRip v2 signature : 5704C341 ->Accurately ripped (v2, confidence 6/6) Statistics Read error : 0 Jitter error (maybe fixed) : 0 Retry sector count : 0 Damaged sector count : 0
Track 18 Filename : /rips/Various Artists - De Pre Historie 1966 - Vol 1 (1965) [FLAC]/18 - The Four Tops - Reach Out, I'll Be There.flac
Track gain : -2.69 dB Peak : 0.838409 CRC32 hash (test run) : 3CC593B6 CRC32 hash : 3CC593B6 CRC32 hash (skip zero) : 80FD6967 AccurateRip v1 signature : A98BD4DF AccurateRip v2 signature : 086FDF0A ->Accurately ripped (v2, confidence 6/6) Statistics Read error : 0 Jitter error (maybe fixed) : 0 Retry sector count : 0 Damaged sector count : 0
Track 19 Filename : /rips/Various Artists - De Pre Historie 1966 - Vol 1 (1965) [FLAC]/19 - Los Bravos - Black Is Black.flac
Track gain : -4.76 dB Peak : 0.937531 CRC32 hash (test run) : F1473A99 CRC32 hash : F1473A99 CRC32 hash (skip zero) : CEF3E73E AccurateRip v1 signature : 29556661 AccurateRip v2 signature : 58D400D4 ->Accurately ripped (v2, confidence 6/6) Statistics Read error : 0 Jitter error (maybe fixed) : 0 Retry sector count : 0 Damaged sector count : 0
Track 20 Filename : /rips/Various Artists - De Pre Historie 1966 - Vol 1 (1965) [FLAC]/20 - The Troggs - Wild Thing.flac
Track gain : -3.90 dB Peak : 0.988708 CRC32 hash (test run) : BC5CE3B5 CRC32 hash : BC5CE3B5 CRC32 hash (skip zero) : 1A25001D AccurateRip v1 signature : 8B6DE317 AccurateRip v2 signature : 4099B822 ->Accurately ripped (v2, confidence 6/6) Statistics Read error : 0 Jitter error (maybe fixed) : 0 Retry sector count : 0 Damaged sector count : 0
No errors occurred
End of status report
-----BEGIN XLD SIGNATURE-----4K7IXZ1W8.vy5peWsZbn9DHkFPHzWFAHiaelZExEoQpFqIGF7yEEoi2Pm69RTi4gTlktphKWZE7X_jVPN_vI_VoBS.wL1vYuBlqKziy-----END XLD SIGNATURE-----

Содержание индексной карты (.CUE)

TITLE "De Pre Historie 1966 - Vol 1"REM GENRE "Oldies"REM DATE "1990"REM DISCID 130DD014REM REPLAYGAIN_ALBUM_GAIN -3.41 dBREM REPLAYGAIN_ALBUM_PEAK 0.992188FILE "01 - Percy Sledge - When A Man Loves A Woman.flac" WAVE  TRACK 01 AUDIO    TITLE "When A Man Loves A Woman"    PERFORMER "Percy Sledge"    REM REPLAYGAIN_TRACK_GAIN -1.63 dB    REM REPLAYGAIN_TRACK_PEAK 0.992157    PREGAP 00:00:32    INDEX 01 00:00:00FILE "02 - The Walker Brothers - The Sun Ain't Gonna Shine Anymore.flac" WAVE  TRACK 02 AUDIO    TITLE "The Sun Ain't Gonna Shine Anymore"    PERFORMER "The Walker Brothers"    REM REPLAYGAIN_TRACK_GAIN -0.47 dB    REM REPLAYGAIN_TRACK_PEAK 0.686493    INDEX 01 00:00:00FILE "03 - James Brown - It's A Man's, Man's, Man's World.flac" WAVE  TRACK 03 AUDIO    TITLE "It's A Man's, Man's, Man's World"    PERFORMER "James Brown"    REM REPLAYGAIN_TRACK_GAIN -5.66 dB    REM REPLAYGAIN_TRACK_PEAK 0.830322    INDEX 01 00:00:00FILE "04 - Bobby Hebb - Sunny.flac" WAVE  TRACK 04 AUDIO    TITLE "Sunny"    PERFORMER "Bobby Hebb"    REM REPLAYGAIN_TRACK_GAIN -3.00 dB    REM REPLAYGAIN_TRACK_PEAK 0.989014    INDEX 01 00:00:00FILE "05 - Tom Jones - Green Green Grass Of Home.flac" WAVE  TRACK 05 AUDIO    TITLE "Green Green Grass Of Home"    PERFORMER "Tom Jones"    REM REPLAYGAIN_TRACK_GAIN -0.75 dB    REM REPLAYGAIN_TRACK_PEAK 0.862610    INDEX 01 00:00:00FILE "06 - Al Martino - Spanish Eyes.flac" WAVE  TRACK 06 AUDIO    TITLE "Spanish Eyes"    PERFORMER "Al Martino"    REM REPLAYGAIN_TRACK_GAIN -4.95 dB    REM REPLAYGAIN_TRACK_PEAK 0.925873    INDEX 01 00:00:00FILE "07 - Dusty Springfield - You Don't Have To Say You Love Me.flac" WAVE  TRACK 07 AUDIO    TITLE "You Don't Have To Say You Love Me"    PERFORMER "Dusty Springfield"    REM REPLAYGAIN_TRACK_GAIN -4.30 dB    REM REPLAYGAIN_TRACK_PEAK 0.992188    INDEX 01 00:00:00FILE "08 - Dave Berry - Mama.flac" WAVE  TRACK 08 AUDIO    TITLE "Mama"    PERFORMER "Dave Berry"    REM REPLAYGAIN_TRACK_GAIN -1.58 dB    REM REPLAYGAIN_TRACK_PEAK 0.743500    INDEX 01 00:00:00FILE "09 - Cher - Bang Bang.flac" WAVE  TRACK 09 AUDIO    TITLE "Bang Bang"    PERFORMER "Cher"    REM REPLAYGAIN_TRACK_GAIN -2.21 dB    REM REPLAYGAIN_TRACK_PEAK 0.992188    INDEX 01 00:00:00FILE "10 - Ferre Grignard - Ring Ring I've Got To Sing.flac" WAVE  TRACK 10 AUDIO    TITLE "Ring Ring I've Got To Sing"    PERFORMER "Ferre Grignard"    REM REPLAYGAIN_TRACK_GAIN -2.91 dB    REM REPLAYGAIN_TRACK_PEAK 0.902130    INDEX 01 00:00:00FILE "11 - The Mamas & The Papas - Monday Monday.flac" WAVE  TRACK 11 AUDIO    TITLE "Monday Monday"    PERFORMER "The Mamas & The Papas"    REM REPLAYGAIN_TRACK_GAIN -2.36 dB    REM REPLAYGAIN_TRACK_PEAK 0.992157    INDEX 01 00:00:00FILE "12 - Donovan - Mellow Yellow.flac" WAVE  TRACK 12 AUDIO    TITLE "Mellow Yellow"    PERFORMER "Donovan"    REM REPLAYGAIN_TRACK_GAIN -1.86 dB    REM REPLAYGAIN_TRACK_PEAK 0.772583    INDEX 01 00:00:00FILE "13 - New Vaudeville Band - Winchester Cathedral.flac" WAVE  TRACK 13 AUDIO    TITLE "Winchester Cathedral"    PERFORMER "New Vaudeville Band"    REM REPLAYGAIN_TRACK_GAIN -2.00 dB    REM REPLAYGAIN_TRACK_PEAK 0.770447    INDEX 01 00:00:00FILE "14 - Chris Montez - The More I See You.flac" WAVE  TRACK 14 AUDIO    TITLE "The More I See You"    PERFORMER "Chris Montez"    REM REPLAYGAIN_TRACK_GAIN -0.85 dB    REM REPLAYGAIN_TRACK_PEAK 0.992188    INDEX 01 00:00:00FILE "15 - Herman's Hermits - No Milk Today.flac" WAVE  TRACK 15 AUDIO    TITLE "No Milk Today"    PERFORMER "Herman's Hermits"    REM REPLAYGAIN_TRACK_GAIN -2.54 dB    REM REPLAYGAIN_TRACK_PEAK 0.672394    INDEX 01 00:00:00FILE "16 - The Supremes - You Can't Hurry Love.flac" WAVE  TRACK 16 AUDIO    TITLE "You Can't Hurry Love"    PERFORMER "The Supremes"    REM REPLAYGAIN_TRACK_GAIN -5.08 dB    REM REPLAYGAIN_TRACK_PEAK 0.873566    INDEX 01 00:00:00FILE "17 - Jr Walker & The All Stars - How Sweet It Is (To Be Loved By You).flac" WAVE  TRACK 17 AUDIO    TITLE "How Sweet It Is (To Be Loved By You)"    PERFORMER "Jr Walker & The All Stars"    REM REPLAYGAIN_TRACK_GAIN -3.57 dB    REM REPLAYGAIN_TRACK_PEAK 0.796967    INDEX 01 00:00:00FILE "18 - The Four Tops - Reach Out, I'll Be There.flac" WAVE  TRACK 18 AUDIO    TITLE "Reach Out, I'll Be There"    PERFORMER "The Four Tops"    REM REPLAYGAIN_TRACK_GAIN -2.69 dB    REM REPLAYGAIN_TRACK_PEAK 0.838409    INDEX 01 00:00:00FILE "19 - Los Bravos - Black Is Black.flac" WAVE  TRACK 19 AUDIO    TITLE "Black Is Black"    PERFORMER "Los Bravos"    REM REPLAYGAIN_TRACK_GAIN -4.76 dB    REM REPLAYGAIN_TRACK_PEAK 0.937531    INDEX 01 00:00:00FILE "20 - The Troggs - Wild Thing.flac" WAVE  TRACK 20 AUDIO    TITLE "Wild Thing"    PERFORMER "The Troggs"    REM REPLAYGAIN_TRACK_GAIN -3.90 dB    REM REPLAYGAIN_TRACK_PEAK 0.988708    INDEX 01 00:00:00

AccurateRip

[CUETools log; Date: 17.10.2018 18:18:53; Version: 2.1.5]Pregap length 00:00:32.[CTDB TOCID: d4S3DONnK89K61Ozzy0k2Wm.DBE-] found.Track | CTDB Status  1   | (9/9) Accurately ripped  2   | (9/9) Accurately ripped  3   | (9/9) Accurately ripped  4   | (9/9) Accurately ripped  5   | (9/9) Accurately ripped  6   | (9/9) Accurately ripped  7   | (9/9) Accurately ripped  8   | (9/9) Accurately ripped  9   | (9/9) Accurately ripped 10   | (9/9) Accurately ripped 11   | (9/9) Accurately ripped 12   | (9/9) Accurately ripped 13   | (9/9) Accurately ripped 14   | (9/9) Accurately ripped 15   | (9/9) Accurately ripped 16   | (9/9) Accurately ripped 17   | (9/9) Accurately ripped 18   | (9/9) Accurately ripped 19   | (9/9) Accurately ripped 20   | (9/9) Accurately ripped[AccurateRip ID: 002a8a05-0271f4c4-130dd014] found.Track   [  CRC   |   V2   ] Status 01     [7a58e50c|0a696050] (0+7/7) Accurately ripped 02     [4741bcf0|d791f4ee] (0+7/7) Accurately ripped 03     [6963859c|b78e1160] (0+7/7) Accurately ripped 04     [199539d7|23471b74] (0+7/7) Accurately ripped 05     [c2dc395e|5dac1973] (0+7/7) Accurately ripped 06     [011123be|f1397e8b] (0+7/7) Accurately ripped 07     [2a647862|d0c1cd28] (0+7/7) Accurately ripped 08     [25e50d53|c1007731] (0+7/7) Accurately ripped 09     [f82b1dd0|b75c6831] (0+7/7) Accurately ripped 10     [5d476079|3d3ceea2] (0+7/7) Accurately ripped 11     [380ded71|56d7e289] (0+7/7) Accurately ripped 12     [f6afd7a0|6fa9b367] (0+7/7) Accurately ripped 13     [47cc4109|d4da3063] (0+7/7) Accurately ripped 14     [18b8cf06|6998d5e9] (0+7/7) Accurately ripped 15     [e4f6c049|f7f7d1d6] (0+7/7) Accurately ripped 16     [9ae8a957|29f1d5d3] (0+7/7) Accurately ripped 17     [dc6ad21a|5704c341] (0+7/7) Accurately ripped 18     [a98bd4df|086fdf0a] (0+7/7) Accurately ripped 19     [29556661|58d400d4] (0+7/7) Accurately ripped 20     [8b6de317|4099b822] (0+7/7) Accurately ripped
Track Peak [ CRC32 ] [W/O NULL] -- 99,2 [0A3E4E1B] [88FF05C9] 01 99,2 [B62745BF] [B8CFF621] 02 68,6 [CB127570] [4C8B9671] 03 83,0 [5783A925] [03B03EB6] 04 98,9 [F458B8AE] [9CF4D5B8] 05 86,2 [D35C0A53] [97323696] 06 92,5 [65DB04B6] [F13A7508] 07 99,2 [AF58B0E8] [DEED1637] 08 74,3 [BB01BB1A] [DF05FF71] 09 99,2 [02FF33A2] [7CF83361] 10 90,2 [20EC5448] [A6CBE7E8] 11 99,2 [55D1C642] [52DFDEC4] 12 77,2 [9A7E5489] [8E149EDC] 13 77,0 [7EB8535C] [9B4B121B] 14 99,2 [DA4B2439] [21BAACB4] 15 67,2 [F418E444] [9DB2B8D1] 16 87,3 [A2B82DB0] [CFC28101] 17 79,6 [09A95485] [7CA489CD] 18 83,8 [3CC593B6] [80FD6967] 19 93,7 [F1473A99] [CEF3E73E] 20 98,8 [BC5CE3B5] [1A25001D]
Вы не можете начинать темы
Вы не можете отвечать на сообщения
Вы не можете редактировать свои сообщения
Вы не можете удалять свои сообщения
Вы не можете голосовать в опросах
Вы не можете прикреплять файлы к сообщениям
Вы можете скачивать файлы
!ВНИМАНИЕ!

Сайт не предоставляет электронные версии произведений, а занимается лишь коллекционированием и каталогизацией ссылок, присылаемых и публикуемых на форуме нашими читателями. Если вы являетесь правообладателем какого-либо представленного материала и не желаете, чтобы ссылка на него находилась в нашем каталоге, свяжитесь с нами, и мы незамедлительно удалим ее. Файлы для обмена на трекере предоставлены пользователями сайта, и администрация не несет ответственности за их содержание. Просьба не заливать файлы, защищенные авторскими правами, а также файлы нелегального содержания!

Искали программы, игры, дополнения, музыка mp3, аниме, аудио книги, журналы? Добро пожаловать на свободный торрент трекер Torrents, у нас можно скачать бесплатно, без смс и регистрации и прочих ограничений лучшие, отборные сборки программ, игр. Скачать торрентом не составит труда даже не опытному пользователю. Раздачи ежедневно обновляются, только лучшие и качественные раздачи, подробные описания и скриншоты. Огромная коллекция программ для работы со звуком, графикой, дизайном, а так же множество плагинов и инструментов к ним с подробной инструкцией и рекомендациями. Прошивки для навигаторов, карты. Разнообразные игры, для Windows, Linux. В коллекцие есть и старые игры любых жанров, Rpg, Action, Shooter, strategy Множество дополнений, модификаций, сценариев для популярных игр в жанре экш, рпг, гонки, стратегии, логические игры. Множество аддонов и сценариев для Microsoft Flight Simulator Большая коллекция книг, учебников. Если нет возможности купить печатное издание - смело скачивайте цифровую версию книги или, быть может, журнала. Не любите читать - можно загрузить бесплатно аудикнигу. Для веб дизайнеров и программистов так же найдется множество специализированного софта, таких как: редакторы с подсветкой, среды программирования, компоненты, системы управления базами данных, разнообразные скрипты и шаблоны. Не так давно у нас появился материал для автолюбителей и владельцев мото - оригинальные и неоригинальные каталоги запчастей, книги и журналы по ремонту и обслуживанию, видеоуроки, статьи по чип тюнингу, прошивкам. Процедура получения контента элементарная, достаточно просто скачать торрент файл и добавить его в загрузку в вашем торрент клиенте. Если у вас нет специального торрент клиента, вы можете его скачать у нас.

Der Adler – Die Spur des Verbrechens | Watch movie | Panjaa 2011 BDRip XviD AC3 Team Legends