(Various) [CD] VA - De Pre Historie 1973 [EMI/Virgin, 260.745, Belgium] - 1991, FLAC (tracks+.cue), lossless 

Цитировать
De Pre Historie 1973
Жанр: Various
Носитель: CD
Страна-производитель диска (релиза): Belgium
Год издания: 1991
Издатель (лейбл): EMI/Virgin
Номер по каталогу: 260.745
Аудиокодек: FLAC (*.flac)
Тип рипа: tracks+.cue
Битрейт аудио: lossless
Продолжительность: 01:15:16
Источник (релизер): From RED
Наличие сканов в содержимом раздачи: нет

Треклист:
01. Elton John – Daniel
02. Carly Simon – You're So Vain
03. Steve Miller Band – The Joker
04. Kiki Dee – Amoureuse
05. Sharif Dean – Do You Love Me
06. Redbone – We Were All Wounded At Wounded Knee
07. The Spinners – Could It Be I'm Falling In Love
08. Santana – Samba Pa Ti
09. Billy Paul – Me And Mrs. Jones
10. Jim Croce – Bad, Bad Leroy Brown
11. Stealers Wheel – Stuck In The Middle With You
12. Eric Weissberg & Steve Mandel – Dueling Banjos
13. Clifford T. Ward – Gaye
14. Dawn – Tie A Yellow Ribbon Round The Ole Oak Tree
15. The Carpenters – Yesterday Once More
16. Elvis Presley – Always On My Mind
17. Lou Reed – Walk On The Wild Side
18. Harold Melvin & The Blue Notes – If You Don't Know Me By Now
19. Barry White – I'm Gonna Love You Just A Little Bit More

Лог создания рипа

Exact Audio Copy V1.3 from 2. September 2016
EAC extraction logfile from 19. May 2017, 11:58
Various Artists / De Pre Historie 1973
Used drive : ATAPI iHAS124 F Adapter: 1 ID: 1
Read mode : SecureUtilize accurate stream : YesDefeat audio cache : YesMake use of C2 pointers : No
Read offset correction : 6Overread into Lead-In and Lead-Out : NoFill up missing offset samples with silence : YesDelete leading and trailing silent blocks : NoNull samples used in CRC calculations : YesUsed interface : Native Win32 interface for Win NT & 2000Gap handling : Appended to previous track
Used output format : User Defined EncoderSelected bitrate : 1024 kBit/sQuality : HighAdd ID3 tag : NoCommand line compressor : C:\cmd.exeAdditional command line options : /c ""C:\F\CUETools.FLACCL.cmd.exe" -8 --verify %source% -o %dest% & "C:\M\metaflac.exe" --set-tag="ARTIST=%artist%" --set-tag="TITLE=%title%" --set-tag="ALBUM=%albumtitle%" --set-tag="DATE=%year%" --set-tag="TRACKNUMBER=%tracknr%" --set-tag="GENRE=%genre%" --set-tag="COMPOSER=%composer%" --set-tag="ALBUMARTIST=%albumartist%" %dest%"
TOC of the extracted CD
Track | Start | Length | Start sector | End sector --------------------------------------------------------- 1 | 0:00.33 | 3:54.62 | 33 | 17644 2 | 3:55.20 | 4:18.25 | 17645 | 37019 3 | 8:13.45 | 4:23.55 | 37020 | 56799 4 | 12:37.25 | 4:07.63 | 56800 | 75387 5 | 16:45.13 | 3:57.65 | 75388 | 93227 6 | 20:43.03 | 3:30.65 | 93228 | 109042 7 | 24:13.68 | 4:09.50 | 109043 | 127767 8 | 28:23.43 | 4:32.60 | 127768 | 148227 9 | 32:56.28 | 4:48.20 | 148228 | 169847 10 | 37:44.48 | 2:59.40 | 169848 | 183312 11 | 40:44.13 | 3:24.67 | 183313 | 198679 12 | 44:09.05 | 3:16.63 | 198680 | 213442 13 | 47:25.68 | 3:35.17 | 213443 | 229584 14 | 51:01.10 | 3:22.15 | 229585 | 244749 15 | 54:23.25 | 3:58.55 | 244750 | 262654 16 | 58:22.05 | 2:27.53 | 262655 | 273732 17 | 60:49.58 | 4:11.52 | 273733 | 292609 18 | 65:01.35 | 3:26.03 | 292610 | 308062 19 | 68:27.38 | 7:08.70 | 308063 | 340232
Track 1
Filename E:\EAC Rips\2017-05 Mei\Various Artists - De Pre Historie 1973 (1991) [FLAC] {BMG 260.745}\01 - Elton John - Daniel.wav
Pre-gap length 0:00:02.33
Peak level 95.5 % Extraction speed 5.7 X Track quality 100.0 % Test CRC D4952213 Copy CRC D4952213 Accurately ripped (confidence 6) [B595C4D0] (AR v2) Copy OK
Track 2
Filename E:\EAC Rips\2017-05 Mei\Various Artists - De Pre Historie 1973 (1991) [FLAC] {BMG 260.745}\02 - Carly Simon - You’Re So Vain.wav
Pre-gap length 0:00:02.10
Peak level 99.2 % Extraction speed 6.3 X Track quality 100.0 % Test CRC F77BB194 Copy CRC F77BB194 Accurately ripped (confidence 6) [CB1262FB] (AR v2) Copy OK
Track 3
Filename E:\EAC Rips\2017-05 Mei\Various Artists - De Pre Historie 1973 (1991) [FLAC] {BMG 260.745}\03 - Steve Miller Band - The Joker.wav
Pre-gap length 0:00:01.16
Peak level 92.8 % Extraction speed 6.9 X Track quality 100.0 % Test CRC 74BB3215 Copy CRC 74BB3215 Accurately ripped (confidence 6) [EB49AB58] (AR v2) Copy OK
Track 4
Filename E:\EAC Rips\2017-05 Mei\Various Artists - De Pre Historie 1973 (1991) [FLAC] {BMG 260.745}\04 - Kiki Dee - Amoureuse.wav
Peak level 87.4 % Extraction speed 7.3 X Track quality 100.0 % Test CRC 60A235F1 Copy CRC 60A235F1 Accurately ripped (confidence 6) [89C6B609] (AR v2) Copy OK
Track 5
Filename E:\EAC Rips\2017-05 Mei\Various Artists - De Pre Historie 1973 (1991) [FLAC] {BMG 260.745}\05 - Sharif Dean - Do You Love Me.wav
Pre-gap length 0:00:01.00
Peak level 94.7 % Extraction speed 7.6 X Track quality 100.0 % Test CRC C6D818FF Copy CRC C6D818FF Accurately ripped (confidence 6) [97DBA45B] (AR v2) Copy OK
Track 6
Filename E:\EAC Rips\2017-05 Mei\Various Artists - De Pre Historie 1973 (1991) [FLAC] {BMG 260.745}\06 - Redbone - We Were All Wounded At Wounded Knee.wav
Peak level 99.2 % Extraction speed 7.8 X Track quality 100.0 % Test CRC 171E4465 Copy CRC 171E4465 Accurately ripped (confidence 6) [D0FE7599] (AR v2) Copy OK
Track 7
Filename E:\EAC Rips\2017-05 Mei\Various Artists - De Pre Historie 1973 (1991) [FLAC] {BMG 260.745}\07 - The Spinners - Could It Be I’M Falling In Love.wav
Peak level 93.3 % Extraction speed 7.4 X Track quality 99.9 % Test CRC A9CED585 Copy CRC A9CED585 Accurately ripped (confidence 6) [A2E5B9E7] (AR v2) Copy OK
Track 8
Filename E:\EAC Rips\2017-05 Mei\Various Artists - De Pre Historie 1973 (1991) [FLAC] {BMG 260.745}\08 - Santana - Samba Pa Ti.wav
Pre-gap length 0:00:01.30
Peak level 87.1 % Extraction speed 8.8 X Track quality 100.0 % Test CRC 62A1D26A Copy CRC 62A1D26A Accurately ripped (confidence 6) [24CCCB43] (AR v2) Copy OK
Track 9
Filename E:\EAC Rips\2017-05 Mei\Various Artists - De Pre Historie 1973 (1991) [FLAC] {BMG 260.745}\09 - Billy Paul - Me And Mrs. Jones.wav
Peak level 88.7 % Extraction speed 9.2 X Track quality 100.0 % Test CRC 9787756B Copy CRC 9787756B Accurately ripped (confidence 6) [D179A574] (AR v2) Copy OK
Track 10
Filename E:\EAC Rips\2017-05 Mei\Various Artists - De Pre Historie 1973 (1991) [FLAC] {BMG 260.745}\10 - Jim Croce - Bad, Bad Leroy Brown.wav
Pre-gap length 0:00:01.50
Peak level 94.0 % Extraction speed 8.9 X Track quality 100.0 % Test CRC 7EC4605B Copy CRC 7EC4605B Accurately ripped (confidence 6) [28E2263E] (AR v2) Copy OK
Track 11
Filename E:\EAC Rips\2017-05 Mei\Various Artists - De Pre Historie 1973 (1991) [FLAC] {BMG 260.745}\11 - Stealers Wheel - Stuck In The Middle With You.wav
Peak level 99.2 % Extraction speed 9.4 X Track quality 100.0 % Test CRC 95BC6396 Copy CRC 95BC6396 Accurately ripped (confidence 6) [39568A0F] (AR v2) Copy OK
Track 12
Filename E:\EAC Rips\2017-05 Mei\Various Artists - De Pre Historie 1973 (1991) [FLAC] {BMG 260.745}\12 - Eric Weissberg & Steve Mandell - Dueling Banjos.wav
Pre-gap length 0:00:01.27
Peak level 95.8 % Extraction speed 8.3 X Track quality 99.9 % Test CRC 6D8C90F8 Copy CRC 6D8C90F8 Accurately ripped (confidence 6) [D7BBE1FC] (AR v2) Copy OK
Track 13
Filename E:\EAC Rips\2017-05 Mei\Various Artists - De Pre Historie 1973 (1991) [FLAC] {BMG 260.745}\13 - Clifford T. Ward - Gaye.wav
Pre-gap length 0:00:01.38
Peak level 88.0 % Extraction speed 9.8 X Track quality 100.0 % Test CRC E1F2723A Copy CRC E1F2723A Accurately ripped (confidence 6) [FDB774FD] (AR v2) Copy OK
Track 14
Filename E:\EAC Rips\2017-05 Mei\Various Artists - De Pre Historie 1973 (1991) [FLAC] {BMG 260.745}\14 - Tony Orlando & Dawn - Tie A Yellow Ribbon Round The Ole Oak Tree.wav
Pre-gap length 0:00:01.72
Peak level 89.6 % Extraction speed 8.7 X Track quality 99.9 % Test CRC 8C006B65 Copy CRC 8C006B65 Accurately ripped (confidence 6) [9A7F3486] (AR v2) Copy OK
Track 15
Filename E:\EAC Rips\2017-05 Mei\Various Artists - De Pre Historie 1973 (1991) [FLAC] {BMG 260.745}\15 - Carpenters - Yesterday Once More.wav
Pre-gap length 0:00:01.22
Peak level 99.2 % Extraction speed 9.4 X Track quality 99.9 % Test CRC 1488DF60 Copy CRC 1488DF60 Accurately ripped (confidence 6) [F88BEE53] (AR v2) Copy OK
Track 16
Filename E:\EAC Rips\2017-05 Mei\Various Artists - De Pre Historie 1973 (1991) [FLAC] {BMG 260.745}\16 - Elvis Presley - Always On My Mind.wav
Pre-gap length 0:00:01.67
Peak level 96.7 % Extraction speed 8.4 X Track quality 99.9 % Test CRC ABF0B3C6 Copy CRC ABF0B3C6 Accurately ripped (confidence 6) [E31B704F] (AR v2) Copy OK
Track 17
Filename E:\EAC Rips\2017-05 Mei\Various Artists - De Pre Historie 1973 (1991) [FLAC] {BMG 260.745}\17 - Lou Reed - Walk On The Wild Side.wav
Pre-gap length 0:00:02.18
Peak level 71.4 % Extraction speed 10.9 X Track quality 100.0 % Test CRC EACBDFC0 Copy CRC EACBDFC0 Accurately ripped (confidence 6) [570BE565] (AR v2) Copy OK
Track 18
Filename E:\EAC Rips\2017-05 Mei\Various Artists - De Pre Historie 1973 (1991) [FLAC] {BMG 260.745}\18 - Harold Melvin & The Blue Notes - If You Don’T Know Me By Now.wav
Pre-gap length 0:00:01.40
Peak level 97.2 % Extraction speed 10.9 X Track quality 100.0 % Test CRC D3501D62 Copy CRC D3501D62 Accurately ripped (confidence 6) [741EB1C0] (AR v2) Copy OK
Track 19
Filename E:\EAC Rips\2017-05 Mei\Various Artists - De Pre Historie 1973 (1991) [FLAC] {BMG 260.745}\19 - Barry White - I’M Gonna Love You Just A Little Bit More.wav
Pre-gap length 0:00:01.05
Peak level 67.4 % Extraction speed 11.1 X Track quality 99.9 % Test CRC 99DAAABC Copy CRC 99DAAABC Accurately ripped (confidence 4) [0DBF4893] (AR v2) Copy OK
All tracks accurately ripped
No errors occurred
End of status report
---- CUETools DB Plugin V2.1.6
[CTDB TOCID: 6HLpA2T4e6fJPg5GSTMEyetSOsM-] foundSubmit result: 6HLpA2T4e6fJPg5GSTMEyetSOsM- has been confirmedTrack | CTDB Status 1 | (16/16) Accurately ripped 2 | (16/16) Accurately ripped 3 | (15/16) Accurately ripped 4 | (16/16) Accurately ripped 5 | (16/16) Accurately ripped 6 | (15/16) Accurately ripped 7 | (15/16) Accurately ripped 8 | (16/16) Accurately ripped 9 | (16/16) Accurately ripped 10 | (14/16) Accurately ripped 11 | (15/16) Accurately ripped 12 | (15/16) Accurately ripped 13 | (14/16) Accurately ripped 14 | (16/16) Accurately ripped 15 | (16/16) Accurately ripped 16 | (16/16) Accurately ripped 17 | (15/16) Accurately ripped 18 | (14/16) Accurately ripped 19 | (15/16) Accurately ripped
==== Log checksum 2684F11D1CD524468CCEA77FA388183D056CEECABAD58799F38233898B1E56B3 ====

Содержание индексной карты (.CUE)

REM DATE 1991REM DISCID 1611B813REM COMMENT "ExactAudioCopy v1.3"PERFORMER "Various Artists"TITLE "De Pre Historie 1973"REM COMPOSER ""FILE "01 - Elton John - Daniel.wav" WAVE  TRACK 01 AUDIO    TITLE "Daniel"    PERFORMER "Elton John"    REM COMPOSER ""    PREGAP 00:00:33    INDEX 01 00:00:00  TRACK 02 AUDIO    TITLE "You’Re So Vain"    PERFORMER "Carly Simon"    REM COMPOSER ""    INDEX 00 03:52:52FILE "02 - Carly Simon - You’Re So Vain.wav" WAVE    INDEX 01 00:00:00  TRACK 03 AUDIO    TITLE "The Joker"    PERFORMER "Steve Miller Band"    REM COMPOSER ""    INDEX 00 04:17:09FILE "03 - Steve Miller Band - The Joker.wav" WAVE    INDEX 01 00:00:00FILE "04 - Kiki Dee - Amoureuse.wav" WAVE  TRACK 04 AUDIO    TITLE "Amoureuse"    PERFORMER "Kiki Dee"    REM COMPOSER ""    INDEX 01 00:00:00  TRACK 05 AUDIO    TITLE "Do You Love Me"    PERFORMER "Sharif Dean"    REM COMPOSER ""    INDEX 00 04:06:63FILE "05 - Sharif Dean - Do You Love Me.wav" WAVE    INDEX 01 00:00:00FILE "06 - Redbone - We Were All Wounded At Wounded Knee.wav" WAVE  TRACK 06 AUDIO    TITLE "We Were All Wounded At Wounded Knee"    PERFORMER "Redbone"    REM COMPOSER ""    INDEX 01 00:00:00FILE "07 - The Spinners - Could It Be I’M Falling In Love.wav" WAVE  TRACK 07 AUDIO    TITLE "Could It Be I’M Falling In Love"    PERFORMER "The Spinners"    REM COMPOSER ""    INDEX 01 00:00:00  TRACK 08 AUDIO    TITLE "Samba Pa Ti"    PERFORMER "Santana"    REM COMPOSER ""    INDEX 00 04:08:20FILE "08 - Santana - Samba Pa Ti.wav" WAVE    INDEX 01 00:00:00FILE "09 - Billy Paul - Me And Mrs. Jones.wav" WAVE  TRACK 09 AUDIO    TITLE "Me And Mrs. Jones"    PERFORMER "Billy Paul"    REM COMPOSER ""    INDEX 01 00:00:00  TRACK 10 AUDIO    TITLE "Bad, Bad Leroy Brown"    PERFORMER "Jim Croce"    REM COMPOSER ""    INDEX 00 04:46:45FILE "10 - Jim Croce - Bad, Bad Leroy Brown.wav" WAVE    INDEX 01 00:00:00FILE "11 - Stealers Wheel - Stuck In The Middle With You.wav" WAVE  TRACK 11 AUDIO    TITLE "Stuck In The Middle With You"    PERFORMER "Stealers Wheel"    REM COMPOSER ""    INDEX 01 00:00:00  TRACK 12 AUDIO    TITLE "Dueling Banjos"    PERFORMER "Eric Weissberg & Steve Mandell"    REM COMPOSER ""    INDEX 00 03:23:40FILE "12 - Eric Weissberg & Steve Mandell - Dueling Banjos.wav" WAVE    INDEX 01 00:00:00  TRACK 13 AUDIO    TITLE "Gaye"    PERFORMER "Clifford T. Ward"    REM COMPOSER ""    INDEX 00 03:15:25FILE "13 - Clifford T. Ward - Gaye.wav" WAVE    INDEX 01 00:00:00  TRACK 14 AUDIO    TITLE "Tie A Yellow Ribbon Round The Ole Oak Tree"    PERFORMER "Tony Orlando & Dawn"    REM COMPOSER ""    INDEX 00 03:33:20FILE "14 - Tony Orlando & Dawn - Tie A Yellow Ribbon Round The Ole Oak Tree.wav" WAVE    INDEX 01 00:00:00  TRACK 15 AUDIO    TITLE "Yesterday Once More"    PERFORMER "Carpenters"    REM COMPOSER ""    INDEX 00 03:20:68FILE "15 - Carpenters - Yesterday Once More.wav" WAVE    INDEX 01 00:00:00  TRACK 16 AUDIO    TITLE "Always On My Mind"    PERFORMER "Elvis Presley"    REM COMPOSER ""    INDEX 00 03:56:63FILE "16 - Elvis Presley - Always On My Mind.wav" WAVE    INDEX 01 00:00:00  TRACK 17 AUDIO    TITLE "Walk On The Wild Side"    PERFORMER "Lou Reed"    REM COMPOSER ""    INDEX 00 02:25:35FILE "17 - Lou Reed - Walk On The Wild Side.wav" WAVE    INDEX 01 00:00:00  TRACK 18 AUDIO    TITLE "If You Don’T Know Me By Now"    PERFORMER "Harold Melvin & The Blue Notes"    REM COMPOSER ""    INDEX 00 04:10:12FILE "18 - Harold Melvin & The Blue Notes - If You Don’T Know Me By Now.wav" WAVE    INDEX 01 00:00:00  TRACK 19 AUDIO    TITLE "I’M Gonna Love You Just A Little Bit More"    PERFORMER "Barry White"    REM COMPOSER ""    INDEX 00 03:24:73FILE "19 - Barry White - I’M Gonna Love You Just A Little Bit More.wav" WAVE    INDEX 01 00:00:00

AccurateRip

[CUETools log; Date: 20.10.2018 14:01:09; Version: 2.1.5]Pregap length 00:00:33.[CTDB TOCID: 6HLpA2T4e6fJPg5GSTMEyetSOsM-] found.Track | CTDB Status  1   | (26/26) Accurately ripped  2   | (26/26) Accurately ripped  3   | (25/26) Accurately ripped  4   | (26/26) Accurately ripped  5   | (25/26) Accurately ripped  6   | (24/26) Accurately ripped  7   | (25/26) Accurately ripped  8   | (26/26) Accurately ripped  9   | (26/26) Accurately ripped 10   | (24/26) Accurately ripped 11   | (25/26) Accurately ripped 12   | (25/26) Accurately ripped 13   | (24/26) Accurately ripped 14   | (26/26) Accurately ripped 15   | (26/26) Accurately ripped 16   | (26/26) Accurately ripped 17   | (25/26) Accurately ripped 18   | (24/26) Accurately ripped 19   | (25/26) Accurately ripped[AccurateRip ID: 00339b32-02ccb268-1611b813] found.Track   [  CRC   |   V2   ] Status 01     [92340cdd|b595c4d0] (03+09/30) Accurately ripped 02     [4f22e467|cb1262fb] (03+09/30) Accurately ripped 03     [2b9eeafe|eb49ab58] (03+09/29) Accurately ripped 04     [446e015e|89c6b609] (02+09/29) Accurately ripped 05     [2656ac08|97dba45b] (03+09/30) Accurately ripped 06     [1628d349|d0fe7599] (02+08/27) Accurately ripped 07     [c984e968|a2e5b9e7] (02+08/28) Accurately ripped 08     [7f40bad4|24cccb43] (02+09/29) Accurately ripped 09     [9f1b02a6|d179a574] (02+09/29) Accurately ripped 10     [3d0778e2|28e2263e] (03+08/28) Accurately ripped 11     [44059c38|39568a0f] (03+09/29) Accurately ripped 12     [edee8ff0|d7bbe1fc] (02+09/27) Accurately ripped 13     [dacb8feb|fdb774fd] (02+08/26) Accurately ripped 14     [e39e2490|9a7f3486] (03+09/30) Accurately ripped 15     [d5be503b|f88bee53] (03+09/30) Accurately ripped 16     [84c59625|e31b704f] (03+09/30) Accurately ripped 17     [24388d04|570be565] (02+09/27) Accurately ripped 18     [45928ca0|741eb1c0] (03+09/28) Accurately ripped 19     [d8739c7d|0dbf4893] (03+06/24) Accurately rippedOffsetted by -1393: 01     [674dfd68] (06/30) Accurately ripped 02     [1f6aeb91] (06/30) Accurately ripped 03     [55d1482c] (06/29) Accurately ripped 04     [0f25d0df] (06/29) Accurately ripped 05     [50ea93b8] (06/30) Accurately ripped 06     [3655d584] (06/27) Accurately ripped 07     [d0a1f42d] (06/28) Accurately ripped 08     [76f02eec] (06/29) Accurately ripped 09     [20bd599a] (06/29) Accurately ripped 10     [006a1621] (06/28) Accurately ripped 11     [79a51b6e] (06/29) Accurately ripped 12     [15f01567] (06/27) Accurately ripped 13     [16704565] (06/26) Accurately ripped 14     [12ffafc8] (06/30) Accurately ripped 15     [3b07a0e8] (06/30) Accurately ripped 16     [6b5f6f69] (06/30) Accurately ripped 17     [31e73184] (06/27) Accurately ripped 18     [cc8f1428] (06/28) Accurately ripped 19     [7b15bbfc] (04/24) Accurately ripped
Track Peak [ CRC32 ] [W/O NULL] [ LOG ] -- 99,2 [6E393163] [876B1FB1] 01 95,5 [D4952213] [F8056AE7] CRC32 02 99,2 [F77BB194] [9A90D188] CRC32 03 92,8 [74BB3215] [D331A338] CRC32 04 87,4 [60A235F1] [F1C8FD4F] CRC32 05 94,7 [C6D818FF] [DBCFC009] CRC32 06 99,2 [171E4465] [986F50D8] CRC32 07 93,3 [A9CED585] [E210D5A1] CRC32 08 87,1 [62A1D26A] [265AA7AE] CRC32 09 88,7 [9787756B] [4A278137] CRC32 10 94,0 [7EC4605B] [92CE09F6] CRC32 11 99,2 [95BC6396] [CA07F494] CRC32 12 95,8 [6D8C90F8] [5494223E] CRC32 13 88,0 [E1F2723A] [AA3D7BAC] CRC32 14 89,6 [8C006B65] [3828D7D7] CRC32 15 99,2 [1488DF60] [E0AF1CD3] CRC32 16 96,7 [ABF0B3C6] [29B6AFCB] CRC32 17 71,4 [EACBDFC0] [A085885F] CRC32 18 97,2 [D3501D62] [F2461266] CRC32 19 67,4 [99DAAABC] [50B72E8C] CRC32
Вы не можете начинать темы
Вы не можете отвечать на сообщения
Вы не можете редактировать свои сообщения
Вы не можете удалять свои сообщения
Вы не можете голосовать в опросах
Вы не можете прикреплять файлы к сообщениям
Вы можете скачивать файлы
!ВНИМАНИЕ!

Сайт не предоставляет электронные версии произведений, а занимается лишь коллекционированием и каталогизацией ссылок, присылаемых и публикуемых на форуме нашими читателями. Если вы являетесь правообладателем какого-либо представленного материала и не желаете, чтобы ссылка на него находилась в нашем каталоге, свяжитесь с нами, и мы незамедлительно удалим ее. Файлы для обмена на трекере предоставлены пользователями сайта, и администрация не несет ответственности за их содержание. Просьба не заливать файлы, защищенные авторскими правами, а также файлы нелегального содержания!

Искали программы, игры, дополнения, музыка mp3, аниме, аудио книги, журналы? Добро пожаловать на свободный торрент трекер Torrents, у нас можно скачать бесплатно, без смс и регистрации и прочих ограничений лучшие, отборные сборки программ, игр. Скачать торрентом не составит труда даже не опытному пользователю. Раздачи ежедневно обновляются, только лучшие и качественные раздачи, подробные описания и скриншоты. Огромная коллекция программ для работы со звуком, графикой, дизайном, а так же множество плагинов и инструментов к ним с подробной инструкцией и рекомендациями. Прошивки для навигаторов, карты. Разнообразные игры, для Windows, Linux. В коллекцие есть и старые игры любых жанров, Rpg, Action, Shooter, strategy Множество дополнений, модификаций, сценариев для популярных игр в жанре экш, рпг, гонки, стратегии, логические игры. Множество аддонов и сценариев для Microsoft Flight Simulator Большая коллекция книг, учебников. Если нет возможности купить печатное издание - смело скачивайте цифровую версию книги или, быть может, журнала. Не любите читать - можно загрузить бесплатно аудикнигу. Для веб дизайнеров и программистов так же найдется множество специализированного софта, таких как: редакторы с подсветкой, среды программирования, компоненты, системы управления базами данных, разнообразные скрипты и шаблоны. Не так давно у нас появился материал для автолюбителей и владельцев мото - оригинальные и неоригинальные каталоги запчастей, книги и журналы по ремонту и обслуживанию, видеоуроки, статьи по чип тюнингу, прошивкам. Процедура получения контента элементарная, достаточно просто скачать торрент файл и добавить его в загрузку в вашем торрент клиенте. Если у вас нет специального торрент клиента, вы можете его скачать у нас.

Bering Sea Gold S06E11 720p HDTV x264-BAJSKORV[ettv] | Ariana Grande ★ From 0 To 24 Years Old | 10 Pc / Lot Red Wooden Pencils Hb Pencil With Eraser Head Stationery For School'