Лански / Крестный Лански / Lansky (Джон МакНотон / John McNaughton) [1999, США, драма, криминал, DVD9] MVO + Original Eng 

Цитировать
Лански / Крестный Лански / Lansky
Страна: США
Жанр: драма, криминал
Год выпуска: 1999
Продолжительность: 01:51:38
Перевод: Профессиональный (многоголосый, закадровый)
Субтитры: русские
Оригинальная аудиодорожка: английская
Режиссер: Джон МакНотон / John McNaughton
В ролях: Ричард Дрейфусс, Йосеф Кармон, Моско Алкалай, Фима Новек, Джошуа Проу, Бернард Хиллер, Джилл Холден, Ларри Мосс, Крис Маркетт, Райан Мерриман
Описание: В картине рассказывается об американском мафиози еврейского происхождения Майере Лански. Он работал вместе с такими гангстерами как Бенни «Багзи» Сигал и Лаки Лучано. Действие построено ретроспективно (в виде воспоминаний) и начинается со сцен, снятых в Израиле, когда Лански ждет решения израильских властей о его высылке в Штаты. Его выдворяют из страны, отказывают в убежище в Парагвае, на Кубе, ему приходится вернуться во Флориду. Обвинения в торговле наркотиками перевешивают те услуги, которые были оказаны мафией во время второй мировой войны.
Преследования Лански властями США стоят в центре сюжета, а то, чем занимались «герои», рассматривается просто как несколько неординарный бизнес, в котором евреям приходилось конкурировать с итальянцами. В целом образ мистера Майера Лански выписан с большой симпатией, чего не скажешь о политиках, судьях и сотрудниках ФБР. Посадить Лански властям так и не удалось, он умер 15 января 1983 года в Майами в возрасте 80 лет.
Дополнительные материалы: Создатели и исполнители, Журнал "TOTAL DVD", Смотрите на DVD, Видеоролик к фильму
Меню: есть, анимированное
Тип релиза: DVD9
Контейнер: DVD-Video
Видео: PAL 4:3 (720x576(0.615)) MPEG Video, 25,000 кадр/сек, 6376 Кбит/сек
Аудио: Russian (Dolby AC-3, 6ch) 448 Кбит/сек, 48.0 КГц
Аудио 2: English (Dolby AC-3, 6ch) 448 Кбит/сек, 48.0 КГц

MediaInfo

Общее
Полное имя : Lansky\VIDEO_TS\VTS_10_1.VOB
Формат : MPEG-PS
Размер файла : 1024 Мбайт
Продолжительность : 19 м. 17 с.
Режим общего битрейта : Переменный
Общий поток : 7419 Кбит/сек
Видео
Идентификатор : 224 (0xE0)
Формат : MPEG Video
Версия формата : Version 2
Профиль формата : Main@Main
Параметр BVOP формата : Да
Параметр матрицы формата : Выборочная
Параметр GOP формата : M=3, N=15
Структура изображения : Frame
Продолжительность : 19 м. 17 с.
Вид битрейта : Переменный
Битрейт : 6376 Кбит/сек
Максимальный битрейт : 8000 Кбит/сек
Ширина : 720 пикселей
Высота : 576 пикселей
Соотношение сторон : 4:3
Частота кадров : 25,000 кадров/сек
Стандарт вещания : PAL
Цветовое пространство : YUV
Субдискретизация насыщенности : 4:2:0
Битовая глубина : 8 бит
Тип развёртки : Чересстрочная
Порядок развёртки : Верхнее поле первое
Метод сжатия : С потерями
Бит/(Пиксели*Кадры) : 0.615
Временной код первого кадра : 01:00:00:00
Оригинал временного кода : Group of pictures header
GOP, открыто/закрыто : Закрыто
Размер потока : 880 Мбайт (86%)
Аудио #1
Идентификатор : 189 (0xBD)-128 (0x80)
Формат : AC-3
Формат/Информация : Audio Coding 3
Параметр Endianness формата : Big
Режим смешивания : DVD-Video
Продолжительность : 19 м. 17 с.
Вид битрейта : Постоянный
Битрейт : 448 Кбит/сек
Каналы : 6 каналов
Расположение каналов : Front: L C R, Side: L R, LFE
Частота : 48,0 КГц
Частота кадров : 31,250 кадров/сек (1536 spf)
Битовая глубина : 16 бит
Метод сжатия : С потерями
Размер потока : 61,8 Мбайт (6%)
ServiceKind/String : Complete Main
Аудио #2
Идентификатор : 189 (0xBD)-129 (0x81)
Формат : AC-3
Формат/Информация : Audio Coding 3
Параметр Endianness формата : Big
Режим смешивания : DVD-Video
Продолжительность : 19 м. 17 с.
Вид битрейта : Постоянный
Битрейт : 448 Кбит/сек
Каналы : 6 каналов
Расположение каналов : Front: L C R, Side: L R, LFE
Частота : 48,0 КГц
Частота кадров : 31,250 кадров/сек (1536 spf)
Битовая глубина : 16 бит
Метод сжатия : С потерями
Размер потока : 61,8 Мбайт (6%)
ServiceKind/String : Complete Main
Текст
Идентификатор : 189 (0xBD)-32 (0x20)
Формат : RLE
Формат/Информация : Run-length encoding
Режим смешивания : DVD-Video

Скриншоты меню

Скриншоты

Вы не можете начинать темы
Вы не можете отвечать на сообщения
Вы не можете редактировать свои сообщения
Вы не можете удалять свои сообщения
Вы не можете голосовать в опросах
Вы не можете прикреплять файлы к сообщениям
Вы можете скачивать файлы
!ВНИМАНИЕ!

Сайт не предоставляет электронные версии произведений, а занимается лишь коллекционированием и каталогизацией ссылок, присылаемых и публикуемых на форуме нашими читателями. Если вы являетесь правообладателем какого-либо представленного материала и не желаете, чтобы ссылка на него находилась в нашем каталоге, свяжитесь с нами, и мы незамедлительно удалим ее. Файлы для обмена на трекере предоставлены пользователями сайта, и администрация не несет ответственности за их содержание. Просьба не заливать файлы, защищенные авторскими правами, а также файлы нелегального содержания!

Искали программы, игры, дополнения, музыка mp3, аниме, аудио книги, журналы? Добро пожаловать на свободный торрент трекер Torrents, у нас можно скачать бесплатно, без смс и регистрации и прочих ограничений лучшие, отборные сборки программ, игр. Скачать торрентом не составит труда даже не опытному пользователю. Раздачи ежедневно обновляются, только лучшие и качественные раздачи, подробные описания и скриншоты. Огромная коллекция программ для работы со звуком, графикой, дизайном, а так же множество плагинов и инструментов к ним с подробной инструкцией и рекомендациями. Прошивки для навигаторов, карты. Разнообразные игры, для Windows, Linux. В коллекцие есть и старые игры любых жанров, Rpg, Action, Shooter, strategy Множество дополнений, модификаций, сценариев для популярных игр в жанре экш, рпг, гонки, стратегии, логические игры. Множество аддонов и сценариев для Microsoft Flight Simulator Большая коллекция книг, учебников. Если нет возможности купить печатное издание - смело скачивайте цифровую версию книги или, быть может, журнала. Не любите читать - можно загрузить бесплатно аудикнигу. Для веб дизайнеров и программистов так же найдется множество специализированного софта, таких как: редакторы с подсветкой, среды программирования, компоненты, системы управления базами данных, разнообразные скрипты и шаблоны. Не так давно у нас появился материал для автолюбителей и владельцев мото - оригинальные и неоригинальные каталоги запчастей, книги и журналы по ремонту и обслуживанию, видеоуроки, статьи по чип тюнингу, прошивкам. Процедура получения контента элементарная, достаточно просто скачать торрент файл и добавить его в загрузку в вашем торрент клиенте. Если у вас нет специального торрент клиента, вы можете его скачать у нас.

Android TV Boxes & Accessories | Accessing Oracle... | Dragon Ball – Bảy Viên Ngọc Rồng chap 468