Высший пилотаж / Spun (Йонас Окерлунд / Jonas Akerlund) [2002, США, драма, комедия, криминал, DVD5] MVO + Original Eng 

Цитировать
Высший пилотаж / Spun
Страна: США
Жанр: драма, комедия, криминал
Год выпуска: 2002
Продолжительность: 01:41:05
Перевод: Профессиональный (многоголосый, закадровый)
Субтитры: английские
Оригинальная аудиодорожка: английская
Режиссер: Йонас Окерлунд / Jonas Akerlund
В ролях: Джейсон Шварцман, Микки Рурк, Бриттани Мерфи, Джон Легуизамо, Патрик Фьюджит, Мена Сувари, Хлоя Хантер, Элиса Боканегра, Хулия Мендоса, Чайна Чоу
Описание: Метедрин. Метамфетамин. Мет… Миллионы людей, от «золотой молодежи» до простых работяг и тинэйджеров потребляют его в астрономических количествах. Мет — американский наркотик номер один, производимый в кустарных лабораториях от побережья до побережья. Нюхаемый, съедаемый или вкалываемый ради неповторимого ощущения безграничного могущества.
Росс, безработный студент-недоучка, знакомится в доме своего дилера «Паука» Майка с производителем метамфетамина Куком и его подружкой-стриптизершей. Так началось стремительное, головокружительное трехдневное путешествие Росса по волнам безумия, в котором он потерял представление не только о времени и месте, но и самом себе. Сможет ли он вернуться?
Дополнительные материалы: Путешествие, которое начинается там, куда не решились заглянуть создатели фильма "На игле".
Меню: есть, английское, статичное
Тип релиза: DVD5
Контейнер: DVD-Video
Видео: NTSC 16:9 (720x480(0.448)) MPEG Video, 29,970 кадр/сек, 4643 Кбит/сек
Аудио: Russian (Dolby AC-3, 6 ch) 448 Кбит/сек, 48.0 КГц
Аудио 2: English (Dolby AC-3, 6 ch) 448 Кбит/сек, 48.0 КГц

Доп. информация по релизу

Меню запускается только принудительно!

MediaInfo

Общее
Полное имя : Spun\VIDEO_TS\VTS_01_1.VOB
Формат : MPEG-PS
Размер файла : 1024 Мбайт
Продолжительность : 25 м. 19 с.
Режим общего битрейта : Переменный
Общий поток : 5652 Кбит/сек
Видео
Идентификатор : 224 (0xE0)
Формат : MPEG Video
Версия формата : Version 2
Профиль формата : Main@Main
Параметр BVOP формата : Да
Параметр матрицы формата : Выборочная
Параметр GOP формата : Variable
Продолжительность : 25 м. 19 с.
Вид битрейта : Переменный
Битрейт : 4643 Кбит/сек
Максимальный битрейт : 9800 Кбит/сек
Ширина : 720 пикселей
Высота : 480 пикселей
Соотношение сторон : 16:9
Частота кадров : 29,970 (30000/1001) кадров/сек
Стандарт вещания : NTSC
Цветовое пространство : YUV
Субдискретизация насыщенности : 4:2:0
Битовая глубина : 8 бит
Метод сжатия : С потерями
Бит/(Пиксели*Кадры) : 0.448
Временной код первого кадра : 00:00:00:00
Оригинал временного кода : Group of pictures header
GOP, открыто/закрыто : Открыто
GOP, открыто/закрыто на первом кадре : Закрыто
Размер потока : 841 Мбайт (82%)
Аудио #1
Идентификатор : 189 (0xBD)-128 (0x80)
Формат : AC-3
Формат/Информация : Audio Coding 3
Параметр Endianness формата : Big
Режим смешивания : DVD-Video
Продолжительность : 25 м. 19 с.
Вид битрейта : Постоянный
Битрейт : 448 Кбит/сек
Каналы : 6 каналов
Расположение каналов : Front: L C R, Side: L R, LFE
Частота : 48,0 КГц
Частота кадров : 31,250 кадров/сек (1536 spf)
Битовая глубина : 16 бит
Метод сжатия : С потерями
Размер потока : 81,1 Мбайт (8%)
ServiceKind/String : Complete Main
Аудио #2
Идентификатор : 189 (0xBD)-129 (0x81)
Формат : AC-3
Формат/Информация : Audio Coding 3
Параметр Endianness формата : Big
Режим смешивания : DVD-Video
Продолжительность : 25 м. 19 с.
Вид битрейта : Постоянный
Битрейт : 448 Кбит/сек
Каналы : 6 каналов
Расположение каналов : Front: L C R, Side: L R, LFE
Частота : 48,0 КГц
Частота кадров : 31,250 кадров/сек (1536 spf)
Битовая глубина : 16 бит
Метод сжатия : С потерями
Размер потока : 81,1 Мбайт (8%)
ServiceKind/String : Complete Main
Текст
Идентификатор : 189 (0xBD)-32 (0x20)
Формат : RLE
Формат/Информация : Run-length encoding
Режим смешивания : DVD-Video
Продолжительность : 25 м. 7 с.
Задержка видео : 9 с. 643 мс.

Скриншоты меню

Скриншоты

Вы не можете начинать темы
Вы не можете отвечать на сообщения
Вы не можете редактировать свои сообщения
Вы не можете удалять свои сообщения
Вы не можете голосовать в опросах
Вы не можете прикреплять файлы к сообщениям
Вы можете скачивать файлы
!ВНИМАНИЕ!

Сайт не предоставляет электронные версии произведений, а занимается лишь коллекционированием и каталогизацией ссылок, присылаемых и публикуемых на форуме нашими читателями. Если вы являетесь правообладателем какого-либо представленного материала и не желаете, чтобы ссылка на него находилась в нашем каталоге, свяжитесь с нами, и мы незамедлительно удалим ее. Файлы для обмена на трекере предоставлены пользователями сайта, и администрация не несет ответственности за их содержание. Просьба не заливать файлы, защищенные авторскими правами, а также файлы нелегального содержания!

Искали программы, игры, дополнения, музыка mp3, аниме, аудио книги, журналы? Добро пожаловать на свободный торрент трекер Torrents, у нас можно скачать бесплатно, без смс и регистрации и прочих ограничений лучшие, отборные сборки программ, игр. Скачать торрентом не составит труда даже не опытному пользователю. Раздачи ежедневно обновляются, только лучшие и качественные раздачи, подробные описания и скриншоты. Огромная коллекция программ для работы со звуком, графикой, дизайном, а так же множество плагинов и инструментов к ним с подробной инструкцией и рекомендациями. Прошивки для навигаторов, карты. Разнообразные игры, для Windows, Linux. В коллекцие есть и старые игры любых жанров, Rpg, Action, Shooter, strategy Множество дополнений, модификаций, сценариев для популярных игр в жанре экш, рпг, гонки, стратегии, логические игры. Множество аддонов и сценариев для Microsoft Flight Simulator Большая коллекция книг, учебников. Если нет возможности купить печатное издание - смело скачивайте цифровую версию книги или, быть может, журнала. Не любите читать - можно загрузить бесплатно аудикнигу. Для веб дизайнеров и программистов так же найдется множество специализированного софта, таких как: редакторы с подсветкой, среды программирования, компоненты, системы управления базами данных, разнообразные скрипты и шаблоны. Не так давно у нас появился материал для автолюбителей и владельцев мото - оригинальные и неоригинальные каталоги запчастей, книги и журналы по ремонту и обслуживанию, видеоуроки, статьи по чип тюнингу, прошивкам. Процедура получения контента элементарная, достаточно просто скачать торрент файл и добавить его в загрузку в вашем торрент клиенте. Если у вас нет специального торрент клиента, вы можете его скачать у нас.

Enrique Iglesias - Escape (2003) | EUR 652,56 nuevo (1 oferta) | Read More