(Classic Rock) [CD] VA - Elhallgatott zenekarok a 60-as, 70-es évekből... (Elhallgatott zenekarok a 60-as, 70-es evekbol...) - 2 CD - 2018, FLAC (tracks+.cue), lossless 

Цитировать
Various Artists - Elhallgatott zenekarok a 60-as, 70-es évekből...(2 CD) Жанр: Classic Rock
Носитель: CD
Страна-производитель диска (релиза): Hungary
Год издания: 2018
Издатель (лейбл): GR
Номер по каталогу: 114
Страна исполнителя (группы): Hungary
Аудиокодек: FLAC (*.flac)
Тип рипа: tracks+.cue
Битрейт аудио: lossless
Продолжительность: 02:35:43
Источник (релизер): Naftamusic
Наличие сканов в содержимом раздачи: да
Корректность рипа: В оригинале не было применено сжатие при конвертировании во Флак (FLAC Level 0). Для приведения в соответствие правилам пережато во FLAC Level 5 с сохранением тэгов

CD 1

TRACKLIST:
01 - Atlas - Szombat éjjel (00:04:30)
02 - Atlas - Félek, hogy egyszer meghalok (00:04:40)
03 - Atlas - Ne várj rám (00:03:43)
04 - Atlas - Merre vagy (00:04:22)
05 - Atlas - Töröld le a könnyeidet (00:04:10)
06 - Új Taurus - Szólíts meg vándor (00:05:15)
07 - Új Taurus - Megátkozott ember (00:05:49)
08 - Új Taurus - Napfényes napok (00:09:26)
09 - Új Taurus - Tovább (00:03:38)
10 - Új Taurus - Királyi madár (00:05:33)
11 - Új Taurus - A lángszívű lány (00:05:39)
12 - Új Taurus - A bika jegyében-Politician-Moby Dick-Black Night-A bika jegyében (00:10:13)
13 - Új Taurus - Lazítás (00:03:50)
14 - Új Taurus - Zöld csillag (00:06:07)

Лог создания рипа

Exact Audio Copy V1.3 from 2. September 2016
EAC extraction logfile from 5. September 2018, 20:22
Various Artists / Elhallgatott zenekarok a 60-as, 70-es évekből…
Used drive : PLEXTOR PX-891SAF PLUS Adapter: 1 ID: 0
Read mode : SecureUtilize accurate stream : YesDefeat audio cache : YesMake use of C2 pointers : No
Read offset correction : 6Overread into Lead-In and Lead-Out : NoFill up missing offset samples with silence : YesDelete leading and trailing silent blocks : NoNull samples used in CRC calculations : YesUsed interface : Native Win32 interface for Win NT & 2000Gap handling : Appended to previous track
Used output format : User Defined EncoderSelected bitrate : 1024 kBit/sQuality : HighAdd ID3 tag : NoCommand line compressor : C:\Program Files (x86)\Exact Audio Copy\Flac\flac.exeAdditional command line options : -0 -V -T "ARTIST=%artist%" -T "TITLE=%title%" -T "ALBUM=%albumtitle%" -T "DATE=%year%" -T "TRACKNUMBER=%tracknr%" -T "TOTALTRACKS=%numtracks%" -T "GENRE=%genre%" -T "COMMENT=Naftamusic Release!" %source%
TOC of the extracted CD
Track | Start | Length | Start sector | End sector --------------------------------------------------------- 1 | 0:00.00 | 4:29.45 | 0 | 20219 2 | 4:29.45 | 4:39.70 | 20220 | 41214 3 | 9:09.40 | 3:42.64 | 41215 | 57928 4 | 12:52.29 | 4:21.50 | 57929 | 77553 5 | 17:14.04 | 4:09.63 | 77554 | 96291 6 | 21:23.67 | 5:14.62 | 96292 | 119903 7 | 26:38.54 | 5:48.70 | 119904 | 146073 8 | 32:27.49 | 9:26.15 | 146074 | 188538 9 | 41:53.64 | 3:37.51 | 188539 | 204864 10 | 45:31.40 | 5:32.43 | 204865 | 229807 11 | 51:04.08 | 5:39.29 | 229808 | 255261 12 | 56:43.37 | 10:13.14 | 255262 | 301250 13 | 66:56.51 | 3:50.14 | 301251 | 318514 14 | 70:46.65 | 6:06.50 | 318515 | 346014
Track 1
Filename E:\Nafta Releases\VA - Elhallgatott zenekarok a 60-as, 70-es évekből… (2 CD+DVD 2018)[FLAC] - Naftamusic\CD 1\01 - Atlas - Szombat éjjel.wav
Pre-gap length 0:00:02.00
Peak level 100.0 % Extraction speed 2.5 X Track quality 99.9 % Test CRC F946AC13 Copy CRC F946AC13 Track not present in AccurateRip database Copy OK
Track 2
Filename E:\Nafta Releases\VA - Elhallgatott zenekarok a 60-as, 70-es évekből… (2 CD+DVD 2018)[FLAC] - Naftamusic\CD 1\02 - Atlas - Félek, hogy egyszer meghalok.wav
Peak level 100.0 % Extraction speed 3.4 X Track quality 100.0 % Test CRC 4C7CA9D7 Copy CRC 4C7CA9D7 Track not present in AccurateRip database Copy OK
Track 3
Filename E:\Nafta Releases\VA - Elhallgatott zenekarok a 60-as, 70-es évekből… (2 CD+DVD 2018)[FLAC] - Naftamusic\CD 1\03 - Atlas - Ne várj rám.wav
Peak level 100.0 % Extraction speed 3.5 X Track quality 100.0 % Test CRC 50CC193C Copy CRC 50CC193C Track not present in AccurateRip database Copy OK
Track 4
Filename E:\Nafta Releases\VA - Elhallgatott zenekarok a 60-as, 70-es évekből… (2 CD+DVD 2018)[FLAC] - Naftamusic\CD 1\04 - Atlas - Merre vagy.wav
Peak level 100.0 % Extraction speed 3.8 X Track quality 100.0 % Test CRC 2FCEC0E6 Copy CRC 2FCEC0E6 Track not present in AccurateRip database Copy OK
Track 5
Filename E:\Nafta Releases\VA - Elhallgatott zenekarok a 60-as, 70-es évekből… (2 CD+DVD 2018)[FLAC] - Naftamusic\CD 1\05 - Atlas - Töröld le a könnyeidet.wav
Peak level 100.0 % Extraction speed 4.0 X Track quality 100.0 % Test CRC 2BCE00BD Copy CRC 2BCE00BD Track not present in AccurateRip database Copy OK
Track 6
Filename E:\Nafta Releases\VA - Elhallgatott zenekarok a 60-as, 70-es évekből… (2 CD+DVD 2018)[FLAC] - Naftamusic\CD 1\06 - Új Taurus - Szólíts meg vándor.wav
Pre-gap length 0:00:02.00
Peak level 100.0 % Extraction speed 4.4 X Track quality 100.0 % Test CRC 038003AD Copy CRC 038003AD Track not present in AccurateRip database Copy OK
Track 7
Filename E:\Nafta Releases\VA - Elhallgatott zenekarok a 60-as, 70-es évekből… (2 CD+DVD 2018)[FLAC] - Naftamusic\CD 1\07 - Új Taurus - Megátkozott ember.wav
Peak level 100.0 % Extraction speed 4.0 X Track quality 99.9 % Test CRC 131B8A42 Copy CRC 131B8A42 Track not present in AccurateRip database Copy OK
Track 8
Filename E:\Nafta Releases\VA - Elhallgatott zenekarok a 60-as, 70-es évekből… (2 CD+DVD 2018)[FLAC] - Naftamusic\CD 1\08 - Új Taurus - Napfényes napok.wav
Peak level 100.0 % Extraction speed 5.3 X Track quality 100.0 % Test CRC 61ADC49F Copy CRC 61ADC49F Track not present in AccurateRip database Copy OK
Track 9
Filename E:\Nafta Releases\VA - Elhallgatott zenekarok a 60-as, 70-es évekből… (2 CD+DVD 2018)[FLAC] - Naftamusic\CD 1\09 - Új Taurus - Tovább.wav
Peak level 100.0 % Extraction speed 5.1 X Track quality 100.0 % Test CRC 5364F32D Copy CRC 5364F32D Track not present in AccurateRip database Copy OK
Track 10
Filename E:\Nafta Releases\VA - Elhallgatott zenekarok a 60-as, 70-es évekből… (2 CD+DVD 2018)[FLAC] - Naftamusic\CD 1\10 - Új Taurus - Királyi madár.wav
Peak level 100.0 % Extraction speed 5.6 X Track quality 100.0 % Test CRC 5BC977E0 Copy CRC 5BC977E0 Track not present in AccurateRip database Copy OK
Track 11
Filename E:\Nafta Releases\VA - Elhallgatott zenekarok a 60-as, 70-es évekből… (2 CD+DVD 2018)[FLAC] - Naftamusic\CD 1\11 - Új Taurus - A lángszívű lány.wav
Peak level 100.0 % Extraction speed 5.7 X Track quality 100.0 % Test CRC 6775D255 Copy CRC 6775D255 Track not present in AccurateRip database Copy OK
Track 12
Filename E:\Nafta Releases\VA - Elhallgatott zenekarok a 60-as, 70-es évekből… (2 CD+DVD 2018)[FLAC] - Naftamusic\CD 1\12 - Új Taurus - A bika jegyében-Politician-Moby Dick-Black Night-A bika jegyében.wav
Peak level 100.0 % Extraction speed 5.7 X Track quality 99.9 % Test CRC 202A153C Copy CRC 202A153C Track not present in AccurateRip database Copy OK
Track 13
Filename E:\Nafta Releases\VA - Elhallgatott zenekarok a 60-as, 70-es évekből… (2 CD+DVD 2018)[FLAC] - Naftamusic\CD 1\13 - Új Taurus - Lazítás.wav
Peak level 100.0 % Extraction speed 5.8 X Track quality 100.0 % Test CRC C81B326D Copy CRC C81B326D Track not present in AccurateRip database Copy OK
Track 14
Filename E:\Nafta Releases\VA - Elhallgatott zenekarok a 60-as, 70-es évekből… (2 CD+DVD 2018)[FLAC] - Naftamusic\CD 1\14 - Új Taurus - Zöld csillag.wav
Peak level 100.0 % Extraction speed 6.4 X Track quality 100.0 % Test CRC 64310ADA Copy CRC 64310ADA Track not present in AccurateRip database Copy OK
None of the tracks are present in the AccurateRip database
No errors occurred
End of status report
==== Log checksum 01BFA637FE286DCE12C02E887FB137421CFDFCFCED3ED2A4D462D680DEF356AC ====

Содержание индексной карты (.CUE)

REM GENRE "Pop, Rock, Beat"REM DATE 2018REM DISCID B712050EREM COMMENT "ExactAudioCopy v1.3"PERFORMER "Various Artists"TITLE "Elhallgatott zenekarok a 60-as, 70-es évekből…"REM COMPOSER ""FILE "01 - Atlas - Szombat éjjel.wav" WAVE  TRACK 01 AUDIO    TITLE "Szombat éjjel"    PERFORMER "Atlas"    REM COMPOSER ""    INDEX 01 00:00:00FILE "02 - Atlas - Félek, hogy egyszer meghalok.wav" WAVE  TRACK 02 AUDIO    TITLE "Félek, hogy egyszer meghalok"    PERFORMER "Atlas"    REM COMPOSER ""    INDEX 01 00:00:00FILE "03 - Atlas - Ne várj rám.wav" WAVE  TRACK 03 AUDIO    TITLE "Ne várj rám"    PERFORMER "Atlas"    REM COMPOSER ""    INDEX 01 00:00:00FILE "04 - Atlas - Merre vagy.wav" WAVE  TRACK 04 AUDIO    TITLE "Merre vagy"    PERFORMER "Atlas"    REM COMPOSER ""    INDEX 01 00:00:00FILE "05 - Atlas - Töröld le a könnyeidet.wav" WAVE  TRACK 05 AUDIO    TITLE "Töröld le a könnyeidet"    PERFORMER "Atlas"    REM COMPOSER ""    INDEX 01 00:00:00  TRACK 06 AUDIO    TITLE "Szólíts meg vándor"    PERFORMER "Új Taurus"    REM COMPOSER ""    INDEX 00 04:07:63FILE "06 - Új Taurus - Szólíts meg vándor.wav" WAVE    INDEX 01 00:00:00FILE "07 - Új Taurus - Megátkozott ember.wav" WAVE  TRACK 07 AUDIO    TITLE "Megátkozott ember"    PERFORMER "Új Taurus"    REM COMPOSER ""    INDEX 01 00:00:00FILE "08 - Új Taurus - Napfényes napok.wav" WAVE  TRACK 08 AUDIO    TITLE "Napfényes napok"    PERFORMER "Új Taurus"    REM COMPOSER ""    INDEX 01 00:00:00FILE "09 - Új Taurus - Tovább.wav" WAVE  TRACK 09 AUDIO    TITLE "Tovább"    PERFORMER "Új Taurus"    REM COMPOSER ""    INDEX 01 00:00:00FILE "10 - Új Taurus - Királyi madár.wav" WAVE  TRACK 10 AUDIO    TITLE "Királyi madár"    PERFORMER "Új Taurus"    REM COMPOSER ""    INDEX 01 00:00:00FILE "11 - Új Taurus - A lángszívű lány.wav" WAVE  TRACK 11 AUDIO    TITLE "A lángszívű lány"    PERFORMER "Új Taurus"    REM COMPOSER ""    INDEX 01 00:00:00FILE "12 - Új Taurus - A bika jegyében-Politician-Moby Dick-Black Night-A bika jegyében.wav" WAVE  TRACK 12 AUDIO    TITLE "A bika jegyében-Politician-Moby Dick-Black Night-A bika jegyében"    PERFORMER "Új Taurus"    REM COMPOSER ""    INDEX 01 00:00:00FILE "13 - Új Taurus - Lazítás.wav" WAVE  TRACK 13 AUDIO    TITLE "Lazítás"    PERFORMER "Új Taurus"    REM COMPOSER ""    INDEX 01 00:00:00FILE "14 - Új Taurus - Zöld csillag.wav" WAVE  TRACK 14 AUDIO    TITLE "Zöld csillag"    PERFORMER "Új Taurus"    REM COMPOSER ""    INDEX 01 00:00:00

Лог DRM

foobar2000 1.2.2 / Dynamic Range Meter 1.1.1log date: 2018-09-05 20:29:17
--------------------------------------------------------------------------------Analyzed: Atlas / Elhallgatott zenekarok a 60-as, 70-es évekből… (1-5) Új Taurus / Elhallgatott zenekarok a 60-as, 70-es évekből… (6-14)--------------------------------------------------------------------------------
DR Peak RMS Duration Track--------------------------------------------------------------------------------DR10 0.00 dB -12.49 dB 4:30 01-Szombat éjjelDR10 0.00 dB -12.46 dB 4:40 02-Félek, hogy egyszer meghalokDR9 0.00 dB -11.52 dB 3:43 03-Ne várj rámDR9 0.00 dB -11.54 dB 4:22 04-Merre vagyDR8 0.00 dB -10.26 dB 4:10 05-Töröld le a könnyeidetDR7 0.00 dB -9.06 dB 5:15 06-Szólíts meg vándorDR7 0.00 dB -9.05 dB 5:49 07-Megátkozott emberDR8 0.00 dB -11.17 dB 9:26 08-Napfényes napokDR8 0.00 dB -9.15 dB 3:38 09-TovábbDR6 0.00 dB -7.94 dB 5:33 10-Királyi madárDR7 0.00 dB -8.78 dB 5:39 11-A lángszívű lányDR7 0.00 dB -8.82 dB 10:13 12-A bika jegyében-Politician-Moby Dick-Black Night-A bika jegyébenDR6 0.00 dB -7.39 dB 3:50 13-LazításDR5 0.00 dB -7.07 dB 6:07 14-Zöld csillag--------------------------------------------------------------------------------
Number of tracks: 14Official DR value: DR8
Samplerate: 44100 HzChannels: 2Bits per sample: 16Bitrate: 1058 kbpsCodec: FLAC================================================================================

Скриншот спектра частот

CD 2

TRACKLIST:
01 - Balázs Fecó - A kőfalak leomlanak-Anyám, vígasztalj engem-Amit nem mondhattam el (00:05:50)
02 - Liversing - The Nazz Are Blue (00:03:22)
03 - Liversing - It’s All Over Now Baby Blue (00:04:52)
04 - Syrius - Elfáradtam én már-Virágtánc (00:10:03)
05 - Syrius - A vámpír (00:03:56)
06 - Syrius - I’ve Been This Down Before (00:05:47)
07 - Syrius - Devil’s Masquerade (00:06:47)
08 - Syrius - God Is Only One (00:06:32)
09 - Kex Remake - Find The Cost Of Freedom (00:01:25)
10 - Kex Remake - Ez volt a Kex (00:03:25)
11 - Kex Remake - Zöld-sárga (00:05:23)
12 - Kex Remake - Tiszta szívvel (00:05:13)
13 - Kex Remake - A család (00:06:23)
14 - Kex Remake - Elszállt egy hajó a szélben (00:04:32)
15 - Kex Remake - Kanapé (00:05:20)

Лог создания рипа

Exact Audio Copy V1.3 from 2. September 2016
EAC extraction logfile from 5. September 2018, 21:13
Various Artists / Elhallgatott zenekarok a 60-as, 70-es évekből…
Used drive : PLEXTOR PX-891SAF PLUS Adapter: 1 ID: 0
Read mode : SecureUtilize accurate stream : YesDefeat audio cache : YesMake use of C2 pointers : No
Read offset correction : 6Overread into Lead-In and Lead-Out : NoFill up missing offset samples with silence : YesDelete leading and trailing silent blocks : NoNull samples used in CRC calculations : YesUsed interface : Native Win32 interface for Win NT & 2000Gap handling : Appended to previous track
Used output format : User Defined EncoderSelected bitrate : 1024 kBit/sQuality : HighAdd ID3 tag : NoCommand line compressor : C:\Program Files (x86)\Exact Audio Copy\Flac\flac.exeAdditional command line options : -0 -V -T "ARTIST=%artist%" -T "TITLE=%title%" -T "ALBUM=%albumtitle%" -T "DATE=%year%" -T "TRACKNUMBER=%tracknr%" -T "TOTALTRACKS=%numtracks%" -T "GENRE=%genre%" -T "COMMENT=Naftamusic Release!" %source%
TOC of the extracted CD
Track | Start | Length | Start sector | End sector --------------------------------------------------------- 1 | 0:00.00 | 5:49.59 | 0 | 26233 2 | 5:49.59 | 3:22.07 | 26234 | 41390 3 | 9:11.66 | 4:51.55 | 41391 | 63270 4 | 14:03.46 | 10:02.42 | 63271 | 108462 5 | 24:06.13 | 3:55.44 | 108463 | 126131 6 | 28:01.57 | 5:47.28 | 126132 | 152184 7 | 33:49.10 | 6:46.48 | 152185 | 182682 8 | 40:35.58 | 6:31.67 | 182683 | 212074 9 | 47:07.50 | 1:24.47 | 212075 | 218421 10 | 48:32.22 | 3:25.04 | 218422 | 233800 11 | 51:57.26 | 5:23.01 | 233801 | 258026 12 | 57:20.27 | 5:13.20 | 258027 | 281521 13 | 62:33.47 | 6:23.35 | 281522 | 310281 14 | 68:57.07 | 4:32.33 | 310282 | 330714 15 | 73:29.40 | 5:19.44 | 330715 | 354683
Track 1
Filename E:\Nafta Releases\VA - Elhallgatott zenekarok a 60-as, 70-es évekből… (2 CD+DVD 2018)[FLAC] - Naftamusic\CD 2\01 - Balázs Fecó - A kőfalak leomlanak-Anyám, vígasztalj engem-Amit nem mondhattam el.wav
Pre-gap length 0:00:02.00
Peak level 100.0 % Extraction speed 3.2 X Track quality 100.0 % Test CRC 77288772 Copy CRC 77288772 Track not present in AccurateRip database Copy OK
Track 2
Filename E:\Nafta Releases\VA - Elhallgatott zenekarok a 60-as, 70-es évekből… (2 CD+DVD 2018)[FLAC] - Naftamusic\CD 2\02 - Liversing - The Nazz Are Blue.wav
Pre-gap length 0:00:02.00
Peak level 100.0 % Extraction speed 3.3 X Track quality 100.0 % Test CRC 94740453 Copy CRC 94740453 Track not present in AccurateRip database Copy OK
Track 3
Filename E:\Nafta Releases\VA - Elhallgatott zenekarok a 60-as, 70-es évekből… (2 CD+DVD 2018)[FLAC] - Naftamusic\CD 2\03 - Liversing - It’s All Over Now Baby Blue.wav
Peak level 100.0 % Extraction speed 3.7 X Track quality 100.0 % Test CRC A7B5CF46 Copy CRC A7B5CF46 Track not present in AccurateRip database Copy OK
Track 4
Filename E:\Nafta Releases\VA - Elhallgatott zenekarok a 60-as, 70-es évekből… (2 CD+DVD 2018)[FLAC] - Naftamusic\CD 2\04 - Syrius - Elfáradtam én már-Virágtánc.wav
Pre-gap length 0:00:02.00
Peak level 100.0 % Extraction speed 4.0 X Track quality 99.9 % Test CRC 58BF72EA Copy CRC 58BF72EA Track not present in AccurateRip database Copy OK
Track 5
Filename E:\Nafta Releases\VA - Elhallgatott zenekarok a 60-as, 70-es évekből… (2 CD+DVD 2018)[FLAC] - Naftamusic\CD 2\05 - Syrius - A vámpír.wav
Peak level 100.0 % Extraction speed 4.3 X Track quality 100.0 % Test CRC 0E3E5DD9 Copy CRC 0E3E5DD9 Track not present in AccurateRip database Copy OK
Track 6
Filename E:\Nafta Releases\VA - Elhallgatott zenekarok a 60-as, 70-es évekből… (2 CD+DVD 2018)[FLAC] - Naftamusic\CD 2\06 - Syrius - I’ve Been This Down Before.wav
Peak level 100.0 % Extraction speed 4.7 X Track quality 100.0 % Test CRC 582DFDF4 Copy CRC 582DFDF4 Track not present in AccurateRip database Copy OK
Track 7
Filename E:\Nafta Releases\VA - Elhallgatott zenekarok a 60-as, 70-es évekből… (2 CD+DVD 2018)[FLAC] - Naftamusic\CD 2\07 - Syrius - Devil’s Masquerade.wav
Peak level 100.0 % Extraction speed 5.2 X Track quality 100.0 % Test CRC F1BE32F5 Copy CRC F1BE32F5 Track not present in AccurateRip database Copy OK
Track 8
Filename E:\Nafta Releases\VA - Elhallgatott zenekarok a 60-as, 70-es évekből… (2 CD+DVD 2018)[FLAC] - Naftamusic\CD 2\08 - Syrius - God Is Only One.wav
Peak level 100.0 % Extraction speed 5.4 X Track quality 100.0 % Test CRC 0AD7B046 Copy CRC 0AD7B046 Track not present in AccurateRip database Copy OK
Track 9
Filename E:\Nafta Releases\VA - Elhallgatott zenekarok a 60-as, 70-es évekből… (2 CD+DVD 2018)[FLAC] - Naftamusic\CD 2\09 - Kex Remake - Find The Cost Of Freedom.wav
Pre-gap length 0:00:02.00
Peak level 78.7 % Extraction speed 2.6 X Track quality 99.8 % Test CRC 4282A3C7 Copy CRC 4282A3C7 Track not present in AccurateRip database Copy OK
Track 10
Filename E:\Nafta Releases\VA - Elhallgatott zenekarok a 60-as, 70-es évekből… (2 CD+DVD 2018)[FLAC] - Naftamusic\CD 2\10 - Kex Remake - Ez volt a Kex.wav
Peak level 100.0 % Extraction speed 5.1 X Track quality 100.0 % Test CRC 569BF9DF Copy CRC 569BF9DF Track not present in AccurateRip database Copy OK
Track 11
Filename E:\Nafta Releases\VA - Elhallgatott zenekarok a 60-as, 70-es évekből… (2 CD+DVD 2018)[FLAC] - Naftamusic\CD 2\11 - Kex Remake - Zöld-sárga.wav
Peak level 100.0 % Extraction speed 5.2 X Track quality 99.9 % Test CRC 2B563C51 Copy CRC 2B563C51 Track not present in AccurateRip database Copy OK
Track 12
Filename E:\Nafta Releases\VA - Elhallgatott zenekarok a 60-as, 70-es évekből… (2 CD+DVD 2018)[FLAC] - Naftamusic\CD 2\12 - Kex Remake - Tiszta szívvel.wav
Peak level 100.0 % Extraction speed 5.8 X Track quality 100.0 % Test CRC A271728A Copy CRC A271728A Track not present in AccurateRip database Copy OK
Track 13
Filename E:\Nafta Releases\VA - Elhallgatott zenekarok a 60-as, 70-es évekből… (2 CD+DVD 2018)[FLAC] - Naftamusic\CD 2\13 - Kex Remake - A család.wav
Peak level 100.0 % Extraction speed 5.2 X Track quality 99.9 % Test CRC 768BA81B Copy CRC 768BA81B Track not present in AccurateRip database Copy OK
Track 14
Filename E:\Nafta Releases\VA - Elhallgatott zenekarok a 60-as, 70-es évekből… (2 CD+DVD 2018)[FLAC] - Naftamusic\CD 2\14 - Kex Remake - Elszállt egy hajó a szélben.wav
Peak level 100.0 % Extraction speed 6.2 X Track quality 100.0 % Test CRC E65CFC0D Copy CRC E65CFC0D Track not present in AccurateRip database Copy OK
Track 15
Filename E:\Nafta Releases\VA - Elhallgatott zenekarok a 60-as, 70-es évekből… (2 CD+DVD 2018)[FLAC] - Naftamusic\CD 2\15 - Kex Remake - Kanapé.wav
Peak level 100.0 % Extraction speed 6.4 X Track quality 100.0 % Test CRC 508832FE Copy CRC 508832FE Track not present in AccurateRip database Copy OK
None of the tracks are present in the AccurateRip database
No errors occurred
End of status report
==== Log checksum F4C56C80E83FB6ECECAFCC119166EAAFCDDBD390ED80442D6CCF391094DF8835 ====

Содержание индексной карты (.CUE)

REM GENRE "Pop, Rock, Beat"REM DATE 2018REM DISCID D112790FREM COMMENT "ExactAudioCopy v1.3"PERFORMER "Various Artists"TITLE "Elhallgatott zenekarok a 60-as, 70-es évekből…"REM COMPOSER ""FILE "01 - Balázs Fecó - A kőfalak leomlanak-Anyám, vígasztalj engem-Amit nem mondhattam el.wav" WAVE  TRACK 01 AUDIO    TITLE "A kőfalak leomlanak-Anyám, vígasztalj engem-Amit nem mondhattam el"    PERFORMER "Balázs Fecó"    REM COMPOSER ""    INDEX 01 00:00:00  TRACK 02 AUDIO    TITLE "The Nazz Are Blue"    PERFORMER "Liversing"    REM COMPOSER ""    INDEX 00 05:47:59FILE "02 - Liversing - The Nazz Are Blue.wav" WAVE    INDEX 01 00:00:00FILE "03 - Liversing - It’s All Over Now Baby Blue.wav" WAVE  TRACK 03 AUDIO    TITLE "It’s All Over Now Baby Blue"    PERFORMER "Liversing"    REM COMPOSER ""    INDEX 01 00:00:00  TRACK 04 AUDIO    TITLE "Elfáradtam én már-Virágtánc"    PERFORMER "Syrius"    REM COMPOSER ""    INDEX 00 04:49:55FILE "04 - Syrius - Elfáradtam én már-Virágtánc.wav" WAVE    INDEX 01 00:00:00FILE "05 - Syrius - A vámpír.wav" WAVE  TRACK 05 AUDIO    TITLE "A vámpír"    PERFORMER "Syrius"    REM COMPOSER ""    INDEX 01 00:00:00FILE "06 - Syrius - I’ve Been This Down Before.wav" WAVE  TRACK 06 AUDIO    TITLE "I’ve Been This Down Before"    PERFORMER "Syrius"    REM COMPOSER ""    INDEX 01 00:00:00FILE "07 - Syrius - Devil’s Masquerade.wav" WAVE  TRACK 07 AUDIO    TITLE "Devil’s Masquerade"    PERFORMER "Syrius"    REM COMPOSER ""    INDEX 01 00:00:00FILE "08 - Syrius - God Is Only One.wav" WAVE  TRACK 08 AUDIO    TITLE "God Is Only One"    PERFORMER "Syrius"    REM COMPOSER ""    INDEX 01 00:00:00  TRACK 09 AUDIO    TITLE "Find The Cost Of Freedom"    PERFORMER "Kex Remake"    REM COMPOSER ""    INDEX 00 06:29:67FILE "09 - Kex Remake - Find The Cost Of Freedom.wav" WAVE    INDEX 01 00:00:00FILE "10 - Kex Remake - Ez volt a Kex.wav" WAVE  TRACK 10 AUDIO    TITLE "Ez volt a Kex"    PERFORMER "Kex Remake"    REM COMPOSER ""    INDEX 01 00:00:00FILE "11 - Kex Remake - Zöld-sárga.wav" WAVE  TRACK 11 AUDIO    TITLE "Zöld-sárga"    PERFORMER "Kex Remake"    REM COMPOSER ""    INDEX 01 00:00:00FILE "12 - Kex Remake - Tiszta szívvel.wav" WAVE  TRACK 12 AUDIO    TITLE "Tiszta szívvel"    PERFORMER "Kex Remake"    REM COMPOSER ""    INDEX 01 00:00:00FILE "13 - Kex Remake - A család.wav" WAVE  TRACK 13 AUDIO    TITLE "A család"    PERFORMER "Kex Remake"    REM COMPOSER ""    INDEX 01 00:00:00FILE "14 - Kex Remake - Elszállt egy hajó a szélben.wav" WAVE  TRACK 14 AUDIO    TITLE "Elszállt egy hajó a szélben"    PERFORMER "Kex Remake"    REM COMPOSER ""    INDEX 01 00:00:00FILE "15 - Kex Remake - Kanapé.wav" WAVE  TRACK 15 AUDIO    TITLE "Kanapé"    PERFORMER "Kex Remake"    REM COMPOSER ""    INDEX 01 00:00:00

Лог DRM

foobar2000 1.2.2 / Dynamic Range Meter 1.1.1log date: 2018-09-05 21:40:29
--------------------------------------------------------------------------------Analyzed: Balázs Fecó / Elhallgatott zenekarok a 60-as, 70-es évekből… (1) Kex Remake / Elhallgatott zenekarok a 60-as, 70-es évekből… (2-8) Liversing / Elhallgatott zenekarok a 60-as, 70-es évekből… (9-10) Syrius / Elhallgatott zenekarok a 60-as, 70-es évekből… (11-15)--------------------------------------------------------------------------------
DR Peak RMS Duration Track--------------------------------------------------------------------------------DR11 0.00 dB -14.66 dB 5:50 01-A kőfalak leomlanak-Anyám, vígasztalj engem-Amit nem mondhattam elDR11 -2.08 dB -18.56 dB 1:25 09-Find The Cost Of FreedomDR7 0.00 dB -8.61 dB 3:25 10-Ez volt a KexDR13 0.00 dB -17.21 dB 5:23 11-Zöld-sárgaDR13 0.00 dB -15.80 dB 5:13 12-Tiszta szívvelDR8 0.00 dB -12.12 dB 6:23 13-A családDR8 0.00 dB -9.90 dB 4:32 14-Elszállt egy hajó a szélbenDR7 0.00 dB -10.43 dB 5:20 15-KanapéDR8 0.00 dB -9.32 dB 3:22 02-The Nazz Are BlueDR9 0.00 dB -10.98 dB 4:52 03-It’s All Over Now Baby BlueDR8 0.00 dB -10.13 dB 10:03 04-Elfáradtam én már-VirágtáncDR7 0.00 dB -9.07 dB 3:56 05-A vámpírDR7 0.00 dB -10.25 dB 5:47 06-I’ve Been This Down BeforeDR7 0.00 dB -10.25 dB 6:47 07-Devil’s MasqueradeDR9 0.00 dB -12.58 dB 6:32 08-God Is Only One--------------------------------------------------------------------------------
Number of tracks: 15Official DR value: DR9
Samplerate: 44100 HzChannels: 2Bits per sample: 16Bitrate: 880 kbpsCodec: FLAC================================================================================

Скриншот спектра частот

Об альбоме (сборнике)

1968 és 1975 között létezett néhány zenekar, akiknek minden fellépése, Budapesten és vidéken egyaránt komoly tömegeket mozgatott meg. Ezek közül is kiemelkedett a Taurus. Már az első fellépésük alkalmával is teltháznyi ember zsúfolódott össze a Budai Ifjúsági Parkban. A koncert végén, a szűnni nem akaró tapsban, őrjöngésben a tömeg a Clark Ádám térre ment, ahol megállítva a közlekedést, már a készülő rendőri intézkedés közepette üvöltötte az ég felé: „Radics Bélát a pártba! Taurust a kormányba!”
Ezeknek a zenekaroknak az akkori jelenléte, fellépései, a zenéje, koncertjei, magukban hordozták a szabadság eszméjét. Az akkori pártvezetés mindent megtett azért, hogy megállítsa ezeknek az együtteseknek egyre növekvő népszerűségét.
Az így elhallgattatott zenekarok sora: Aligátor, Atlantisz, Atlas, Bajtala, Kex, Liversing, Scampolo, Syrius, Taurus, Tűzkerék.
Nem naiv a kérdés: vajon miért kellett elhallgattatni ezeket a zenekarokat? Miért nem tudtak nagylemezt kiadni, miért nem kerülhettek be az akkori médiába?
A 2016. december 3-án, a MOM Kulturális Központban megrendezett koncerten néhány zenekar eredeti tagjai újra színpadra állították zenekaraikat fiatal tehetségekkel kiegészülve és a régi, ismert dalokat, új hangzással, új tartalommal átdolgozva adták elő. Ennek a koncertnek állít emléket ez a kiadvány.
Вы не можете начинать темы
Вы не можете отвечать на сообщения
Вы не можете редактировать свои сообщения
Вы не можете удалять свои сообщения
Вы не можете голосовать в опросах
Вы не можете прикреплять файлы к сообщениям
Вы можете скачивать файлы
!ВНИМАНИЕ!

Сайт не предоставляет электронные версии произведений, а занимается лишь коллекционированием и каталогизацией ссылок, присылаемых и публикуемых на форуме нашими читателями. Если вы являетесь правообладателем какого-либо представленного материала и не желаете, чтобы ссылка на него находилась в нашем каталоге, свяжитесь с нами, и мы незамедлительно удалим ее. Файлы для обмена на трекере предоставлены пользователями сайта, и администрация не несет ответственности за их содержание. Просьба не заливать файлы, защищенные авторскими правами, а также файлы нелегального содержания!

Искали программы, игры, дополнения, музыка mp3, аниме, аудио книги, журналы? Добро пожаловать на свободный торрент трекер Torrents, у нас можно скачать бесплатно, без смс и регистрации и прочих ограничений лучшие, отборные сборки программ, игр. Скачать торрентом не составит труда даже не опытному пользователю. Раздачи ежедневно обновляются, только лучшие и качественные раздачи, подробные описания и скриншоты. Огромная коллекция программ для работы со звуком, графикой, дизайном, а так же множество плагинов и инструментов к ним с подробной инструкцией и рекомендациями. Прошивки для навигаторов, карты. Разнообразные игры, для Windows, Linux. В коллекцие есть и старые игры любых жанров, Rpg, Action, Shooter, strategy Множество дополнений, модификаций, сценариев для популярных игр в жанре экш, рпг, гонки, стратегии, логические игры. Множество аддонов и сценариев для Microsoft Flight Simulator Большая коллекция книг, учебников. Если нет возможности купить печатное издание - смело скачивайте цифровую версию книги или, быть может, журнала. Не любите читать - можно загрузить бесплатно аудикнигу. Для веб дизайнеров и программистов так же найдется множество специализированного софта, таких как: редакторы с подсветкой, среды программирования, компоненты, системы управления базами данных, разнообразные скрипты и шаблоны. Не так давно у нас появился материал для автолюбителей и владельцев мото - оригинальные и неоригинальные каталоги запчастей, книги и журналы по ремонту и обслуживанию, видеоуроки, статьи по чип тюнингу, прошивкам. Процедура получения контента элементарная, достаточно просто скачать торрент файл и добавить его в загрузку в вашем торрент клиенте. Если у вас нет специального торрент клиента, вы можете его скачать у нас.

Bill Wasik and Monica Murphy - Rabid | Chapter 3A - ¿Desayuno o almuerzo? | تخليص