(Rock, Pop) [CD] VA - The Best Of 70\'s Vol.2 - 1997, FLAC (image+.cue), lossless 

Цитировать
Various Artists
The Best Of 70's Vol.2 (1997)
- Жанр: Rock, Pop
Носитель: CD
Страна-производитель диска (релиза): Germany
Год издания: unknown year
Издатель (лейбл): Not On Label
Номер по каталогу: K-9796026
Аудиокодек: FLAC (*.flac)
Тип рипа: image+.cue
Битрейт аудио: lossless
Продолжительность: 01:13:49
Источник (релизер): автор раздачи
Наличие сканов в содержимом раздачи: да-Треклист:
01. Supermax - It Ain't Easy
02. The Rubettes - Sugar Baby Love
03. Deep Purple - Black Night
04. The Hollies - The Air That I Breathe
05. Queen - Killer Queen
06. Bee Gees - Tragedy
07. ABBA - Knowing Me, Knowing You
08. The Sweet - Fox On The Run
09. George Baker - Una Paloma Blanka
10. Barry Manilow - Mandy
11. Rod Stewart - Sailing
12. Simon & Garfunkel - Mrs. Robinson
13. Journey - Wheel In The Sky
14. Smokie - Living Next Door To Alice
15. Eagles - Hotel California
16. Dire Straits - Sultans Of Swing
17. Grand Funk Railroad - We're An American Band
18. Judas Priest - Before The Down-

Лог создания рипа

Exact Audio Copy V1.0 beta 3 from 29. August 2011
Отчёт EAC об извлечении, выполненном 20. сентября 2018, 13:23
Various Artists / The Best Of 70's Vol.2
Дисковод: SONY CD-RW CRX230ED Adapter: 0 ID: 1
Режим чтения : ДостоверностьИспользование точного потока : ДаОтключение кэша аудио : ДаИспользование указателей C2 : Нет
Коррекция смещения при чтении : 6Способность читать области Lead-in и Lead-out : НетЗаполнение пропущенных сэмплов тишиной : ДаУдаление блоков с тишиной в начале и конце : НетПри вычислениях CRC использовались нулевые сэмплы : ДаИнтерфейс : Встроенный Win32-интерфейс для Win NT/2000
Выходной формат : Внутренние WAV-операцииФормат сэмплов : 44.100 Гц; 16 бит; стерео
TOC извлечённого CD
Трек | Старт | Длительность | Начальный сектор | Конечный сектор --------------------------------------------------------------------- 1 | 0:00.00 | 4:24.61 | 0 | 19860 2 | 4:24.61 | 3:33.31 | 19861 | 35866 3 | 7:58.17 | 3:29.46 | 35867 | 51587 4 | 11:27.63 | 4:14.65 | 51588 | 70702 5 | 15:42.53 | 3:04.62 | 70703 | 84564 6 | 18:47.40 | 5:05.31 | 84565 | 107470 7 | 23:52.71 | 4:04.17 | 107471 | 125787 8 | 27:57.13 | 3:26.00 | 125788 | 141237 9 | 31:23.13 | 3:29.61 | 141238 | 156973 10 | 34:52.74 | 3:25.30 | 156974 | 172378 11 | 38:18.29 | 4:25.63 | 172379 | 192316 12 | 42:44.17 | 4:05.73 | 192317 | 210764 13 | 46:50.15 | 4:14.49 | 210765 | 229863 14 | 51:04.64 | 3:30.60 | 229864 | 245673 15 | 54:35.49 | 6:30.65 | 245674 | 274988 16 | 61:06.39 | 5:50.01 | 274989 | 301239 17 | 66:56.40 | 3:28.66 | 301240 | 316905 18 | 70:25.31 | 3:23.58 | 316906 | 332188
Характеристики диапазона извлечения и сообщения об ошибках
Выбранный диапазон
Имя файла E:\[VA] The Best Of 70's Vol.2 [CD] - uy (lossless)\Various - The Best Of 70's Vol.2.wav
Пиковый уровень 95.6 % Скорость извлечения 8.6 X Качество диапазона 100.0 % CRC теста C973E41B CRC копии C973E41B Копирование... OK
Ошибок не произошло
AccurateRip: сводка
Трек 1 отсутствует в базе данныхТрек 2 отсутствует в базе данныхТрек 3 отсутствует в базе данныхТрек 4 отсутствует в базе данныхТрек 5 отсутствует в базе данныхТрек 6 отсутствует в базе данныхТрек 7 отсутствует в базе данныхТрек 8 отсутствует в базе данныхТрек 9 отсутствует в базе данныхТрек 10 отсутствует в базе данныхТрек 11 отсутствует в базе данныхТрек 12 отсутствует в базе данныхТрек 13 отсутствует в базе данныхТрек 14 отсутствует в базе данныхТрек 15 отсутствует в базе данныхТрек 16 отсутствует в базе данныхТрек 17 отсутствует в базе данныхТрек 18 отсутствует в базе данных
Ни одного трека нет в базе AccurateRip
Конец отчёта
==== Контрольная сумма отчёта 4864749E8BBF4043B5E70643183F1CC337DE989A0C4DE667EA4AD5E8B0380273 ====

Содержание индексной карты (.CUE)

REM GENRE RockREM DISCID 14114D12REM COMMENT "ExactAudioCopy v1.0b3"PERFORMER "Various Artists"TITLE "The Best Of 70's Vol.2"FILE "Various - The Best Of 70's Vol.2.flac" WAVE  TRACK 01 AUDIO    TITLE "It Ain't Easy"    PERFORMER "Supermax"    INDEX 01 00:00:00  TRACK 02 AUDIO    TITLE "Sugar Baby Love"    PERFORMER "The Rubettes"    INDEX 00 04:22:61    INDEX 01 04:24:61  TRACK 03 AUDIO    TITLE "Black Night"    PERFORMER "Deep Purple"    INDEX 00 07:56:17    INDEX 01 07:58:17  TRACK 04 AUDIO    TITLE "The Air That I Breathe"    PERFORMER "The Hollies"    INDEX 00 11:25:63    INDEX 01 11:27:63  TRACK 05 AUDIO    TITLE "Killer Queen"    PERFORMER "Queen"    INDEX 00 15:40:53    INDEX 01 15:42:53  TRACK 06 AUDIO    TITLE "Tragedy"    PERFORMER "Bee Gees"    INDEX 00 18:45:40    INDEX 01 18:47:40  TRACK 07 AUDIO    TITLE "Knowing Me, Knowing You"    PERFORMER "ABBA"    INDEX 00 23:50:71    INDEX 01 23:52:71  TRACK 08 AUDIO    TITLE "Fox On The Run"    PERFORMER "The Sweet"    INDEX 00 27:55:13    INDEX 01 27:57:13  TRACK 09 AUDIO    TITLE "Una Paloma Blanka"    PERFORMER "George Baker"    INDEX 00 31:21:13    INDEX 01 31:23:13  TRACK 10 AUDIO    TITLE "Mandy"    PERFORMER "Barry Manilow"    INDEX 00 34:50:74    INDEX 01 34:52:74  TRACK 11 AUDIO    TITLE "Sailing"    PERFORMER "Rod Stewart"    INDEX 00 38:16:29    INDEX 01 38:18:29  TRACK 12 AUDIO    TITLE "Mrs. Robinson"    PERFORMER "Simon & Garfunkel"    INDEX 00 42:42:17    INDEX 01 42:44:17  TRACK 13 AUDIO    TITLE "Wheel In The Sky"    PERFORMER "Journey"    INDEX 00 46:48:15    INDEX 01 46:50:15  TRACK 14 AUDIO    TITLE "Living Next Door To Alice"    PERFORMER "Smokie"    INDEX 00 51:02:64    INDEX 01 51:04:64  TRACK 15 AUDIO    TITLE "Hotel California"    PERFORMER "Eagles"    INDEX 00 54:33:49    INDEX 01 54:35:49  TRACK 16 AUDIO    TITLE "Sultans Of Swing"    PERFORMER "Dire Straits"    INDEX 00 61:04:39    INDEX 01 61:06:39  TRACK 17 AUDIO    TITLE "We're An American Band"    PERFORMER "Grand Funk Railroad"    INDEX 00 66:54:40    INDEX 01 66:56:40  TRACK 18 AUDIO    TITLE "Before The Down"    PERFORMER "Judas Priest"    INDEX 00 70:23:31    INDEX 01 70:25:31

Лог проверки качества

-----------------------
DON'T MODIFY THIS FILE
-----------------------
PERFORMER: auCDtect Task Manager, ver. 1.6.0 RC1 build 1.6.0.1Copyright (c) 2008-2010 y-soft. All rights reservedhttp://y-soft.org
ANALYZER: auCDtect: CD records authenticity detector, version 0.8.2Copyright (c) 2004 Oleg Berngardt. All rights reserved.Copyright (c) 2004 Alexander Djourik. All rights reserved.
FILE: Various - The Best Of 70's Vol.2.flac Size: 461119225 Hash: CA89DC80D59AD64830D68BE1F3F6C645 Accuracy: -m0 Conclusion: CDDA 99% Signature: 8AE998B6F654BB5ACD9084457738B33A8654C06B

Скриншот спектра частот

Covers



Вы не можете начинать темы
Вы не можете отвечать на сообщения
Вы не можете редактировать свои сообщения
Вы не можете удалять свои сообщения
Вы не можете голосовать в опросах
Вы не можете прикреплять файлы к сообщениям
Вы можете скачивать файлы
!ВНИМАНИЕ!

Сайт не предоставляет электронные версии произведений, а занимается лишь коллекционированием и каталогизацией ссылок, присылаемых и публикуемых на форуме нашими читателями. Если вы являетесь правообладателем какого-либо представленного материала и не желаете, чтобы ссылка на него находилась в нашем каталоге, свяжитесь с нами, и мы незамедлительно удалим ее. Файлы для обмена на трекере предоставлены пользователями сайта, и администрация не несет ответственности за их содержание. Просьба не заливать файлы, защищенные авторскими правами, а также файлы нелегального содержания!

Искали программы, игры, дополнения, музыка mp3, аниме, аудио книги, журналы? Добро пожаловать на свободный торрент трекер Torrents, у нас можно скачать бесплатно, без смс и регистрации и прочих ограничений лучшие, отборные сборки программ, игр. Скачать торрентом не составит труда даже не опытному пользователю. Раздачи ежедневно обновляются, только лучшие и качественные раздачи, подробные описания и скриншоты. Огромная коллекция программ для работы со звуком, графикой, дизайном, а так же множество плагинов и инструментов к ним с подробной инструкцией и рекомендациями. Прошивки для навигаторов, карты. Разнообразные игры, для Windows, Linux. В коллекцие есть и старые игры любых жанров, Rpg, Action, Shooter, strategy Множество дополнений, модификаций, сценариев для популярных игр в жанре экш, рпг, гонки, стратегии, логические игры. Множество аддонов и сценариев для Microsoft Flight Simulator Большая коллекция книг, учебников. Если нет возможности купить печатное издание - смело скачивайте цифровую версию книги или, быть может, журнала. Не любите читать - можно загрузить бесплатно аудикнигу. Для веб дизайнеров и программистов так же найдется множество специализированного софта, таких как: редакторы с подсветкой, среды программирования, компоненты, системы управления базами данных, разнообразные скрипты и шаблоны. Не так давно у нас появился материал для автолюбителей и владельцев мото - оригинальные и неоригинальные каталоги запчастей, книги и журналы по ремонту и обслуживанию, видеоуроки, статьи по чип тюнингу, прошивкам. Процедура получения контента элементарная, достаточно просто скачать торрент файл и добавить его в загрузку в вашем торрент клиенте. Если у вас нет специального торрент клиента, вы можете его скачать у нас.

The Lotus | Die Nanny | Categorías