(Blues, Country, Folk, Rock) [CD] VA - Battleground Korea: Sounds and Songs of America\'s Forgotten War (4CD Set) - 2018, FLAC (tracks+.cue), lossless 

Цитировать
Battleground Korea: Sounds and Songs of America's Forgotten War

Жанр: Blues, Country, Folk, Rock
Носитель: CD
Страна-производитель диска (релиза): Germany
Год издания: 2018
Издатель (лейбл): Bear Family
Номер по каталогу: BCD17518
Страна исполнителя (группы): USA
Аудиокодек: FLAC (*.flac)
Тип рипа: tracks+.cue
Битрейт аудио: lossless
Продолжительность: 05:17:16
Источник (релизер): Сеть
Наличие сканов в содержимом раздачи: да

Треклист

CD1 Going To War Again

1. U.N. Spokesperson - War starts in Korea' (June 25, 1950) (narration)
2. Lightnin' Hopkins - War News Blues
3. Sunshine Boys Quartet - God Please Protect America
4. Wally Fowler and His Oakridge Quartet - Pray, Pray, Pray (For The U.S.A.)
5. President Truman - President Truman speaks on war in Korea (April 1951) (narration)
6. Hank Harral and His Palomino Cowhands - When They Raised The U.N. Flag In South Korea
7. The Four Barons - Got To Go Back Again
8. Sunnyland Slim and His Trio - Back To Korea Blues
9. Harry Choates and His Fiddle - Korea, Here We Come
10. Vince Mondi - Goodbye Maria (I'm Off To Korea)
11. Paul Mims - My New Career Is In Korea
12. Vance Brothers - Draftboard Blues
13. Ray Anderson and Tennessee Mountaineers - Draft Board Blues
14. Arkie Shibley and His Mountain Dew Boys - Uncle Sam Has Called My Number
15. Smilin' Eddie Varnado and The Delta Ranch Hands - I'm A Soldier Boy Again
16. Harvey Stone - Here We Go Again
17. Fats Domino - Korea Blues
18. Clifford Blivens with the Johnny Otis Band - Korea Blues
19. Willie Brown - Korea Blues
20. Max Bailey - Sorry Girl Blues
21. B.B. King - Questionnaire Blues
22. John Lee Hooker - Questionnaire Blues
23. Sonny Thompson - Uncle Sam Blues
24. Lloyd Price and His Orchestra - Mailman Blues
25. Big Boy Crudup - Mr. So And So
26. Bob Newman - Greetings
27. Tani Allen and His Tennessee Pals - I'm Back In The Army
28. Cactus Pryor and His Pricklypears - (In Again, Out Again) Packing Up My Barracks Bags Blues
29. Montana Slim (Wilf Carter, The Singing Cowboy) - The K.P. Blues
30. Vic Damone / Vaughn Monroe - Message From Vic Damone (incl. excerpt from 'Sound Off' by Willie Lee Duckworth)
31. The Rockets and Hugo Winterhalter and His Orchestra - The Girls Are Marching

CD2 In Korea

1. Newsreel Announcer - Heading for Korea
2. The Gospel Pilgrims - Korea (Fightin' In The Foreign Land)
3. Bill Cason - Foxhole In Korea
4. Steve Rogers - Inchon
5. Jimmie Osborne - Thank God For Victory In Korea
6. John Carpino - The Ballad Of Chosin
7. Oscar Brand & Short Arms - We're Moving On
8. J.B. Lenoir - I'm In Korea
9. Narrated by Eric Sevareid / Robert Pierpoint, CBS News - Robert Pierpoint under fire in Korea' (May 17, 1951) (narration)
10. Delmore Brothers - Heartbreak Ridge
11. Ernest Tubb - A Heartsick Soldier On Heartbreak Ridge
12. The Four Lads with Narration by Edward R. Murrow - Where The Need Is
13. Elton Britt - Korean Mud
14. Howdy Doody - Request for blood donations
15. Tommy (Weepin' and Cryin') Brown - No News From Home
16. Sherman "Blues" Johnson & His Clouds of Joy - Lost In Korea
17. Jack Powers - From A Foxhole
18. William Cook Accompanied by The Marshall Brothers - A Soldier's Prayer
19. Rocky Porter - Please Say A Prayer (For The Boys Over There)
20. Lightnin' Hopkins - Sad News From Korea
21. Sonny Osborne - A Brother In Korea
22. The Louvin Brothers - From Mother's Arms To Korea
23. Carl Sauceman and The Green Valley Boys - Wrap My Body In Old Glory
24. Slim Rhodes - Red White And Blue
25. Elton Britt and The Skytoppers - Rotation Blues
26. Billy Mize with Bill Woods and His Orange Blossom Playboys - Pusan
27. Jim Eanes - A Prisoner Of War
28. Kay Kellum and His Dixie Ramblers - When I Get Back
29. The Kalvin Brothers - Somewhere In Korea

CD3 On The Homefront

1. Newsreel Announcer - A GI Writes to His Kids
2. Red Foley - Dear Little Girls
3. Tex Ritter - Daddy's Last Letter
4. Tiny Hill - Two Letters
5. Jackie Doll and His Pickled Peppers - When They Drop The Atomic Bomb
6. Alan Jackson, CBS News / President Truman - The Truman
7. R.D. Hendon With The Western Jamboree Cowboys - Oh! Mr. President
8. General MacArthur - General Of The Army Douglas MacArthur Reports To Congress' (April 19, 1951) (narration)
9. Gene Autry - Old Soldiers Never Die
10. Jimmie Short and the Silver Saddle Ranch Boys - (Old Generals Never Die) They Just Fade Away
11. Ray Snead - Fade Away Baby
12. James E. Van Zandt - Rep. James E. Van Zandt supports the use of the Atomic Bomb in Korea' (May 8, 1953) (narration)
13. Skeets McDonald - Please Daddy, Don't Go To War
14. George Simerly and His Tennesseans - Why Does The Army Need My Daddy
15. Cecil Gant - God Bless My Daddy
16. Oklahoma Sweethearts - Don't Steal Daddy's Medal
17. Jimmie Heap and The Melody Masters - God Is On Our Side
18. The Dixie Ramblers - I'll Be Glad When It's Over (Over There)
19. Roscoe Hankins - I'm Prayin' For The Day (When Peace Will Come)
20. Edna McGriff - Heavenly Father
21. Gene Autry - At Mail Call Today
22. Jean Shepard with Recitation by Ferlin Husky - A Dear John Letter
23. Pete Lane and Bernice Stabile - John's Reply
24. Jack Cardwell - Dear Joan
25. Jean Shepard with Recitation by Ferlin Husky - Forgive Me John
26. Emitt Slay Trio - Male Call
27. Hank Penny - A Letter From Home
28. The Promenade Band with Male Chorus - I Like Ike
29. General Eisenhower - I shall go to Korea…' (October 24, 1952) (narration)
30. Little Maxie - Drive Soldier Drive
31. Eddie Kirk - Five Star President

CD4 Peace and Its Legacies

1. President Eisenhower - 'announces an armistice in Korea…' (July 27, 1953) (narration)
2. Sister Rosetta Tharpe - There's Peace In Korea
3. The Revelers - Ike
4. Jimmie Osborne - The Korean Story
5. Arthur Big Boy Crudup - The War Is Over
6. Lightening Hopkins - The War Is Over
7. Soldier Boy Houston - Leavin' Korea
8. Jimmie Dale - Hello Maria
9. King Perry Orchestra with Vocal by Dell St. John - Welcome Home Baby
10. Rose Brown and Jimmie Harris with Bubbles and His Band - Back From Korea
11. Dave Bartholomew - No More Black Nights
12. Jimmy Witherspoon - Back Home
13. Margie Collie - His New War Bride
14. Newsreel Announcer - Harry Holt brings Korean war orphans to Portland, Oregon' (circa 1956) (narration)
15. Kwan Li - The Legend Of Harry Holt
16. Don Windle with Band - The Iron Curtain Has Parted
17. Ernest Tubb - Missing In Action
18. Smilin' Jim Eanes and His Shenandoah Valley Boys - Returned From Missing In Action
19. Billy Strange - I'm Still A Prisoner
20. Merle Travis - Re
21. Red River Dave - The Red Deck Of Cards
22. Eddie Hill - I Changed My Mind (And I'll Go Home Again)
23. Jim & Jesse and The Virginia Boys - Purple Heart
24. Don Red Barry - White Cross In Korea
25. Marvin Rainwater - Korea's Mountain Northland
26. Carl Sauceman with the Green Valley Boys - A White Cross Marks The Grave
27. Elton Britt - The Unknown Soldier
28. Red River Dave - Searching For You, Buddy
29. Don Reno, Red Smiley And The Tennessee Cutups - Forgotten Men
30. Dick Curless - China Nights (Shina No Yuro)

Лог создания рипа

CD1

Exact Audio Copy V1.3 from 2. September 2016
EAC extraction logfile from 7. August 2018, 15:40
Various / Battleground Korea (CD1)
Used drive : PBDS CD-ROM DH-48N1S Adapter: 1 ID: 0
Read mode : SecureUtilize accurate stream : YesDefeat audio cache : YesMake use of C2 pointers : No
Read offset correction : 6Overread into Lead-In and Lead-Out : NoFill up missing offset samples with silence : YesDelete leading and trailing silent blocks : NoNull samples used in CRC calculations : YesUsed interface : Native Win32 interface for Win NT & 2000Gap handling : Appended to previous track
Used output format : User Defined EncoderSelected bitrate : 768 kBit/sQuality : HighAdd ID3 tag : NoCommand line compressor : C:\Program Files (x86)\FLAC\win64\flac.exeAdditional command line options : -8 -V -T "ARTIST=%artist%" -T "TITLE=%title%" -T "ALBUM=%albumtitle%" -T "DATE=%year%" -T "TRACKNUMBER=%tracknr%" -T "GENRE=%genre%" -T "PERFORMER=%albuminterpret%" -T "COMPOSER=%composer%" %haslyrics%–tag-from-file=LYRICS="%lyricsfile%"%haslyrics% -T "ALBUMARTIST=%albumartist%" -T "DISCNUMBER=%cdnumber%" -T "TOTALDISCS=%totalcds%" -T "TOTALTRACKS=%numtracks%" -T "COMMENT=%comment%" %source% -o %dest%
TOC of the extracted CD
Track | Start | Length | Start sector | End sector––––––––––––––––––––––––––––-1 | 0:00.00 | 0:20.46 | 0 | 15452 | 0:20.46 | 2:51.15 | 1546 | 143853 | 3:11.61 | 2:40.00 | 14386 | 263854 | 5:51.61 | 2:53.42 | 26386 | 394025 | 8:45.28 | 0:37.45 | 39403 | 422226 | 9:22.73 | 2:41.11 | 42223 | 543087 | 12:04.09 | 2:44.71 | 54309 | 666798 | 14:49.05 | 3:11.40 | 66680 | 810449 | 18:00.45 | 2:32.59 | 81045 | 9250310 | 20:33.29 | 2:38.37 | 92504 | 10439011 | 23:11.66 | 2:51.50 | 104391 | 11726512 | 26:03.41 | 2:31.27 | 117266 | 12861713 | 28:34.68 | 2:31.50 | 128618 | 13999214 | 31:06.43 | 2:20.37 | 139993 | 15052915 | 33:27.05 | 2:37.62 | 150530 | 16236616 | 36:04.67 | 3:04.07 | 162367 | 17617317 | 39:08.74 | 2:20.07 | 176174 | 18668018 | 41:29.06 | 2:39.57 | 186681 | 19866219 | 44:08.63 | 2:33.37 | 198663 | 21017420 | 46:42.25 | 2:59.42 | 210175 | 22364121 | 49:41.67 | 2:57.05 | 223642 | 23692122 | 52:38.72 | 3:21.39 | 236922 | 25203523 | 56:00.36 | 2:48.48 | 252036 | 26468324 | 58:49.09 | 2:11.00 | 264684 | 27450825 | 61:00.09 | 2:44.52 | 274509 | 28686026 | 63:44.61 | 2:43.30 | 286861 | 29911527 | 66:28.16 | 2:50.48 | 299116 | 31191328 | 69:18.64 | 3:16.13 | 311914 | 32662629 | 72:35.02 | 2:28.63 | 326627 | 33778930 | 75:03.65 | 1:18.26 | 337790 | 34366531 | 76:22.16 | 2:19.35 | 343666 | 354125
Track 1
Filename C:\EACRips\01 - U.N. Spokesperson - War Starts In Korea.wav
Pre-gap length 0:00:02.00
Peak level 56.2 %Extraction speed 1.8 XTrack quality 100.0 %Test CRC FB99D66ACopy CRC FB99D66ATrack not present in AccurateRip databaseCopy OK
Track 2
Filename C:\EACRips\02 - Lightnin' Hopkins - War News Blues.wav
Pre-gap length 0:00:02.00
Peak level 74.8 %Extraction speed 4.3 XTrack quality 100.0 %Test CRC 671D3F94Copy CRC 671D3F94Track not present in AccurateRip databaseCopy OK
Track 3
Filename C:\EACRips\03 - Sunshine Boys Quartet - God Please Protect America.wav
Pre-gap length 0:00:02.00
Peak level 94.3 %Extraction speed 3.8 XTrack quality 99.9 %Test CRC D28871BECopy CRC D28871BETrack not present in AccurateRip databaseCopy OK
Track 4
Filename C:\EACRips\04 - Wally Fowler & His Oakridge Quartet - Pray, Pray, Pray (For The U.S.A.).wav
Pre-gap length 0:00:02.00
Peak level 83.1 %Extraction speed 4.9 XTrack quality 100.0 %Test CRC 87FB0E42Copy CRC 87FB0E42Track not present in AccurateRip databaseCopy OK
Track 5
Filename C:\EACRips\05 - President Truman - President Truman Speaks On War In Korea.wav
Pre-gap length 0:00:02.00
Peak level 79.4 %Extraction speed 3.1 XTrack quality 100.0 %Test CRC 03C8527FCopy CRC 03C8527FTrack not present in AccurateRip databaseCopy OK
Track 6
Filename C:\EACRips\06 - Hank Harral & His Palomino Cowhands - When They Raised The U.N. Flag In Korea.wav
Pre-gap length 0:00:02.00
Peak level 84.1 %Extraction speed 4.7 XTrack quality 100.0 %Test CRC D9B28DC7Copy CRC D9B28DC7Track not present in AccurateRip databaseCopy OK
Track 7
Filename C:\EACRips\07 - The Four Barons - Got To Go Back Again.wav
Pre-gap length 0:00:02.00
Peak level 92.2 %Extraction speed 5.4 XTrack quality 100.0 %Test CRC BA80E1E7Copy CRC BA80E1E7Track not present in AccurateRip databaseCopy OK
Track 8
Filename C:\EACRips\08 - Sunnyland Slim & His Trio - Back To Korea Blues.wav
Pre-gap length 0:00:02.00
Peak level 79.4 %Extraction speed 4.8 XTrack quality 99.9 %Test CRC D7F6F421Copy CRC D7F6F421Track not present in AccurateRip databaseCopy OK
Track 9
Filename C:\EACRips\09 - Harry Choates & His Fiddle - Korea, Here We Come.wav
Pre-gap length 0:00:02.00
Peak level 79.4 %Extraction speed 5.8 XTrack quality 100.0 %Test CRC 97CAEB8FCopy CRC 97CAEB8FTrack not present in AccurateRip databaseCopy OK
Track 10
Filename C:\EACRips\10 - Vince Mondi - Goodbye Maria (I'm Off To Korea).wav
Pre-gap length 0:00:02.00
Peak level 79.4 %Extraction speed 6.0 XTrack quality 100.0 %Test CRC 01DCB690Copy CRC 01DCB690Track not present in AccurateRip databaseCopy OK
Track 11
Filename C:\EACRips\11 - Paul Mims - My New Career Is In Korea.wav
Pre-gap length 0:00:02.00
Peak level 86.0 %Extraction speed 4.2 XTrack quality 99.9 %Test CRC 301E28D0Copy CRC 301E28D0Track not present in AccurateRip databaseCopy OK
Track 12
Filename C:\EACRips\12 - Vance Brothers - Draftboard Blues.wav
Pre-gap length 0:00:02.00
Peak level 79.4 %Extraction speed 4.3 XTrack quality 99.9 %Test CRC 70FAE524Copy CRC 70FAE524Track not present in AccurateRip databaseCopy OK
Track 13
Filename C:\EACRips\13 - Ray Anderson & Tennessee Mountaineers - Draft Board Blues.wav
Pre-gap length 0:00:02.00
Peak level 83.1 %Extraction speed 6.4 XTrack quality 100.0 %Test CRC D56C2BF8Copy CRC D56C2BF8Track not present in AccurateRip databaseCopy OK
Track 14
Filename C:\EACRips\14 - Arkie Shibley & His Mountain Dew Boys - Uncle Sam Has Called My Number.wav
Pre-gap length 0:00:02.00
Peak level 95.4 %Extraction speed 6.3 XTrack quality 100.0 %Test CRC 41CD40DDCopy CRC 41CD40DDTrack not present in AccurateRip databaseCopy OK
Track 15
Filename C:\EACRips\15 - Smilin' Eddie Varnado & The Delta Ranch Hands - I'm A Soldier Boy Again.wav
Pre-gap length 0:00:02.00
Peak level 63.0 %Extraction speed 6.9 XTrack quality 100.0 %Test CRC 1D55891FCopy CRC 1D55891FTrack not present in AccurateRip databaseCopy OK
Track 16
Filename C:\EACRips\16 - Harvey Stone - Here We Go Again.wav
Pre-gap length 0:00:02.00
Peak level 100.0 %Extraction speed 6.9 XTrack quality 100.0 %Test CRC AFB05778Copy CRC AFB05778Track not present in AccurateRip databaseCopy OK
Track 17
Filename C:\EACRips\17 - Fats Domino - Korea Blues.wav
Pre-gap length 0:00:02.00
Peak level 79.4 %Extraction speed 5.3 XTrack quality 99.9 %Test CRC 78808B98Copy CRC 78808B98Track not present in AccurateRip databaseCopy OK
Track 18
Filename C:\EACRips\18 - Clifford Blivens & The Johnny Otis Band - Korea Blues.wav
Pre-gap length 0:00:02.00
Peak level 86.1 %Extraction speed 7.1 XTrack quality 100.0 %Test CRC B8702D0DCopy CRC B8702D0DTrack not present in AccurateRip databaseCopy OK
Track 19
Filename C:\EACRips\19 - Willie Brown - Korea Blues.wav
Pre-gap length 0:00:02.00
Peak level 70.4 %Extraction speed 7.0 XTrack quality 100.0 %Test CRC E271BF5ACopy CRC E271BF5ATrack not present in AccurateRip databaseCopy OK
Track 20
Filename C:\EACRips\20 - Max Bailey - Sorry Girl Blues.wav
Pre-gap length 0:00:02.00
Peak level 100.0 %Extraction speed 7.2 XTrack quality 100.0 %Test CRC 801A2235Copy CRC 801A2235Track not present in AccurateRip databaseCopy OK
Track 21
Filename C:\EACRips\21 - B.B. King - Questionnaire Blues.wav
Pre-gap length 0:00:02.00
Peak level 66.8 %Extraction speed 7.9 XTrack quality 100.0 %Test CRC 5229F48ECopy CRC 5229F48ETrack not present in AccurateRip databaseCopy OK
Track 22
Filename C:\EACRips\22 - John Lee Hooker (Johnny Williams) - Questionnaire Blues.wav
Pre-gap length 0:00:02.00
Peak level 84.1 %Extraction speed 6.8 XTrack quality 99.9 %Test CRC 080155FDCopy CRC 080155FDTrack not present in AccurateRip databaseCopy OK
Track 23
Filename C:\EACRips\23 - Sonny Thompson - Uncle Sam Blues.wav
Pre-gap length 0:00:02.00
Peak level 79.4 %Extraction speed 5.5 XTrack quality 99.9 %Test CRC 2CB0DEDFCopy CRC 2CB0DEDFTrack not present in AccurateRip databaseCopy OK
Track 24
Filename C:\EACRips\24 - Lloyd Price & His Orchestra - Mailman Blues.wav
Pre-gap length 0:00:02.00
Peak level 86.0 %Extraction speed 7.5 XTrack quality 100.0 %Test CRC 730CB59ECopy CRC 730CB59ETrack not present in AccurateRip databaseCopy OK
Track 25
Filename C:\EACRips\25 - Big Boy Crudup - Mr. So And So.wav
Pre-gap length 0:00:02.00
Peak level 100.0 %Extraction speed 6.6 XTrack quality 99.9 %Test CRC 0BE658DCCopy CRC 0BE658DCTrack not present in AccurateRip databaseCopy OK
Track 26
Filename C:\EACRips\26 - Bob Newman - Greetings.wav
Pre-gap length 0:00:02.00
Peak level 79.4 %Extraction speed 8.2 XTrack quality 100.0 %Test CRC 14A91674Copy CRC 14A91674Track not present in AccurateRip databaseCopy OK
Track 27
Filename C:\EACRips\27 - Tani Allen & His Tennessee Pals - I'm Back In The Army.wav
Pre-gap length 0:00:02.00
Peak level 63.0 %Extraction speed 6.8 XTrack quality 99.9 %Test CRC E804065ACopy CRC E804065ATrack not present in AccurateRip databaseCopy OK
Track 28
Filename C:\EACRips\28 - Cactus Pryor & His Pricklypears - (In Again, Out Again) Packing Up My Barracks Bag Blues.wav
Pre-gap length 0:00:02.00
Peak level 87.0 %Extraction speed 7.4 XTrack quality 99.9 %Test CRC 080DB2B7Copy CRC 080DB2B7Track not present in AccurateRip databaseCopy OK
Track 29
Filename C:\EACRips\29 - Montana Slim (Wilf Carter, The Singing Cowboy) - The K.P. Blues.wav
Pre-gap length 0:00:02.00
Peak level 83.1 %Extraction speed 8.1 XTrack quality 100.0 %Test CRC 5463C12BCopy CRC 5463C12BTrack not present in AccurateRip databaseCopy OK
Track 30
Filename C:\EACRips\30 - Vic Damone & Vaughn Monroe - Message From Vic Damone.wav
Pre-gap length 0:00:02.00
Peak level 84.1 %Extraction speed 5.2 XTrack quality 99.8 %Test CRC 2AB14592Copy CRC 2AB14592Track not present in AccurateRip databaseCopy OK
Track 31
Filename C:\EACRips\31 - The Rockets & Hugo Winterhalter & His Orchestra - The Girls Are Marching.wav
Pre-gap length 0:00:02.00
Peak level 89.1 %Extraction speed 6.9 XTrack quality 99.9 %Test CRC 31899997Copy CRC 31899997Track not present in AccurateRip databaseCopy OK
None of the tracks are present in the AccurateRip database
No errors occurred
End of status report
–– CUETools DB Plugin V2.1.6
[CTDB TOCID: rHqsv3jAUFEeDNiqIc98ebrMC9E-] foundSubmit result: rHqsv3jAUFEeDNiqIc98ebrMC9E- has been confirmedTrack | CTDB Status1 | (3/3) Accurately ripped2 | (3/3) Accurately ripped3 | (3/3) Accurately ripped4 | (3/3) Accurately ripped5 | (3/3) Accurately ripped6 | (3/3) Accurately ripped7 | (3/3) Accurately ripped8 | (3/3) Accurately ripped9 | (3/3) Accurately ripped10 | (3/3) Accurately ripped11 | (3/3) Accurately ripped12 | (3/3) Accurately ripped13 | (3/3) Accurately ripped14 | (3/3) Accurately ripped15 | (3/3) Accurately ripped16 | (3/3) Accurately ripped17 | (3/3) Accurately ripped18 | (3/3) Accurately ripped19 | (3/3) Accurately ripped20 | (3/3) Accurately ripped21 | (3/3) Accurately ripped22 | (3/3) Accurately ripped23 | (3/3) Accurately ripped24 | (3/3) Accurately ripped25 | (3/3) Accurately ripped26 | (3/3) Accurately ripped27 | (3/3) Accurately ripped28 | (3/3) Accurately ripped29 | (3/3) Accurately ripped30 | (3/3) Accurately ripped31 | (3/3) Accurately ripped
==== Log checksum EECB38739756E48E566C8B476BB1474B8D8A663E19AACD46B59C8B6191A5887E ====

CD2

Exact Audio Copy V1.3 from 2. September 2016
EAC extraction logfile from 7. August 2018, 16:26
Various / Battleground Korea (CD2)
Used drive : PBDS CD-ROM DH-48N1S Adapter: 1 ID: 0
Read mode : SecureUtilize accurate stream : YesDefeat audio cache : YesMake use of C2 pointers : No
Read offset correction : 6Overread into Lead-In and Lead-Out : NoFill up missing offset samples with silence : YesDelete leading and trailing silent blocks : NoNull samples used in CRC calculations : YesUsed interface : Native Win32 interface for Win NT & 2000Gap handling : Appended to previous track
Used output format : User Defined EncoderSelected bitrate : 768 kBit/sQuality : HighAdd ID3 tag : NoCommand line compressor : C:\Program Files (x86)\FLAC\win64\flac.exeAdditional command line options : -8 -V -T "ARTIST=%artist%" -T "TITLE=%title%" -T "ALBUM=%albumtitle%" -T "DATE=%year%" -T "TRACKNUMBER=%tracknr%" -T "GENRE=%genre%" -T "PERFORMER=%albuminterpret%" -T "COMPOSER=%composer%" %haslyrics%–tag-from-file=LYRICS="%lyricsfile%"%haslyrics% -T "ALBUMARTIST=%albumartist%" -T "DISCNUMBER=%cdnumber%" -T "TOTALDISCS=%totalcds%" -T "TOTALTRACKS=%numtracks%" -T "COMMENT=%comment%" %source% -o %dest%
TOC of the extracted CD
Track | Start | Length | Start sector | End sector––––––––––––––––––––––––––––-1 | 0:00.00 | 0:35.33 | 0 | 26572 | 0:35.33 | 2:40.63 | 2658 | 147203 | 3:16.21 | 3:02.48 | 14721 | 284184 | 6:18.69 | 5:00.09 | 28419 | 509275 | 11:19.03 | 2:56.71 | 50928 | 641986 | 14:15.74 | 4:36.10 | 64199 | 849087 | 18:52.09 | 1:59.14 | 84909 | 938478 | 20:51.23 | 3:12.68 | 93848 | 1083159 | 24:04.16 | 1:15.72 | 108316 | 11401210 | 25:20.13 | 2:54.28 | 114013 | 12709011 | 28:14.41 | 3:05.56 | 127091 | 14102112 | 31:20.22 | 1:03.64 | 141022 | 14581013 | 32:24.11 | 2:57.02 | 145811 | 15908714 | 35:21.13 | 0:39.09 | 159088 | 16202115 | 36:00.22 | 3:05.29 | 162022 | 17592516 | 39:05.51 | 3:11.59 | 175926 | 19030917 | 42:17.35 | 3:18.04 | 190310 | 20516318 | 45:35.39 | 3:22.59 | 205164 | 22037219 | 48:58.23 | 2:59.03 | 220373 | 23380020 | 51:57.26 | 3:13.70 | 233801 | 24834521 | 55:11.21 | 2:57.05 | 248346 | 26162522 | 58:08.26 | 2:49.46 | 261626 | 27434623 | 60:57.72 | 2:40.39 | 274347 | 28638524 | 63:38.36 | 2:31.05 | 286386 | 29771525 | 66:09.41 | 2:44.14 | 297716 | 31002926 | 68:53.55 | 2:12.30 | 310030 | 31995927 | 71:06.10 | 2:49.06 | 319960 | 33264028 | 73:55.16 | 2:35.11 | 332641 | 34427629 | 76:30.27 | 2:17.43 | 344277 | 354594
Track 1
Filename C:\EACRips\01 - Newsreel Announcer - Heading For Korea.wav
Pre-gap length 0:00:02.00
Peak level 100.0 %Extraction speed 2.2 XTrack quality 100.0 %Test CRC F57D7E4BCopy CRC F57D7E4BAccurately ripped (confidence 1) [FEE6FBAD] (AR v2)Copy OK
Track 2
Filename C:\EACRips\02 - The Gospel Pilgrims - Korea (Fightin' In The Foreign Land).wav
Pre-gap length 0:00:02.00
Peak level 89.1 %Extraction speed 4.4 XTrack quality 100.0 %Test CRC E1AEBCA0Copy CRC E1AEBCA0Accurately ripped (confidence 1) [C40B9A23] (AR v2)Copy OK
Track 3
Filename C:\EACRips\03 - Bill Cason - Foxhole In Korea.wav
Pre-gap length 0:00:02.00
Peak level 88.1 %Extraction speed 4.8 XTrack quality 100.0 %Test CRC 62A5EF57Copy CRC 62A5EF57Accurately ripped (confidence 1) [29E303F5] (AR v2)Copy OK
Track 4
Filename C:\EACRips\04 - Steve Rogers - Inchon.wav
Pre-gap length 0:00:02.00
Peak level 95.4 %Extraction speed 4.8 XTrack quality 99.9 %Test CRC 4553AE0CCopy CRC 4553AE0CAccurately ripped (confidence 1) [2ACEA5B7] (AR v2)Copy OK
Track 5
Filename C:\EACRips\05 - Jimmie Osborne - Thank God For Victory In Korea.wav
Pre-gap length 0:00:02.00
Peak level 84.1 %Extraction speed 4.5 XTrack quality 99.9 %Test CRC 8340B9D1Copy CRC 8340B9D1Accurately ripped (confidence 1) [DE4CBF54] (AR v2)Copy OK
Track 6
Filename C:\EACRips\06 - John Carpino - The Ballad Of Chosin.wav
Pre-gap length 0:00:02.00
Peak level 89.1 %Extraction speed 6.1 XTrack quality 100.0 %Test CRC 7095A2A2Copy CRC 7095A2A2Accurately ripped (confidence 1) [0740E5B1] (AR v2)Copy OK
Track 7
Filename C:\EACRips\07 - Oscar Brand & Short Arms - We're Moving On.wav
Pre-gap length 0:00:02.00
Peak level 100.0 %Extraction speed 4.2 XTrack quality 99.9 %Test CRC 0BE56B1BCopy CRC 0BE56B1BAccurately ripped (confidence 1) [95CC1E96] (AR v2)Copy OK
Track 8
Filename C:\EACRips\08 - J.B. Lenoir - I'm In Korea.wav
Pre-gap length 0:00:02.00
Peak level 74.9 %Extraction speed 5.1 XTrack quality 99.9 %Test CRC 9FCFB7D4Copy CRC 9FCFB7D4Accurately ripped (confidence 1) [392DF770] (AR v2)Copy OK
Track 9
Filename C:\EACRips\09 - Eric Sevareid & Robert Pierpoint - Robert Pierpoint Under Fire In Korea.wav
Pre-gap length 0:00:02.00
Peak level 100.0 %Extraction speed 5.1 XTrack quality 100.0 %Test CRC F2A92DE5Copy CRC F2A92DE5Accurately ripped (confidence 1) [F42BCBEA] (AR v2)Copy OK
Track 10
Filename C:\EACRips\10 - Delmore Brothers - Heartbreak Ridge.wav
Pre-gap length 0:00:02.00
Peak level 70.7 %Extraction speed 6.4 XTrack quality 100.0 %Test CRC E3AECF50Copy CRC E3AECF50Accurately ripped (confidence 1) [63E0129B] (AR v2)Copy OK
Track 11
Filename C:\EACRips\11 - Ernest Tubb - A Heartsick Soldier On Heartbreak Ridge.wav
Pre-gap length 0:00:02.00
Peak level 73.2 %Extraction speed 6.8 XTrack quality 100.0 %Test CRC C58BE768Copy CRC C58BE768Accurately ripped (confidence 1) [01B8DE9E] (AR v2)Copy OK
Track 12
Filename C:\EACRips\12 - The Four Lads & Edward R. Murrow - Where The Need Is.wav
Pre-gap length 0:00:02.00
Peak level 99.9 %Extraction speed 5.2 XTrack quality 100.0 %Test CRC 89FB6515Copy CRC 89FB6515Accurately ripped (confidence 1) [868A6ABB] (AR v2)Copy OK
Track 13
Filename C:\EACRips\13 - Elton Britt - Korean Mud.wav
Pre-gap length 0:00:02.00
Peak level 74.1 %Extraction speed 6.6 XTrack quality 100.0 %Test CRC 15C66864Copy CRC 15C66864Accurately ripped (confidence 1) [E4D2CF37] (AR v2)Copy OK
Track 14
Filename C:\EACRips\14 - Howdy Doody - Request For Blood Donations.wav
Pre-gap length 0:00:02.00
Peak level 83.5 %Extraction speed 4.2 XTrack quality 100.0 %Test CRC 282EAA68Copy CRC 282EAA68Accurately ripped (confidence 1) [DE48B5EE] (AR v2)Copy OK
Track 15
Filename C:\EACRips\15 - Tommy (Weepin' And Cryin') Brown - No News From Home.wav
Pre-gap length 0:00:02.00
Peak level 78.5 %Extraction speed 7.1 XTrack quality 100.0 %Test CRC 4031B340Copy CRC 4031B340Accurately ripped (confidence 1) [5770B077] (AR v2)Copy OK
Track 16
Filename C:\EACRips\16 - Sherman 'Blues' Johnson & His Clouds Of Joy - Lost In Korea.wav
Pre-gap length 0:00:02.00
Peak level 70.7 %Extraction speed 7.4 XTrack quality 100.0 %Test CRC 486768FECopy CRC 486768FEAccurately ripped (confidence 1) [98F99A99] (AR v2)Copy OK
Track 17
Filename C:\EACRips\17 - Jack Powers - From A Foxhole.wav
Pre-gap length 0:00:02.00
Peak level 72.4 %Extraction speed 7.6 XTrack quality 100.0 %Test CRC BFDB7EA6Copy CRC BFDB7EA6Accurately ripped (confidence 1) [23212CBD] (AR v2)Copy OK
Track 18
Filename C:\EACRips\18 - William Cook & The Marshall Brothers - A Soldier's Prayer.wav
Pre-gap length 0:00:02.00
Peak level 79.4 %Extraction speed 7.7 XTrack quality 100.0 %Test CRC 8FF91556Copy CRC 8FF91556Accurately ripped (confidence 1) [EDF09B85] (AR v2)Copy OK
Track 19
Filename C:\EACRips\19 - Rocky Porter - Please Say A Prayer (For The Boys Over There).wav
Pre-gap length 0:00:02.00
Peak level 87.0 %Extraction speed 7.9 XTrack quality 100.0 %Test CRC 070CCEB2Copy CRC 070CCEB2Accurately ripped (confidence 1) [F7215759] (AR v2)Copy OK
Track 20
Filename C:\EACRips\20 - Lightnin' Hopkins - Sad News From Korea.wav
Pre-gap length 0:00:02.00
Peak level 79.4 %Extraction speed 8.0 XTrack quality 100.0 %Test CRC 671C5F08Copy CRC 671C5F08Accurately ripped (confidence 1) [70AFD821] (AR v2)Copy OK
Track 21
Filename C:\EACRips\21 - Sonny Osborne - A Brother In Korea.wav
Pre-gap length 0:00:02.00
Peak level 70.5 %Extraction speed 8.2 XTrack quality 100.0 %Test CRC 2B8C4AC9Copy CRC 2B8C4AC9Accurately ripped (confidence 1) [34D069D1] (AR v2)Copy OK
Track 22
Filename C:\EACRips\22 - The Louvin Brothers - From Mother's Arms To Korea.wav
Pre-gap length 0:00:02.00
Peak level 84.1 %Extraction speed 6.6 XTrack quality 99.9 %Test CRC C103C43DCopy CRC C103C43DAccurately ripped (confidence 1) [C6753E0A] (AR v2)Copy OK
Track 23
Filename C:\EACRips\23 - Carl Sauceman & The Green Valley Boys - Wrap My Body In Old Glory.wav
Pre-gap length 0:00:02.00
Peak level 58.8 %Extraction speed 7.6 XTrack quality 100.0 %Test CRC D8768120Copy CRC D8768120Accurately ripped (confidence 1) [EB9CABE5] (AR v2)Copy OK
Track 24
Filename C:\EACRips\24 - Slim Rhodes - Red White And Blue.wav
Pre-gap length 0:00:02.00
Peak level 70.7 %Extraction speed 6.0 XTrack quality 99.9 %Test CRC A3B1816ECopy CRC A3B1816EAccurately ripped (confidence 1) [2C8CE2BA] (AR v2)Copy OK
Track 25
Filename C:\EACRips\25 - Elton Britt & The Skytoppers - Rotation Blues.wav
Pre-gap length 0:00:02.00
Peak level 68.3 %Extraction speed 7.9 XTrack quality 100.0 %Test CRC FFA11C8FCopy CRC FFA11C8FAccurately ripped (confidence 1) [C68205F6] (AR v2)Copy OK
Track 26
Filename C:\EACRips\26 - Billy Mize - Pusan.wav
Pre-gap length 0:00:02.00
Peak level 62.9 %Extraction speed 8.1 XTrack quality 100.0 %Test CRC F0E40A10Copy CRC F0E40A10Accurately ripped (confidence 1) [D8AB3ECF] (AR v2)Copy OK
Track 27
Filename C:\EACRips\27 - Jim Eanes - A Prisoner Of War.wav
Pre-gap length 0:00:02.00
Peak level 60.3 %Extraction speed 7.9 XTrack quality 100.0 %Test CRC BCEFE77ACopy CRC BCEFE77AAccurately ripped (confidence 1) [F4EF8E80] (AR v2)Copy OK
Track 28
Filename C:\EACRips\28 - Kay Kellum & His Dixie Ramblers - When I Get Back.wav
Pre-gap length 0:00:02.00
Peak level 58.2 %Extraction speed 8.2 XTrack quality 100.0 %Test CRC A784356BCopy CRC A784356BAccurately ripped (confidence 1) [AAC2964C] (AR v2)Copy OK
Track 29
Filename C:\EACRips\29 - The Kalvin Brothers - Somewhere In Korea.wav
Pre-gap length 0:00:02.00
Peak level 76.5 %Extraction speed 8.6 XTrack quality 100.0 %Test CRC 7CF01C85Copy CRC 7CF01C85Accurately ripped (confidence 1) [8FD6C5AA] (AR v2)Copy OK
All tracks accurately ripped
No errors occurred
End of status report
–– CUETools DB Plugin V2.1.6
[CTDB TOCID: eG97w6rxbrNKQu954_ZrSDzdAEo-] foundSubmit result: eG97w6rxbrNKQu954_ZrSDzdAEo- has been confirmedTrack | CTDB Status1 | (3/3) Accurately ripped2 | (3/3) Accurately ripped3 | (3/3) Accurately ripped4 | (3/3) Accurately ripped5 | (3/3) Accurately ripped6 | (3/3) Accurately ripped7 | (3/3) Accurately ripped8 | (3/3) Accurately ripped9 | (3/3) Accurately ripped10 | (3/3) Accurately ripped11 | (3/3) Accurately ripped12 | (3/3) Accurately ripped13 | (3/3) Accurately ripped14 | (3/3) Accurately ripped15 | (3/3) Accurately ripped16 | (3/3) Accurately ripped17 | (3/3) Accurately ripped18 | (3/3) Accurately ripped19 | (3/3) Accurately ripped20 | (3/3) Accurately ripped21 | (3/3) Accurately ripped22 | (3/3) Accurately ripped23 | (3/3) Accurately ripped24 | (3/3) Accurately ripped25 | (3/3) Accurately ripped26 | (3/3) Accurately ripped27 | (3/3) Accurately ripped28 | (3/3) Accurately ripped29 | (3/3) Accurately ripped
==== Log checksum 2EA63A85CA11FF6B23FC792E4D6DFE2CB8B0D69351904C96857463DEA5915F97 ====

CD3

Exact Audio Copy V1.3 from 2. September 2016
EAC extraction logfile from 7. August 2018, 17:11
Various / Battleground Korea (CD3)
Used drive : PBDS CD-ROM DH-48N1S Adapter: 1 ID: 0
Read mode : SecureUtilize accurate stream : YesDefeat audio cache : YesMake use of C2 pointers : No
Read offset correction : 6Overread into Lead-In and Lead-Out : NoFill up missing offset samples with silence : YesDelete leading and trailing silent blocks : NoNull samples used in CRC calculations : YesUsed interface : Native Win32 interface for Win NT & 2000Gap handling : Appended to previous track
Used output format : User Defined EncoderSelected bitrate : 768 kBit/sQuality : HighAdd ID3 tag : NoCommand line compressor : C:\Program Files (x86)\FLAC\win64\flac.exeAdditional command line options : -8 -V -T "ARTIST=%artist%" -T "TITLE=%title%" -T "ALBUM=%albumtitle%" -T "DATE=%year%" -T "TRACKNUMBER=%tracknr%" -T "GENRE=%genre%" -T "PERFORMER=%albuminterpret%" -T "COMPOSER=%composer%" %haslyrics%–tag-from-file=LYRICS="%lyricsfile%"%haslyrics% -T "ALBUMARTIST=%albumartist%" -T "DISCNUMBER=%cdnumber%" -T "TOTALDISCS=%totalcds%" -T "TOTALTRACKS=%numtracks%" -T "COMMENT=%comment%" %source% -o %dest%
TOC of the extracted CD
Track | Start | Length | Start sector | End sector––––––––––––––––––––––––––––-1 | 0:00.00 | 1:10.22 | 0 | 52712 | 1:10.22 | 3:01.24 | 5272 | 188703 | 4:11.46 | 3:22.20 | 18871 | 340404 | 7:33.66 | 2:55.67 | 34041 | 472325 | 10:29.58 | 2:41.01 | 47233 | 593086 | 13:10.59 | 1:55.38 | 59309 | 679717 | 15:06.22 | 3:06.55 | 67972 | 819768 | 18:13.02 | 1:22.42 | 81977 | 881689 | 19:35.44 | 3:15.71 | 88169 | 10286410 | 22:51.40 | 2:53.58 | 102865 | 11589711 | 25:45.23 | 2:28.62 | 115898 | 12705912 | 28:14.10 | 0:19.03 | 127060 | 12848713 | 28:33.13 | 3:00.56 | 128488 | 14204314 | 31:33.69 | 3:07.44 | 142044 | 15611215 | 34:41.38 | 2:48.28 | 156113 | 16874016 | 37:29.66 | 2:28.02 | 168741 | 17984217 | 39:57.68 | 2:58.35 | 179843 | 19322718 | 42:56.28 | 3:13.70 | 193228 | 20777219 | 46:10.23 | 2:29.57 | 207773 | 21900420 | 48:40.05 | 2:44.21 | 219005 | 23132521 | 51:24.26 | 2:47.34 | 231326 | 24388422 | 54:11.60 | 2:31.51 | 243885 | 25526023 | 56:43.36 | 2:41.36 | 255261 | 26737124 | 59:24.72 | 2:42.16 | 267372 | 27953725 | 62:07.13 | 2:26.26 | 279538 | 29051326 | 64:33.39 | 2:30.66 | 290514 | 30182927 | 67:04.30 | 3:40.03 | 301830 | 31833228 | 70:44.33 | 2:43.20 | 318333 | 33057729 | 73:27.53 | 1:15.42 | 330578 | 33624430 | 74:43.20 | 3:00.28 | 336245 | 34977231 | 77:43.48 | 2:07.55 | 349773 | 359352
Track 1
Filename C:\EACRips\01 - Newsreel Announcer - A GI Writes To His Kids - A Posthumous Letter.wav
Pre-gap length 0:00:02.00
Peak level 100.0 %Extraction speed 1.4 XTrack quality 100.0 %Test CRC 1EC0D8FECopy CRC 1EC0D8FETrack not present in AccurateRip databaseCopy OK
Track 2
Filename C:\EACRips\02 - Red Foley - Dear Little Girls.wav
Pre-gap length 0:00:01.00
Peak level 96.6 %Extraction speed 4.6 XTrack quality 100.0 %Test CRC A85D94B1Copy CRC A85D94B1Track not present in AccurateRip databaseCopy OK
Track 3
Filename C:\EACRips\03 - Tex Ritter - Daddy's Last Letter.wav
Pre-gap length 0:00:01.00
Peak level 100.0 %Extraction speed 4.9 XTrack quality 100.0 %Test CRC 8EFA42FFCopy CRC 8EFA42FFTrack not present in AccurateRip databaseCopy OK
Track 4
Filename C:\EACRips\04 - Tiny Hill - Two Letters.wav
Pre-gap length 0:00:01.00
Peak level 74.9 %Extraction speed 5.2 XTrack quality 100.0 %Test CRC B57CBA25Copy CRC B57CBA25Track not present in AccurateRip databaseCopy OK
Track 5
Filename C:\EACRips\05 - Jackie Doll & His Pickled Peppers - When They Drop The Atomic Bomb.wav
Pre-gap length 0:00:01.00
Peak level 72.4 %Extraction speed 4.3 XTrack quality 99.9 %Test CRC 98EF81D5Copy CRC 98EF81D5Track not present in AccurateRip databaseCopy OK
Track 6
Filename C:\EACRips\06 - Alan Jackson & President Truman - The Truman-MacArthur Dispute.wav
Pre-gap length 0:00:02.00
Peak level 100.0 %Extraction speed 3.8 XTrack quality 99.9 %Test CRC E462050BCopy CRC E462050BTrack not present in AccurateRip databaseCopy OK
Track 7
Filename C:\EACRips\07 - R.D. Henden & The Western Jamboree Cowboys - Oh! Mr. President.wav
Pre-gap length 0:00:01.00
Peak level 74.9 %Extraction speed 5.6 XTrack quality 100.0 %Test CRC 762A1E17Copy CRC 762A1E17Track not present in AccurateRip databaseCopy OK
Track 8
Filename C:\EACRips\08 - General MacArthur - General Of The Army Douglas MacArthur's Report To Congress.wav
Pre-gap length 0:00:02.00
Peak level 96.1 %Extraction speed 4.9 XTrack quality 100.0 %Test CRC 956028A5Copy CRC 956028A5Track not present in AccurateRip databaseCopy OK
Track 9
Filename C:\EACRips\09 - Gene Autry - Old Soldiers Never Die.wav
Pre-gap length 0:00:01.00
Peak level 86.0 %Extraction speed 6.1 XTrack quality 100.0 %Test CRC C091EFD7Copy CRC C091EFD7Track not present in AccurateRip databaseCopy OK
Track 10
Filename C:\EACRips\10 - Jimmie Short & The Silver Saddle Ranch Boys - (Old Generals Never Die) They Just Fade Away.wav
Pre-gap length 0:00:01.00
Peak level 74.9 %Extraction speed 6.1 XTrack quality 100.0 %Test CRC B6558482Copy CRC B6558482Track not present in AccurateRip databaseCopy OK
Track 11
Filename C:\EACRips\11 - Ray Snead - Fade Away Baby.wav
Pre-gap length 0:00:01.00
Peak level 74.1 %Extraction speed 6.2 XTrack quality 100.0 %Test CRC 13FB03B9Copy CRC 13FB03B9Track not present in AccurateRip databaseCopy OK
Track 12
Filename C:\EACRips\12 - James E. Van Zandt - Rep. James E. Van Zandt Supports The Use Of The Atomic Bomb In Korea.wav
Pre-gap length 0:00:01.00
Peak level 74.9 %Extraction speed 2.7 XTrack quality 100.0 %Test CRC D9FAEF9DCopy CRC D9FAEF9DTrack not present in AccurateRip databaseCopy OK
Track 13
Filename C:\EACRips\13 - 'Skeets' McDonald - Please Daddy, Don't Go To War.wav
Pre-gap length 0:00:01.00
Peak level 70.7 %Extraction speed 6.7 XTrack quality 100.0 %Test CRC 89AA52BDCopy CRC 89AA52BDTrack not present in AccurateRip databaseCopy OK
Track 14
Filename C:\EACRips\14 - George Simerly & His Tennesseans - Why Does The Army Need My Daddy.wav
Pre-gap length 0:00:01.00
Peak level 84.1 %Extraction speed 5.6 XTrack quality 99.9 %Test CRC 44170307Copy CRC 44170307Track not present in AccurateRip databaseCopy OK
Track 15
Filename C:\EACRips\15 - Cecil Gant - God Bless My Daddy.wav
Pre-gap length 0:00:01.00
Peak level 100.0 %Extraction speed 7.0 XTrack quality 100.0 %Test CRC DEEB9C92Copy CRC DEEB9C92Track not present in AccurateRip databaseCopy OK
Track 16
Filename C:\EACRips\16 - Oklahoma Sweethearts - Don't Steal Daddy's Medal.wav
Pre-gap length 0:00:01.00
Peak level 75.8 %Extraction speed 5.4 XTrack quality 99.9 %Test CRC C0521D8CCopy CRC C0521D8CTrack not present in AccurateRip databaseCopy OK
Track 17
Filename C:\EACRips\17 - Jimmie Heap & The Melody Masters - God Is On Our Side.wav
Pre-gap length 0:00:01.00
Peak level 69.9 %Extraction speed 7.3 XTrack quality 100.0 %Test CRC 3C69487CCopy CRC 3C69487CTrack not present in AccurateRip databaseCopy OK
Track 18
Filename C:\EACRips\18 - The Dixie Ramblers - I'll Be Glad When It's Over (Over There).wav
Pre-gap length 0:00:01.00
Peak level 69.1 %Extraction speed 7.6 XTrack quality 100.0 %Test CRC 07F07978Copy CRC 07F07978Track not present in AccurateRip databaseCopy OK
Track 19
Filename C:\EACRips\19 - Roscoe Hankins - I'm Prayin' For The Day (When Peace Will Come).wav
Pre-gap length 0:00:01.00
Peak level 69.1 %Extraction speed 7.0 XTrack quality 100.0 %Test CRC CB1901F2Copy CRC CB1901F2Track not present in AccurateRip databaseCopy OK
Track 20
Filename C:\EACRips\20 - Edna McGriff - Heavenly Father.wav
Pre-gap length 0:00:01.00
Peak level 100.0 %Extraction speed 7.7 XTrack quality 100.0 %Test CRC AA5076E2Copy CRC AA5076E2Track not present in AccurateRip databaseCopy OK
Track 21
Filename C:\EACRips\21 - Gene Autry - At Mail Call Today.wav
Pre-gap length 0:00:01.00
Peak level 94.4 %Extraction speed 7.5 XTrack quality 100.0 %Test CRC D88141C8Copy CRC D88141C8Track not present in AccurateRip databaseCopy OK
Track 22
Filename C:\EACRips\22 - Jean Shepard & Ferlin Husky - A Dear John Letter.wav
Pre-gap length 0:00:01.00
Peak level 85.1 %Extraction speed 7.8 XTrack quality 100.0 %Test CRC DA0135A7Copy CRC DA0135A7Track not present in AccurateRip databaseCopy OK
Track 23
Filename C:\EACRips\23 - Pete Lane & Bernice Stabile - John's Reply.wav
Pre-gap length 0:00:01.00
Peak level 82.0 %Extraction speed 7.8 XTrack quality 100.0 %Test CRC A14EAC74Copy CRC A14EAC74Track not present in AccurateRip databaseCopy OK
Track 24
Filename C:\EACRips\24 - Jack Cardwell - Dear Joan.wav
Pre-gap length 0:00:01.00
Peak level 70.7 %Extraction speed 8.0 XTrack quality 100.0 %Test CRC 66B6E042Copy CRC 66B6E042Track not present in AccurateRip databaseCopy OK
Track 25
Filename C:\EACRips\25 - Jean Shepard & Ferlin Husky - Forgive Me John.wav
Pre-gap length 0:00:01.00
Peak level 83.1 %Extraction speed 7.9 XTrack quality 100.0 %Test CRC 89C27117Copy CRC 89C27117Track not present in AccurateRip databaseCopy OK
Track 26
Filename C:\EACRips\26 - Emitt Slay Trio - Male Call.wav
Pre-gap length 0:00:01.00
Peak level 100.0 %Extraction speed 7.6 XTrack quality 100.0 %Test CRC 61ABEF53Copy CRC 61ABEF53Track not present in AccurateRip databaseCopy OK
Track 27
Filename C:\EACRips\27 - Hank Penny - A Letter From Home.wav
Pre-gap length 0:00:01.00
Peak level 92.2 %Extraction speed 8.0 XTrack quality 100.0 %Test CRC 80DCDC22Copy CRC 80DCDC22Track not present in AccurateRip databaseCopy OK
Track 28
Filename C:\EACRips\28 - The Promenade Band - I Like Ike.wav
Pre-gap length 0:00:01.00
Peak level 99.9 %Extraction speed 8.2 XTrack quality 100.0 %Test CRC 907EED1ECopy CRC 907EED1ETrack not present in AccurateRip databaseCopy OK
Track 29
Filename C:\EACRips\29 - General Eisenhower - I Shall Go To Korea.wav
Pre-gap length 0:00:01.00
Peak level 84.1 %Extraction speed 7.1 XTrack quality 100.0 %Test CRC 24F9AA48Copy CRC 24F9AA48Track not present in AccurateRip databaseCopy OK
Track 30
Filename C:\EACRips\30 - Little Maxie - Drive Soldier Drive.wav
Pre-gap length 0:00:01.00
Peak level 84.1 %Extraction speed 9.0 XTrack quality 100.0 %Test CRC 79CB303FCopy CRC 79CB303FTrack not present in AccurateRip databaseCopy OK
Track 31
Filename C:\EACRips\31 - Eddie Kirk - Five Star President.wav
Pre-gap length 0:00:01.00
Peak level 89.1 %Extraction speed 8.4 XTrack quality 100.0 %Test CRC 792BBE81Copy CRC 792BBE81Track not present in AccurateRip databaseCopy OK
None of the tracks are present in the AccurateRip database
No errors occurred
End of status report
–– CUETools DB Plugin V2.1.6
[CTDB TOCID: bm2jjsJm.ZzBvDX9ez81tYlOQRw-] foundSubmit result: bm2jjsJm.ZzBvDX9ez81tYlOQRw- has been confirmedTrack | CTDB Status1 | (2/2) Accurately ripped2 | (2/2) Accurately ripped3 | (2/2) Accurately ripped4 | (2/2) Accurately ripped5 | (2/2) Accurately ripped6 | (2/2) Accurately ripped7 | (2/2) Accurately ripped8 | (2/2) Accurately ripped9 | (2/2) Accurately ripped10 | (2/2) Accurately ripped11 | (2/2) Accurately ripped12 | (2/2) Accurately ripped13 | (2/2) Accurately ripped14 | (2/2) Accurately ripped15 | (2/2) Accurately ripped16 | (2/2) Accurately ripped17 | (2/2) Accurately ripped18 | (2/2) Accurately ripped19 | (2/2) Accurately ripped20 | (2/2) Accurately ripped21 | (2/2) Accurately ripped22 | (2/2) Accurately ripped23 | (2/2) Accurately ripped24 | (2/2) Accurately ripped25 | (2/2) Accurately ripped26 | (2/2) Accurately ripped27 | (2/2) Accurately ripped28 | (2/2) Accurately ripped29 | (2/2) Accurately ripped30 | (2/2) Accurately ripped31 | (2/2) Accurately ripped
==== Log checksum CD51A452FED1F90B29B2020EB02448326EBC0DE1246D7A2B2A6F0D036A797CEC ====

CD4

Exact Audio Copy V1.3 from 2. September 2016
EAC extraction logfile from 7. August 2018, 17:57
Various / Battleground Korea (CD4)
Used drive : PBDS CD-ROM DH-48N1S Adapter: 1 ID: 0
Read mode : SecureUtilize accurate stream : YesDefeat audio cache : YesMake use of C2 pointers : No
Read offset correction : 6Overread into Lead-In and Lead-Out : NoFill up missing offset samples with silence : YesDelete leading and trailing silent blocks : NoNull samples used in CRC calculations : YesUsed interface : Native Win32 interface for Win NT & 2000Gap handling : Appended to previous track
Used output format : User Defined EncoderSelected bitrate : 768 kBit/sQuality : HighAdd ID3 tag : NoCommand line compressor : C:\Program Files (x86)\FLAC\win64\flac.exeAdditional command line options : -8 -V -T "ARTIST=%artist%" -T "TITLE=%title%" -T "ALBUM=%albumtitle%" -T "DATE=%year%" -T "TRACKNUMBER=%tracknr%" -T "GENRE=%genre%" -T "PERFORMER=%albuminterpret%" -T "COMPOSER=%composer%" %haslyrics%–tag-from-file=LYRICS="%lyricsfile%"%haslyrics% -T "ALBUMARTIST=%albumartist%" -T "DISCNUMBER=%cdnumber%" -T "TOTALDISCS=%totalcds%" -T "TOTALTRACKS=%numtracks%" -T "COMMENT=%comment%" %source% -o %dest%
TOC of the extracted CD
Track | Start | Length | Start sector | End sector––––––––––––––––––––––––––––-1 | 0:00.00 | 0:54.38 | 0 | 40872 | 0:54.38 | 2:19.07 | 4088 | 145193 | 3:13.45 | 1:45.48 | 14520 | 224424 | 4:59.18 | 2:54.38 | 22443 | 355305 | 7:53.56 | 2:53.37 | 35531 | 485426 | 10:47.18 | 3:13.07 | 48543 | 630247 | 14:00.25 | 2:34.28 | 63025 | 746028 | 16:34.53 | 2:10.21 | 74603 | 843739 | 18:44.74 | 2:09.68 | 84374 | 9411610 | 20:54.67 | 2:36.02 | 94117 | 10581811 | 23:30.69 | 2:38.64 | 105819 | 11773212 | 26:09.58 | 3:24.63 | 117733 | 13309513 | 29:34.46 | 2:23.30 | 133096 | 14385014 | 31:58.01 | 0:44.37 | 143851 | 14718715 | 32:42.38 | 2:55.15 | 147188 | 16032716 | 35:37.53 | 3:10.59 | 160328 | 17463617 | 38:48.37 | 3:05.49 | 174637 | 18856018 | 41:54.11 | 3:09.58 | 188561 | 20279319 | 45:03.69 | 2:28.10 | 202794 | 21390320 | 47:32.04 | 3:22.66 | 213904 | 22911921 | 50:54.70 | 2:57.60 | 229120 | 24245422 | 53:52.55 | 3:22.66 | 242455 | 25767023 | 57:15.46 | 2:44.63 | 257671 | 27003324 | 60:00.34 | 2:44.40 | 270034 | 28237325 | 62:44.74 | 3:20.00 | 282374 | 29737326 | 66:04.74 | 2:23.06 | 297374 | 30810427 | 68:28.05 | 2:41.57 | 308105 | 32023628 | 71:09.62 | 2:55.32 | 320237 | 33339329 | 74:05.19 | 2:46.59 | 333394 | 34590230 | 76:52.03 | 3:03.72 | 345903 | 359699
Track 1
Filename C:\EACRips\01 - President Eisenhower - President Eisenhower Announces An Armistice In Korea.wav
Pre-gap length 0:00:02.00
Peak level 94.3 %Extraction speed 1.9 XTrack quality 100.0 %Test CRC 6C35EAF8Copy CRC 6C35EAF8Track not present in AccurateRip databaseCopy OK
Track 2
Filename C:\EACRips\02 - Sister Rosetta Tharpe - There's Peace In Korea.wav
Peak level 74.1 %Extraction speed 3.3 XTrack quality 99.9 %Test CRC 2329DE54Copy CRC 2329DE54Track not present in AccurateRip databaseCopy OK
Track 3
Filename C:\EACRips\03 - The Revelers - Ike.wav
Peak level 88.0 %Extraction speed 4.1 XTrack quality 100.0 %Test CRC 58792C70Copy CRC 58792C70Track not present in AccurateRip databaseCopy OK
Track 4
Filename C:\EACRips\04 - Jimmie Osborne - The Korean Story.wav
Peak level 74.9 %Extraction speed 4.9 XTrack quality 100.0 %Test CRC 50995A72Copy CRC 50995A72Track not present in AccurateRip databaseCopy OK
Track 5
Filename C:\EACRips\05 - Big Boy Crudup - The War Is Over.wav
Peak level 75.8 %Extraction speed 5.1 XTrack quality 100.0 %Test CRC C2491B6ECopy CRC C2491B6ETrack not present in AccurateRip databaseCopy OK
Track 6
Filename C:\EACRips\06 - Lightnin' Hopkins - The War Is Over.wav
Peak level 89.1 %Extraction speed 5.5 XTrack quality 100.0 %Test CRC F18D8C3BCopy CRC F18D8C3BTrack not present in AccurateRip databaseCopy OK
Track 7
Filename C:\EACRips\07 - Soldier Boy Houston - Leavin' Korea.wav
Peak level 100.0 %Extraction speed 3.5 XTrack quality 99.9 %Test CRC 7B3FA709Copy CRC 7B3FA709Track not present in AccurateRip databaseCopy OK
Track 8
Filename C:\EACRips\08 - Jimmie Dale - Hello Maria.wav
Peak level 70.7 %Extraction speed 3.1 XTrack quality 100.0 %Test CRC D8C82E0DCopy CRC D8C82E0DTrack not present in AccurateRip databaseCopy OK
Track 9
Filename C:\EACRips\09 - King Perry Orchestra & Dell St. John - Welcome Home Baby.wav
Peak level 66.8 %Extraction speed 3.4 XTrack quality 100.0 %Test CRC E3128062Copy CRC E3128062Track not present in AccurateRip databaseCopy OK
Track 10
Filename C:\EACRips\10 - Rose Brown & Jimmie Harris - Back From Korea.wav
Peak level 84.1 %Extraction speed 2.5 XTrack quality 99.9 %Test CRC B6471A0FCopy CRC B6471A0FTrack not present in AccurateRip databaseCopy OK
Track 11
Filename C:\EACRips\11 - Dave Bartholomew - No More Black Nights.wav
Peak level 76.7 %Extraction speed 6.2 XTrack quality 100.0 %Test CRC F9F8A201Copy CRC F9F8A201Track not present in AccurateRip databaseCopy OK
Track 12
Filename C:\EACRips\12 - Jimmy Witherspoon - Back Home.wav
Peak level 87.0 %Extraction speed 5.5 XTrack quality 99.9 %Test CRC 9C552B47Copy CRC 9C552B47Track not present in AccurateRip databaseCopy OK
Track 13
Filename C:\EACRips\13 - Margie Collie - His New War Bride.wav
Peak level 76.7 %Extraction speed 4.9 XTrack quality 99.9 %Test CRC 08AF569CCopy CRC 08AF569CTrack not present in AccurateRip databaseCopy OK
Track 14
Filename C:\EACRips\14 - Newsreel Announcer - Harry Holt Brings Korean War Orphans To Portland, Oregon.wav
Peak level 69.1 %Extraction speed 1.8 XTrack quality 99.7 %Test CRC 2705B788Copy CRC 2705B788Track not present in AccurateRip databaseCopy OK
Track 15
Filename C:\EACRips\15 - Kwan Li - The Legend Of Harry Holt.wav
Peak level 73.2 %Extraction speed 6.9 XTrack quality 100.0 %Test CRC B58977F3Copy CRC B58977F3Track not present in AccurateRip databaseCopy OK
Track 16
Filename C:\EACRips\16 - Don Windle - The Iron Curtain Has Parted.wav
Peak level 68.3 %Extraction speed 6.8 XTrack quality 100.0 %Test CRC FBFD2E16Copy CRC FBFD2E16Track not present in AccurateRip databaseCopy OK
Track 17
Filename C:\EACRips\17 - Ernest Tubb - Missing In Action.wav
Peak level 79.4 %Extraction speed 7.2 XTrack quality 100.0 %Test CRC 195D4333Copy CRC 195D4333Track not present in AccurateRip databaseCopy OK
Track 18
Filename C:\EACRips\18 - Smilin' Jim Eanes & His Shenandoah Valley Boys - Returned From Missing In Action.wav
Peak level 67.2 %Extraction speed 7.5 XTrack quality 100.0 %Test CRC 6750FA95Copy CRC 6750FA95Track not present in AccurateRip databaseCopy OK
Track 19
Filename C:\EACRips\19 - Billy Strange - I'm Still A Prisoner.wav
Peak level 70.7 %Extraction speed 5.6 XTrack quality 100.0 %Test CRC AF4EA933Copy CRC AF4EA933Track not present in AccurateRip databaseCopy OK
Track 20
Filename C:\EACRips\20 - Merle Travis - Re-Enlistment Blues.wav
Peak level 92.2 %Extraction speed 7.7 XTrack quality 100.0 %Test CRC 5B8E77B4Copy CRC 5B8E77B4Track not present in AccurateRip databaseCopy OK
Track 21
Filename C:\EACRips\21 - Red River Boys - The Red Deck Of Cards.wav
Peak level 87.0 %Extraction speed 7.6 XTrack quality 100.0 %Test CRC 4D6BA6A5Copy CRC 4D6BA6A5Track not present in AccurateRip databaseCopy OK
Track 22
Filename C:\EACRips\22 - Eddie Hill - I Changed My Mind (And I'll Go Home Again).wav
Peak level 92.2 %Extraction speed 7.9 XTrack quality 100.0 %Test CRC 7EE3D1C4Copy CRC 7EE3D1C4Track not present in AccurateRip databaseCopy OK
Track 23
Filename C:\EACRips\23 - Jim & Jesse & The Virginia Boys - Purple Heart.wav
Peak level 72.4 %Extraction speed 7.7 XTrack quality 100.0 %Test CRC 9EFCC6A4Copy CRC 9EFCC6A4Track not present in AccurateRip databaseCopy OK
Track 24
Filename C:\EACRips\24 - Don 'Red' Barry - White Cross In Korea.wav
Peak level 89.1 %Extraction speed 8.2 XTrack quality 100.0 %Test CRC 71E04E41Copy CRC 71E04E41Track not present in AccurateRip databaseCopy OK
Track 25
Filename C:\EACRips\25 - Marvin Rainwater - Korea's Mountain Northland.wav
Peak level 70.7 %Extraction speed 8.7 XTrack quality 100.0 %Test CRC 38D68CFBCopy CRC 38D68CFBTrack not present in AccurateRip databaseCopy OK
Track 26
Filename C:\EACRips\26 - Carl Sauceman & The Green Valley Boys - A White Cross Marks The Grave.wav
Peak level 84.1 %Extraction speed 6.4 XTrack quality 99.9 %Test CRC 29882504Copy CRC 29882504Track not present in AccurateRip databaseCopy OK
Track 27
Filename C:\EACRips\27 - Elton Britt - The Unknown Soldier.wav
Peak level 69.1 %Extraction speed 8.4 XTrack quality 100.0 %Test CRC BFE84C38Copy CRC BFE84C38Track not present in AccurateRip databaseCopy OK
Track 28
Filename C:\EACRips\28 - Red River Dave - Searching For You, Buddy.wav
Peak level 78.1 %Extraction speed 8.3 XTrack quality 100.0 %Test CRC 7BACF2B1Copy CRC 7BACF2B1Track not present in AccurateRip databaseCopy OK
Track 29
Filename C:\EACRips\29 - Don Reno, Red Smiley & The Tennessee Cutups - Forgotten Men.wav
Peak level 64.5 %Extraction speed 8.7 XTrack quality 100.0 %Test CRC 0A18AFC0Copy CRC 0A18AFC0Track not present in AccurateRip databaseCopy OK
Track 30
Filename C:\EACRips\30 - Dick Curless (The Rice Paddy Ranger) - China Nights (Shina No Yoru).wav
Peak level 80.3 %Extraction speed 7.5 XTrack quality 99.9 %Test CRC B88898DFCopy CRC B88898DFTrack not present in AccurateRip databaseCopy OK
None of the tracks are present in the AccurateRip database
No errors occurred
End of status report
–– CUETools DB Plugin V2.1.6
[CTDB TOCID: IuV__5GKTCFh5ywDsjg2xiRHTeA-] foundSubmit result: IuV__5GKTCFh5ywDsjg2xiRHTeA- has been confirmedTrack | CTDB Status1 | (2/2) Accurately ripped2 | (2/2) Accurately ripped3 | (2/2) Accurately ripped4 | (2/2) Accurately ripped5 | (2/2) Accurately ripped6 | (2/2) Accurately ripped7 | (2/2) Accurately ripped8 | (2/2) Accurately ripped9 | (2/2) Accurately ripped10 | (2/2) Accurately ripped11 | (2/2) Accurately ripped12 | (2/2) Accurately ripped13 | (2/2) Accurately ripped14 | (2/2) Accurately ripped15 | (2/2) Accurately ripped16 | (2/2) Accurately ripped17 | (2/2) Accurately ripped18 | (2/2) Accurately ripped19 | (2/2) Accurately ripped20 | (2/2) Accurately ripped21 | (2/2) Accurately ripped22 | (2/2) Accurately ripped23 | (2/2) Accurately ripped24 | (2/2) Accurately ripped25 | (2/2) Accurately ripped26 | (2/2) Accurately ripped27 | (2/2) Accurately ripped28 | (2/2) Accurately ripped29 | (2/2) Accurately ripped30 | (2/2) Accurately ripped
==== Log checksum 8471ED80CD9DFBBB2446CB4E5FF5CEE7D32E2B84F6F3902F747EB0EC69544C6E ====

Содержание индексной карты (.CUE)

CD1

REM GENRE CountryREM DATE 2018REM DISCID BD12711FREM COMMENT "ExactAudioCopy v1.3"PERFORMER "Various"TITLE "Battleground Korea (CD1)"REM COMPOSER ""FILE "01 - U.N. Spokesperson - War Starts In Korea.wav" WAVE  TRACK 01 AUDIO    TITLE "War Starts In Korea"    PERFORMER "U.N. Spokesperson"    REM COMPOSER ""    ISRC DEU471700185    INDEX 01 00:00:00  TRACK 02 AUDIO    TITLE "War News Blues"    PERFORMER "Lightnin' Hopkins"    REM COMPOSER ""    ISRC DEU471700186    INDEX 00 00:18:46FILE "02 - Lightnin' Hopkins - War News Blues.wav" WAVE    INDEX 01 00:00:00  TRACK 03 AUDIO    TITLE "God Please Protect America"    PERFORMER "Sunshine Boys Quartet"    REM COMPOSER ""    ISRC DEU471700187    INDEX 00 02:49:15FILE "03 - Sunshine Boys Quartet - God Please Protect America.wav" WAVE    INDEX 01 00:00:00  TRACK 04 AUDIO    TITLE "Pray, Pray, Pray (For The U.S.A.)"    PERFORMER "Wally Fowler & His Oakridge Quartet"    REM COMPOSER ""    ISRC DEU471700188    INDEX 00 02:38:00FILE "04 - Wally Fowler & His Oakridge Quartet - Pray, Pray, Pray (For The U.S.A.).wav" WAVE    INDEX 01 00:00:00  TRACK 05 AUDIO    TITLE "President Truman Speaks On War In Korea"    PERFORMER "President Truman"    REM COMPOSER ""    ISRC DEU471700189    INDEX 00 02:51:42FILE "05 - President Truman - President Truman Speaks On War In Korea.wav" WAVE    INDEX 01 00:00:00  TRACK 06 AUDIO    TITLE "When They Raised The U.N. Flag In Korea"    PERFORMER "Hank Harral & His Palomino Cowhands"    REM COMPOSER ""    ISRC DEU471700190    INDEX 00 00:35:45FILE "06 - Hank Harral & His Palomino Cowhands - When They Raised The U.N. Flag In Korea.wav" WAVE    INDEX 01 00:00:00  TRACK 07 AUDIO    TITLE "Got To Go Back Again"    PERFORMER "The Four Barons"    REM COMPOSER ""    ISRC DEU471700191    INDEX 00 02:39:11FILE "07 - The Four Barons - Got To Go Back Again.wav" WAVE    INDEX 01 00:00:00  TRACK 08 AUDIO    TITLE "Back To Korea Blues"    PERFORMER "Sunnyland Slim & His Trio"    REM COMPOSER ""    ISRC DEU471700192    INDEX 00 02:42:71FILE "08 - Sunnyland Slim & His Trio - Back To Korea Blues.wav" WAVE    INDEX 01 00:00:00  TRACK 09 AUDIO    TITLE "Korea, Here We Come"    PERFORMER "Harry Choates & His Fiddle"    REM COMPOSER ""    ISRC DEU471700193    INDEX 00 03:09:40FILE "09 - Harry Choates & His Fiddle - Korea, Here We Come.wav" WAVE    INDEX 01 00:00:00  TRACK 10 AUDIO    TITLE "Goodbye Maria (I'm Off To Korea)"    PERFORMER "Vince Mondi"    REM COMPOSER ""    ISRC DEU471700194    INDEX 00 02:30:59FILE "10 - Vince Mondi - Goodbye Maria (I'm Off To Korea).wav" WAVE    INDEX 01 00:00:00  TRACK 11 AUDIO    TITLE "My New Career Is In Korea"    PERFORMER "Paul Mims"    REM COMPOSER ""    ISRC DEU471700195    INDEX 00 02:36:37FILE "11 - Paul Mims - My New Career Is In Korea.wav" WAVE    INDEX 01 00:00:00  TRACK 12 AUDIO    TITLE "Draftboard Blues"    PERFORMER "Vance Brothers"    REM COMPOSER ""    ISRC DEU471700196    INDEX 00 02:49:50FILE "12 - Vance Brothers - Draftboard Blues.wav" WAVE    INDEX 01 00:00:00  TRACK 13 AUDIO    TITLE "Draft Board Blues"    PERFORMER "Ray Anderson & Tennessee Mountaineers"    REM COMPOSER ""    ISRC DEU471700197    INDEX 00 02:29:27FILE "13 - Ray Anderson & Tennessee Mountaineers - Draft Board Blues.wav" WAVE    INDEX 01 00:00:00  TRACK 14 AUDIO    TITLE "Uncle Sam Has Called My Number"    PERFORMER "Arkie Shibley & His Mountain Dew Boys"    REM COMPOSER ""    ISRC DEU471700198    INDEX 00 02:29:50FILE "14 - Arkie Shibley & His Mountain Dew Boys - Uncle Sam Has Called My Number.wav" WAVE    INDEX 01 00:00:00  TRACK 15 AUDIO    TITLE "I'm A Soldier Boy Again"    PERFORMER "Smilin' Eddie Varnado & The Delta Ranch Hands"    REM COMPOSER ""    ISRC DEU471700199    INDEX 00 02:18:37FILE "15 - Smilin' Eddie Varnado & The Delta Ranch Hands - I'm A Soldier Boy Again.wav" WAVE    INDEX 01 00:00:00  TRACK 16 AUDIO    TITLE "Here We Go Again"    PERFORMER "Harvey Stone"    REM COMPOSER ""    ISRC DEU471700200    INDEX 00 02:35:62FILE "16 - Harvey Stone - Here We Go Again.wav" WAVE    INDEX 01 00:00:00  TRACK 17 AUDIO    TITLE "Korea Blues"    PERFORMER "Fats Domino"    REM COMPOSER ""    ISRC DEU471700201    INDEX 00 03:02:07FILE "17 - Fats Domino - Korea Blues.wav" WAVE    INDEX 01 00:00:00  TRACK 18 AUDIO    TITLE "Korea Blues"    PERFORMER "Clifford Blivens & The Johnny Otis Band"    REM COMPOSER ""    ISRC DEU471700202    INDEX 00 02:18:07FILE "18 - Clifford Blivens & The Johnny Otis Band - Korea Blues.wav" WAVE    INDEX 01 00:00:00  TRACK 19 AUDIO    TITLE "Korea Blues"    PERFORMER "Willie Brown"    REM COMPOSER ""    ISRC DEU471700203    INDEX 00 02:37:57FILE "19 - Willie Brown - Korea Blues.wav" WAVE    INDEX 01 00:00:00  TRACK 20 AUDIO    TITLE "Sorry Girl Blues"    PERFORMER "Max Bailey"    REM COMPOSER ""    ISRC DEU471700204    INDEX 00 02:31:37FILE "20 - Max Bailey - Sorry Girl Blues.wav" WAVE    INDEX 01 00:00:00  TRACK 21 AUDIO    TITLE "Questionnaire Blues"    PERFORMER "B.B. King"    REM COMPOSER ""    ISRC DEU471700205    INDEX 00 02:57:42FILE "21 - B.B. King - Questionnaire Blues.wav" WAVE    INDEX 01 00:00:00  TRACK 22 AUDIO    TITLE "Questionnaire Blues"    PERFORMER "John Lee Hooker (Johnny Williams)"    REM COMPOSER ""    ISRC DEU471700206    INDEX 00 02:55:05FILE "22 - John Lee Hooker (Johnny Williams) - Questionnaire Blues.wav" WAVE    INDEX 01 00:00:00  TRACK 23 AUDIO    TITLE "Uncle Sam Blues"    PERFORMER "Sonny Thompson"    REM COMPOSER ""    ISRC DEU471700207    INDEX 00 03:19:39FILE "23 - Sonny Thompson - Uncle Sam Blues.wav" WAVE    INDEX 01 00:00:00  TRACK 24 AUDIO    TITLE "Mailman Blues"    PERFORMER "Lloyd Price & His Orchestra"    REM COMPOSER ""    ISRC DEU471700208    INDEX 00 02:46:48FILE "24 - Lloyd Price & His Orchestra - Mailman Blues.wav" WAVE    INDEX 01 00:00:00  TRACK 25 AUDIO    TITLE "Mr. So And So"    PERFORMER "Big Boy Crudup"    REM COMPOSER ""    ISRC USBB14201046    INDEX 00 02:09:00FILE "25 - Big Boy Crudup - Mr. So And So.wav" WAVE    INDEX 01 00:00:00  TRACK 26 AUDIO    TITLE "Greetings"    PERFORMER "Bob Newman"    REM COMPOSER ""    ISRC DEU471700213    INDEX 00 02:42:52FILE "26 - Bob Newman - Greetings.wav" WAVE    INDEX 01 00:00:00  TRACK 27 AUDIO    TITLE "I'm Back In The Army"    PERFORMER "Tani Allen & His Tennessee Pals"    REM COMPOSER ""    ISRC DEU471700210    INDEX 00 02:41:30FILE "27 - Tani Allen & His Tennessee Pals - I'm Back In The Army.wav" WAVE    INDEX 01 00:00:00  TRACK 28 AUDIO    TITLE "(In Again, Out Again) Packing Up My Barracks Bag Blues"    PERFORMER "Cactus Pryor & His Pricklypears"    REM COMPOSER ""    ISRC DEU471700211    INDEX 00 02:48:48FILE "28 - Cactus Pryor & His Pricklypears - (In Again, Out Again) Packing Up My Barracks Bag Blues.wav" WAVE    INDEX 01 00:00:00  TRACK 29 AUDIO    TITLE "The K.P. Blues"    PERFORMER "Montana Slim (Wilf Carter, The Singing Cowboy)"    REM COMPOSER ""    ISRC USRC11800267    INDEX 00 03:14:13FILE "29 - Montana Slim (Wilf Carter, The Singing Cowboy) - The K.P. Blues.wav" WAVE    INDEX 01 00:00:00  TRACK 30 AUDIO    TITLE "Message From Vic Damone"    PERFORMER "Vic Damone & Vaughn Monroe"    REM COMPOSER ""    ISRC DEU471700214    INDEX 00 02:26:63FILE "30 - Vic Damone & Vaughn Monroe - Message From Vic Damone.wav" WAVE    INDEX 01 00:00:00  TRACK 31 AUDIO    TITLE "The Girls Are Marching"    PERFORMER "The Rockets & Hugo Winterhalter & His Orchestra"    REM COMPOSER ""    ISRC USRC11800268    INDEX 00 01:16:26FILE "31 - The Rockets & Hugo Winterhalter & His Orchestra - The Girls Are Marching.wav" WAVE    INDEX 01 00:00:00

CD2

REM GENRE CountryREM DATE 2018REM DISCID B612771DREM COMMENT "ExactAudioCopy v1.3"PERFORMER "Various"TITLE "Battleground Korea (CD2)"REM COMPOSER ""FILE "01 - Newsreel Announcer - Heading For Korea.wav" WAVE  TRACK 01 AUDIO    TITLE "Heading For Korea"    PERFORMER "Newsreel Announcer"    REM COMPOSER ""    ISRC DEU471700216    INDEX 01 00:00:00  TRACK 02 AUDIO    TITLE "Korea (Fightin' In The Foreign Land)"    PERFORMER "The Gospel Pilgrims"    REM COMPOSER ""    ISRC DEU471700217    INDEX 00 00:33:33FILE "02 - The Gospel Pilgrims - Korea (Fightin' In The Foreign Land).wav" WAVE    INDEX 01 00:00:00  TRACK 03 AUDIO    TITLE "Foxhole In Korea"    PERFORMER "Bill Cason"    REM COMPOSER ""    ISRC DEU471700218    INDEX 00 02:38:63FILE "03 - Bill Cason - Foxhole In Korea.wav" WAVE    INDEX 01 00:00:00  TRACK 04 AUDIO    TITLE "Inchon"    PERFORMER "Steve Rogers"    REM COMPOSER ""    ISRC DEU471700219    INDEX 00 03:00:48FILE "04 - Steve Rogers - Inchon.wav" WAVE    INDEX 01 00:00:00  TRACK 05 AUDIO    TITLE "Thank God For Victory In Korea"    PERFORMER "Jimmie Osborne"    REM COMPOSER ""    ISRC DEU471700223    INDEX 00 04:58:09FILE "05 - Jimmie Osborne - Thank God For Victory In Korea.wav" WAVE    INDEX 01 00:00:00  TRACK 06 AUDIO    TITLE "The Ballad Of Chosin"    PERFORMER "John Carpino"    REM COMPOSER ""    ISRC DEU471700221    INDEX 00 02:54:71FILE "06 - John Carpino - The Ballad Of Chosin.wav" WAVE    INDEX 01 00:00:00  TRACK 07 AUDIO    TITLE "We're Moving On"    PERFORMER "Oscar Brand & Short Arms"    REM COMPOSER ""    ISRC DEU471700222    INDEX 00 04:34:10FILE "07 - Oscar Brand & Short Arms - We're Moving On.wav" WAVE    INDEX 01 00:00:00  TRACK 08 AUDIO    TITLE "I'm In Korea"    PERFORMER "J.B. Lenoir"    REM COMPOSER ""    ISRC DEU471700236    INDEX 00 01:57:14FILE "08 - J.B. Lenoir - I'm In Korea.wav" WAVE    INDEX 01 00:00:00  TRACK 09 AUDIO    TITLE "Robert Pierpoint Under Fire In Korea"    PERFORMER "Eric Sevareid & Robert Pierpoint"    REM COMPOSER ""    ISRC DEU471700224    INDEX 00 03:10:68FILE "09 - Eric Sevareid & Robert Pierpoint - Robert Pierpoint Under Fire In Korea.wav" WAVE    INDEX 01 00:00:00  TRACK 10 AUDIO    TITLE "Heartbreak Ridge"    PERFORMER "Delmore Brothers"    REM COMPOSER ""    ISRC DEU471700225    INDEX 00 01:13:72FILE "10 - Delmore Brothers - Heartbreak Ridge.wav" WAVE    INDEX 01 00:00:00  TRACK 11 AUDIO    TITLE "A Heartsick Soldier On Heartbreak Ridge"    PERFORMER "Ernest Tubb"    REM COMPOSER ""    ISRC DEU471700226    INDEX 00 02:52:28FILE "11 - Ernest Tubb - A Heartsick Soldier On Heartbreak Ridge.wav" WAVE    INDEX 01 00:00:00  TRACK 12 AUDIO    TITLE "Where The Need Is"    PERFORMER "The Four Lads & Edward R. Murrow"    REM COMPOSER ""    ISRC DEU471700227    INDEX 00 03:03:56FILE "12 - The Four Lads & Edward R. Murrow - Where The Need Is.wav" WAVE    INDEX 01 00:00:00  TRACK 13 AUDIO    TITLE "Korean Mud"    PERFORMER "Elton Britt"    REM COMPOSER ""    ISRC USRC11800269    INDEX 00 01:01:64FILE "13 - Elton Britt - Korean Mud.wav" WAVE    INDEX 01 00:00:00  TRACK 14 AUDIO    TITLE "Request For Blood Donations"    PERFORMER "Howdy Doody"    REM COMPOSER ""    ISRC DEU471700229    INDEX 00 02:55:02FILE "14 - Howdy Doody - Request For Blood Donations.wav" WAVE    INDEX 01 00:00:00  TRACK 15 AUDIO    TITLE "No News From Home"    PERFORMER "Tommy (Weepin' And Cryin') Brown"    REM COMPOSER ""    ISRC DEU471700240    INDEX 00 00:37:09FILE "15 - Tommy (Weepin' And Cryin') Brown - No News From Home.wav" WAVE    INDEX 01 00:00:00  TRACK 16 AUDIO    TITLE "Lost In Korea"    PERFORMER "Sherman 'Blues' Johnson & His Clouds Of Joy"    REM COMPOSER ""    ISRC DEU471700230    INDEX 00 03:03:29FILE "16 - Sherman 'Blues' Johnson & His Clouds Of Joy - Lost In Korea.wav" WAVE    INDEX 01 00:00:00  TRACK 17 AUDIO    TITLE "From A Foxhole"    PERFORMER "Jack Powers"    REM COMPOSER ""    ISRC DEU471700232    INDEX 00 03:09:59FILE "17 - Jack Powers - From A Foxhole.wav" WAVE    INDEX 01 00:00:00  TRACK 18 AUDIO    TITLE "A Soldier's Prayer"    PERFORMER "William Cook & The Marshall Brothers"    REM COMPOSER ""    ISRC DEU471700233    INDEX 00 03:16:04FILE "18 - William Cook & The Marshall Brothers - A Soldier's Prayer.wav" WAVE    INDEX 01 00:00:00  TRACK 19 AUDIO    TITLE "Please Say A Prayer (For The Boys Over There)"    PERFORMER "Rocky Porter"    REM COMPOSER ""    ISRC USSM11801607    INDEX 00 03:20:59FILE "19 - Rocky Porter - Please Say A Prayer (For The Boys Over There).wav" WAVE    INDEX 01 00:00:00  TRACK 20 AUDIO    TITLE "Sad News From Korea"    PERFORMER "Lightnin' Hopkins"    REM COMPOSER ""    ISRC DEU471700237    INDEX 00 02:57:03FILE "20 - Lightnin' Hopkins - Sad News From Korea.wav" WAVE    INDEX 01 00:00:00  TRACK 21 AUDIO    TITLE "A Brother In Korea"    PERFORMER "Sonny Osborne"    REM COMPOSER ""    ISRC DEU471700220    INDEX 00 03:11:70FILE "21 - Sonny Osborne - A Brother In Korea.wav" WAVE    INDEX 01 00:00:00  TRACK 22 AUDIO    TITLE "From Mother's Arms To Korea"    PERFORMER "The Louvin Brothers"    REM COMPOSER ""    ISRC DEU471700231    INDEX 00 02:55:05FILE "22 - The Louvin Brothers - From Mother's Arms To Korea.wav" WAVE    INDEX 01 00:00:00  TRACK 23 AUDIO    TITLE "Wrap My Body In Old Glory"    PERFORMER "Carl Sauceman & The Green Valley Boys"    REM COMPOSER ""    ISRC DEU471700241    INDEX 00 02:47:46FILE "23 - Carl Sauceman & The Green Valley Boys - Wrap My Body In Old Glory.wav" WAVE    INDEX 01 00:00:00  TRACK 24 AUDIO    TITLE "Red White And Blue"    PERFORMER "Slim Rhodes"    REM COMPOSER ""    ISRC DEU471700235    INDEX 00 02:38:39FILE "24 - Slim Rhodes - Red White And Blue.wav" WAVE    INDEX 01 00:00:00  TRACK 25 AUDIO    TITLE "Rotation Blues"    PERFORMER "Elton Britt & The Skytoppers"    REM COMPOSER ""    ISRC USRC11800270    INDEX 00 02:29:05FILE "25 - Elton Britt & The Skytoppers - Rotation Blues.wav" WAVE    INDEX 01 00:00:00  TRACK 26 AUDIO    TITLE "Pusan"    PERFORMER "Billy Mize"    REM COMPOSER ""    ISRC DEU471700239    INDEX 00 02:42:14FILE "26 - Billy Mize - Pusan.wav" WAVE    INDEX 01 00:00:00  TRACK 27 AUDIO    TITLE "A Prisoner Of War"    PERFORMER "Jim Eanes"    REM COMPOSER ""    ISRC DEU471700242    INDEX 00 02:10:30FILE "27 - Jim Eanes - A Prisoner Of War.wav" WAVE    INDEX 01 00:00:00  TRACK 28 AUDIO    TITLE "When I Get Back"    PERFORMER "Kay Kellum & His Dixie Ramblers"    REM COMPOSER ""    ISRC DEU471700243    INDEX 00 02:47:06FILE "28 - Kay Kellum & His Dixie Ramblers - When I Get Back.wav" WAVE    INDEX 01 00:00:00  TRACK 29 AUDIO    TITLE "Somewhere In Korea"    PERFORMER "The Kalvin Brothers"    REM COMPOSER ""    ISRC DEU471700244    INDEX 00 02:33:11FILE "29 - The Kalvin Brothers - Somewhere In Korea.wav" WAVE    INDEX 01 00:00:00

CD3

REM GENRE CountryREM DATE 2018REM DISCID F012B71FREM COMMENT "ExactAudioCopy v1.3"PERFORMER "Various"TITLE "Battleground Korea (CD3)"REM COMPOSER ""FILE "01 - Newsreel Announcer - A GI Writes To His Kids - A Posthumous Letter.wav" WAVE  TRACK 01 AUDIO    TITLE "A GI Writes To His Kids - A Posthumous Letter"    PERFORMER "Newsreel Announcer"    REM COMPOSER ""    ISRC DEU471700245    INDEX 01 00:00:00  TRACK 02 AUDIO    TITLE "Dear Little Girls"    PERFORMER "Red Foley"    REM COMPOSER ""    ISRC DEU471700246    INDEX 00 01:09:22FILE "02 - Red Foley - Dear Little Girls.wav" WAVE    INDEX 01 00:00:00  TRACK 03 AUDIO    TITLE "Daddy's Last Letter"    PERFORMER "Tex Ritter"    REM COMPOSER ""    ISRC DEU471700247    INDEX 00 03:00:24FILE "03 - Tex Ritter - Daddy's Last Letter.wav" WAVE    INDEX 01 00:00:00  TRACK 04 AUDIO    TITLE "Two Letters"    PERFORMER "Tiny Hill"    REM COMPOSER ""    ISRC DEU471700248    INDEX 00 03:21:20FILE "04 - Tiny Hill - Two Letters.wav" WAVE    INDEX 01 00:00:00  TRACK 05 AUDIO    TITLE "When They Drop The Atomic Bomb"    PERFORMER "Jackie Doll & His Pickled Peppers"    REM COMPOSER ""    ISRC DEU471700249    INDEX 00 02:54:67FILE "05 - Jackie Doll & His Pickled Peppers - When They Drop The Atomic Bomb.wav" WAVE    INDEX 01 00:00:00  TRACK 06 AUDIO    TITLE "The Truman-MacArthur Dispute"    PERFORMER "Alan Jackson & President Truman"    REM COMPOSER ""    ISRC DEU471700250    INDEX 00 02:39:01FILE "06 - Alan Jackson & President Truman - The Truman-MacArthur Dispute.wav" WAVE    INDEX 01 00:00:00  TRACK 07 AUDIO    TITLE "Oh! Mr. President"    PERFORMER "R.D. Henden & The Western Jamboree Cowboys"    REM COMPOSER ""    ISRC DEU471700251    INDEX 00 01:54:38FILE "07 - R.D. Henden & The Western Jamboree Cowboys - Oh! Mr. President.wav" WAVE    INDEX 01 00:00:00  TRACK 08 AUDIO    TITLE "General Of The Army Douglas MacArthur's Report To Congress"    PERFORMER "General MacArthur"    REM COMPOSER ""    ISRC DEU471700252    INDEX 00 03:04:55FILE "08 - General MacArthur - General Of The Army Douglas MacArthur's Report To Congress.wav" WAVE    INDEX 01 00:00:00  TRACK 09 AUDIO    TITLE "Old Soldiers Never Die"    PERFORMER "Gene Autry"    REM COMPOSER ""    ISRC USSM10414452    INDEX 00 01:21:42FILE "09 - Gene Autry - Old Soldiers Never Die.wav" WAVE    INDEX 01 00:00:00  TRACK 10 AUDIO    TITLE "(Old Generals Never Die) They Just Fade Away"    PERFORMER "Jimmie Short & The Silver Saddle Ranch Boys"    REM COMPOSER ""    ISRC DEU471700254    INDEX 00 03:14:71FILE "10 - Jimmie Short & The Silver Saddle Ranch Boys - (Old Generals Never Die) They Just Fade Away.wav" WAVE    INDEX 01 00:00:00  TRACK 11 AUDIO    TITLE "Fade Away Baby"    PERFORMER "Ray Snead"    REM COMPOSER ""    ISRC DEU471700255    INDEX 00 02:52:58FILE "11 - Ray Snead - Fade Away Baby.wav" WAVE    INDEX 01 00:00:00  TRACK 12 AUDIO    TITLE "Rep. James E. Van Zandt Supports The Use Of The Atomic Bomb In Korea"    PERFORMER "James E. Van Zandt"    REM COMPOSER ""    ISRC DEU471700256    INDEX 00 02:27:62FILE "12 - James E. Van Zandt - Rep. James E. Van Zandt Supports The Use Of The Atomic Bomb In Korea.wav" WAVE    INDEX 01 00:00:00  TRACK 13 AUDIO    TITLE "Please Daddy, Don't Go To War"    PERFORMER "'Skeets' McDonald"    REM COMPOSER ""    ISRC DEU471700257    INDEX 00 00:18:03FILE "13 - 'Skeets' McDonald - Please Daddy, Don't Go To War.wav" WAVE    INDEX 01 00:00:00  TRACK 14 AUDIO    TITLE "Why Does The Army Need My Daddy"    PERFORMER "George Simerly & His Tennesseans"    REM COMPOSER ""    ISRC DEU471700258    INDEX 00 02:59:56FILE "14 - George Simerly & His Tennesseans - Why Does The Army Need My Daddy.wav" WAVE    INDEX 01 00:00:00  TRACK 15 AUDIO    TITLE "God Bless My Daddy"    PERFORMER "Cecil Gant"    REM COMPOSER ""    ISRC DEU471700259    INDEX 00 03:06:44FILE "15 - Cecil Gant - God Bless My Daddy.wav" WAVE    INDEX 01 00:00:00  TRACK 16 AUDIO    TITLE "Don't Steal Daddy's Medal"    PERFORMER "Oklahoma Sweethearts"    REM COMPOSER ""    ISRC DEU471700260    INDEX 00 02:47:28FILE "16 - Oklahoma Sweethearts - Don't Steal Daddy's Medal.wav" WAVE    INDEX 01 00:00:00  TRACK 17 AUDIO    TITLE "God Is On Our Side"    PERFORMER "Jimmie Heap & The Melody Masters"    REM COMPOSER ""    ISRC DEU471700261    INDEX 00 02:27:02FILE "17 - Jimmie Heap & The Melody Masters - God Is On Our Side.wav" WAVE    INDEX 01 00:00:00  TRACK 18 AUDIO    TITLE "I'll Be Glad When It's Over (Over There)"    PERFORMER "The Dixie Ramblers"    REM COMPOSER ""    ISRC DEU471700262    INDEX 00 02:57:35FILE "18 - The Dixie Ramblers - I'll Be Glad When It's Over (Over There).wav" WAVE    INDEX 01 00:00:00  TRACK 19 AUDIO    TITLE "I'm Prayin' For The Day (When Peace Will Come)"    PERFORMER "Roscoe Hankins"    REM COMPOSER ""    ISRC DEU471700263    INDEX 00 03:12:70FILE "19 - Roscoe Hankins - I'm Prayin' For The Day (When Peace Will Come).wav" WAVE    INDEX 01 00:00:00  TRACK 20 AUDIO    TITLE "Heavenly Father"    PERFORMER "Edna McGriff"    REM COMPOSER ""    ISRC DEU471700264    INDEX 00 02:28:57FILE "20 - Edna McGriff - Heavenly Father.wav" WAVE    INDEX 01 00:00:00  TRACK 21 AUDIO    TITLE "At Mail Call Today"    PERFORMER "Gene Autry"    REM COMPOSER ""    ISRC USSM14400059    INDEX 00 02:43:21FILE "21 - Gene Autry - At Mail Call Today.wav" WAVE    INDEX 01 00:00:00  TRACK 22 AUDIO    TITLE "A Dear John Letter"    PERFORMER "Jean Shepard & Ferlin Husky"    REM COMPOSER ""    ISRC DEU471700266    INDEX 00 02:46:34FILE "22 - Jean Shepard & Ferlin Husky - A Dear John Letter.wav" WAVE    INDEX 01 00:00:00  TRACK 23 AUDIO    TITLE "John's Reply"    PERFORMER "Pete Lane & Bernice Stabile"    REM COMPOSER ""    ISRC DEU471700267    INDEX 00 02:30:51FILE "23 - Pete Lane & Bernice Stabile - John's Reply.wav" WAVE    INDEX 01 00:00:00  TRACK 24 AUDIO    TITLE "Dear Joan"    PERFORMER "Jack Cardwell"    REM COMPOSER ""    ISRC DEU471700268    INDEX 00 02:40:36FILE "24 - Jack Cardwell - Dear Joan.wav" WAVE    INDEX 01 00:00:00  TRACK 25 AUDIO    TITLE "Forgive Me John"    PERFORMER "Jean Shepard & Ferlin Husky"    REM COMPOSER ""    ISRC DEU471700269    INDEX 00 02:41:16FILE "25 - Jean Shepard & Ferlin Husky - Forgive Me John.wav" WAVE    INDEX 01 00:00:00  TRACK 26 AUDIO    TITLE "Male Call"    PERFORMER "Emitt Slay Trio"    REM COMPOSER ""    ISRC DEU471700270    INDEX 00 02:25:26FILE "26 - Emitt Slay Trio - Male Call.wav" WAVE    INDEX 01 00:00:00  TRACK 27 AUDIO    TITLE "A Letter From Home"    PERFORMER "Hank Penny"    REM COMPOSER ""    ISRC DEU471700271    INDEX 00 02:29:66FILE "27 - Hank Penny - A Letter From Home.wav" WAVE    INDEX 01 00:00:00  TRACK 28 AUDIO    TITLE "I Like Ike"    PERFORMER "The Promenade Band"    REM COMPOSER ""    ISRC USRC11800271    INDEX 00 03:39:03FILE "28 - The Promenade Band - I Like Ike.wav" WAVE    INDEX 01 00:00:00  TRACK 29 AUDIO    TITLE "I Shall Go To Korea"    PERFORMER "General Eisenhower"    REM COMPOSER ""    ISRC DEU471700273    INDEX 00 02:42:20FILE "29 - General Eisenhower - I Shall Go To Korea.wav" WAVE    INDEX 01 00:00:00  TRACK 30 AUDIO    TITLE "Drive Soldier Drive"    PERFORMER "Little Maxie"    REM COMPOSER ""    ISRC DEU471700274    INDEX 00 01:14:42FILE "30 - Little Maxie - Drive Soldier Drive.wav" WAVE    INDEX 01 00:00:00  TRACK 31 AUDIO    TITLE "Five Star President"    PERFORMER "Eddie Kirk"    REM COMPOSER ""    ISRC USRC11800272    INDEX 00 02:59:28FILE "31 - Eddie Kirk - Five Star President.wav" WAVE    INDEX 01 00:00:00

CD4

REM GENRE CountryREM DATE 2018REM DISCID AD12BC1EREM COMMENT "ExactAudioCopy v1.3"PERFORMER "Various"TITLE "Battleground Korea (CD4)"REM COMPOSER ""FILE "01 - President Eisenhower - President Eisenhower Announces An Armistice In Korea.wav" WAVE  TRACK 01 AUDIO    TITLE "President Eisenhower Announces An Armistice In Korea"    PERFORMER "President Eisenhower"    REM COMPOSER ""    ISRC DEU471700276    INDEX 01 00:00:00FILE "02 - Sister Rosetta Tharpe - There's Peace In Korea.wav" WAVE  TRACK 02 AUDIO    TITLE "There's Peace In Korea"    PERFORMER "Sister Rosetta Tharpe"    REM COMPOSER ""    ISRC DEU471700277    INDEX 01 00:00:00FILE "03 - The Revelers - Ike.wav" WAVE  TRACK 03 AUDIO    TITLE "Ike"    PERFORMER "The Revelers"    REM COMPOSER ""    ISRC DEU471700278    INDEX 01 00:00:00FILE "04 - Jimmie Osborne - The Korean Story.wav" WAVE  TRACK 04 AUDIO    TITLE "The Korean Story"    PERFORMER "Jimmie Osborne"    REM COMPOSER ""    ISRC DEU471700279    INDEX 01 00:00:00FILE "05 - Big Boy Crudup - The War Is Over.wav" WAVE  TRACK 05 AUDIO    TITLE "The War Is Over"    PERFORMER "Big Boy Crudup"    REM COMPOSER ""    ISRC USBB19900246    INDEX 01 00:00:00FILE "06 - Lightnin' Hopkins - The War Is Over.wav" WAVE  TRACK 06 AUDIO    TITLE "The War Is Over"    PERFORMER "Lightnin' Hopkins"    REM COMPOSER ""    ISRC DEU471700281    INDEX 01 00:00:00FILE "07 - Soldier Boy Houston - Leavin' Korea.wav" WAVE  TRACK 07 AUDIO    TITLE "Leavin' Korea"    PERFORMER "Soldier Boy Houston"    REM COMPOSER ""    ISRC DEU471700282    INDEX 01 00:00:00FILE "08 - Jimmie Dale - Hello Maria.wav" WAVE  TRACK 08 AUDIO    TITLE "Hello Maria"    PERFORMER "Jimmie Dale"    REM COMPOSER ""    ISRC DEU471700283    INDEX 01 00:00:00FILE "09 - King Perry Orchestra & Dell St. John - Welcome Home Baby.wav" WAVE  TRACK 09 AUDIO    TITLE "Welcome Home Baby"    PERFORMER "King Perry Orchestra & Dell St. John"    REM COMPOSER ""    ISRC DEU471700284    INDEX 01 00:00:00FILE "10 - Rose Brown & Jimmie Harris - Back From Korea.wav" WAVE  TRACK 10 AUDIO    TITLE "Back From Korea"    PERFORMER "Rose Brown & Jimmie Harris"    REM COMPOSER ""    ISRC DEU471700285    INDEX 01 00:00:00FILE "11 - Dave Bartholomew - No More Black Nights.wav" WAVE  TRACK 11 AUDIO    TITLE "No More Black Nights"    PERFORMER "Dave Bartholomew"    REM COMPOSER ""    ISRC DEU471700286    INDEX 01 00:00:00FILE "12 - Jimmy Witherspoon - Back Home.wav" WAVE  TRACK 12 AUDIO    TITLE "Back Home"    PERFORMER "Jimmy Witherspoon"    REM COMPOSER ""    ISRC DEU471700287    INDEX 01 00:00:00FILE "13 - Margie Collie - His New War Bride.wav" WAVE  TRACK 13 AUDIO    TITLE "His New War Bride"    PERFORMER "Margie Collie"    REM COMPOSER ""    ISRC DEU471700288    INDEX 01 00:00:00FILE "14 - Newsreel Announcer - Harry Holt Brings Korean War Orphans To Portland, Oregon.wav" WAVE  TRACK 14 AUDIO    TITLE "Harry Holt Brings Korean War Orphans To Portland, Oregon"    PERFORMER "Newsreel Announcer"    REM COMPOSER ""    ISRC DEU471700289    INDEX 01 00:00:00FILE "15 - Kwan Li - The Legend Of Harry Holt.wav" WAVE  TRACK 15 AUDIO    TITLE "The Legend Of Harry Holt"    PERFORMER "Kwan Li"    REM COMPOSER ""    ISRC DEU471700290    INDEX 01 00:00:00FILE "16 - Don Windle - The Iron Curtain Has Parted.wav" WAVE  TRACK 16 AUDIO    TITLE "The Iron Curtain Has Parted"    PERFORMER "Don Windle"    REM COMPOSER ""    ISRC DEU471700291    INDEX 01 00:00:00FILE "17 - Ernest Tubb - Missing In Action.wav" WAVE  TRACK 17 AUDIO    TITLE "Missing In Action"    PERFORMER "Ernest Tubb"    REM COMPOSER ""    ISRC DEU471700292    INDEX 01 00:00:00FILE "18 - Smilin' Jim Eanes & His Shenandoah Valley Boys - Returned From Missing In Action.wav" WAVE  TRACK 18 AUDIO    TITLE "Returned From Missing In Action"    PERFORMER "Smilin' Jim Eanes & His Shenandoah Valley Boys"    REM COMPOSER ""    ISRC DEU471700293    INDEX 01 00:00:00FILE "19 - Billy Strange - I'm Still A Prisoner.wav" WAVE  TRACK 19 AUDIO    TITLE "I'm Still A Prisoner"    PERFORMER "Billy Strange"    REM COMPOSER ""    ISRC DEU471700294    INDEX 01 00:00:00FILE "20 - Merle Travis - Re-Enlistment Blues.wav" WAVE  TRACK 20 AUDIO    TITLE "Re-Enlistment Blues"    PERFORMER "Merle Travis"    REM COMPOSER ""    ISRC DEU471700295    INDEX 01 00:00:00FILE "21 - Red River Boys - The Red Deck Of Cards.wav" WAVE  TRACK 21 AUDIO    TITLE "The Red Deck Of Cards"    PERFORMER "Red River Boys"    REM COMPOSER ""    ISRC DEU471700296    INDEX 01 00:00:00FILE "22 - Eddie Hill - I Changed My Mind (And I'll Go Home Again).wav" WAVE  TRACK 22 AUDIO    TITLE "I Changed My Mind (And I'll Go Home Again)"    PERFORMER "Eddie Hill"    REM COMPOSER ""    ISRC USRC11800273    INDEX 01 00:00:00FILE "23 - Jim & Jesse & The Virginia Boys - Purple Heart.wav" WAVE  TRACK 23 AUDIO    TITLE "Purple Heart"    PERFORMER "Jim & Jesse & The Virginia Boys"    REM COMPOSER ""    ISRC DEU471700298    INDEX 01 00:00:00FILE "24 - Don 'Red' Barry - White Cross In Korea.wav" WAVE  TRACK 24 AUDIO    TITLE "White Cross In Korea"    PERFORMER "Don 'Red' Barry"    REM COMPOSER ""    ISRC DEU471700299    INDEX 01 00:00:00FILE "25 - Marvin Rainwater - Korea's Mountain Northland.wav" WAVE  TRACK 25 AUDIO    TITLE "Korea's Mountain Northland"    PERFORMER "Marvin Rainwater"    REM COMPOSER ""    ISRC DEU471700300    INDEX 01 00:00:00FILE "26 - Carl Sauceman & The Green Valley Boys - A White Cross Marks The Grave.wav" WAVE  TRACK 26 AUDIO    TITLE "A White Cross Marks The Grave"    PERFORMER "Carl Sauceman & The Green Valley Boys"    REM COMPOSER ""    ISRC DEU471700301    INDEX 01 00:00:00FILE "27 - Elton Britt - The Unknown Soldier.wav" WAVE  TRACK 27 AUDIO    TITLE "The Unknown Soldier"    PERFORMER "Elton Britt"    REM COMPOSER ""    ISRC USRC11800274    INDEX 01 00:00:00FILE "28 - Red River Dave - Searching For You, Buddy.wav" WAVE  TRACK 28 AUDIO    TITLE "Searching For You, Buddy"    PERFORMER "Red River Dave"    REM COMPOSER ""    ISRC DEU471700303    INDEX 01 00:00:00FILE "29 - Don Reno, Red Smiley & The Tennessee Cutups - Forgotten Men.wav" WAVE  TRACK 29 AUDIO    TITLE "Forgotten Men"    PERFORMER "Don Reno, Red Smiley & The Tennessee Cutups"    REM COMPOSER ""    ISRC DEU471700304    INDEX 01 00:00:00FILE "30 - Dick Curless (The Rice Paddy Ranger) - China Nights (Shina No Yoru).wav" WAVE  TRACK 30 AUDIO    TITLE "China Nights (Shina No Yoru)"    PERFORMER "Dick Curless (The Rice Paddy Ranger)"    REM COMPOSER ""    ISRC DEU471700305    INDEX 01 00:00:00
Вы не можете начинать темы
Вы не можете отвечать на сообщения
Вы не можете редактировать свои сообщения
Вы не можете удалять свои сообщения
Вы не можете голосовать в опросах
Вы не можете прикреплять файлы к сообщениям
Вы можете скачивать файлы
!ВНИМАНИЕ!

Сайт не предоставляет электронные версии произведений, а занимается лишь коллекционированием и каталогизацией ссылок, присылаемых и публикуемых на форуме нашими читателями. Если вы являетесь правообладателем какого-либо представленного материала и не желаете, чтобы ссылка на него находилась в нашем каталоге, свяжитесь с нами, и мы незамедлительно удалим ее. Файлы для обмена на трекере предоставлены пользователями сайта, и администрация не несет ответственности за их содержание. Просьба не заливать файлы, защищенные авторскими правами, а также файлы нелегального содержания!

Искали программы, игры, дополнения, музыка mp3, аниме, аудио книги, журналы? Добро пожаловать на свободный торрент трекер Torrents, у нас можно скачать бесплатно, без смс и регистрации и прочих ограничений лучшие, отборные сборки программ, игр. Скачать торрентом не составит труда даже не опытному пользователю. Раздачи ежедневно обновляются, только лучшие и качественные раздачи, подробные описания и скриншоты. Огромная коллекция программ для работы со звуком, графикой, дизайном, а так же множество плагинов и инструментов к ним с подробной инструкцией и рекомендациями. Прошивки для навигаторов, карты. Разнообразные игры, для Windows, Linux. В коллекцие есть и старые игры любых жанров, Rpg, Action, Shooter, strategy Множество дополнений, модификаций, сценариев для популярных игр в жанре экш, рпг, гонки, стратегии, логические игры. Множество аддонов и сценариев для Microsoft Flight Simulator Большая коллекция книг, учебников. Если нет возможности купить печатное издание - смело скачивайте цифровую версию книги или, быть может, журнала. Не любите читать - можно загрузить бесплатно аудикнигу. Для веб дизайнеров и программистов так же найдется множество специализированного софта, таких как: редакторы с подсветкой, среды программирования, компоненты, системы управления базами данных, разнообразные скрипты и шаблоны. Не так давно у нас появился материал для автолюбителей и владельцев мото - оригинальные и неоригинальные каталоги запчастей, книги и журналы по ремонту и обслуживанию, видеоуроки, статьи по чип тюнингу, прошивкам. Процедура получения контента элементарная, достаточно просто скачать торрент файл и добавить его в загрузку в вашем торрент клиенте. Если у вас нет специального торрент клиента, вы можете его скачать у нас.

تحميل | Jo Tu Na Mila - Single - Asim Azhar | This War of Mine All Unlimited