(Melodic rock) [CD] VA - Acoustic Affair - Under the moon - 1996, FLAC (image+.cue), lossless 

Цитировать
Acoustic Affair / Under the moon
Жанр: Melodic rock
Носитель: CD
Страна-производитель диска (релиза): Германия
Год издания: 1996
Издатель (лейбл): Hajo Bnder
Страна исполнителя (группы): Германия
Аудиокодек: FLAC (*.flac)
Тип рипа: image+.cue
Битрейт аудио: lossless
Продолжительность: 00:53:53
Источник (релизер): tulpan007
Наличие сканов в содержимом раздачи: нет
Треклист:
01. The first time (Interpr. Campfire)
02. Teach your children (Interpr. Campfire)
03. You can depend on me (I. Campfire)
04. That lonesome road (Interpr. Campfire)
05. Where do the children play (I. A. Affair)
06. Time after time (Interpr. Acoustic Affair)
07. Helplessly hoping (I. Acoustic Affair)
08. Separate lives (Interpr. Acoustic Affair)
09. Don't think twice (Interpr. Hajo Binder)
10. I'm on fire (Interpr. Hajo Binder)
11. Lazy day (Interpr. Hajo Binder)
12. Are you sitting comfortably (I. H. Binder)
13. Let it rain (Interpr. Susanne Michels)
14. Let me go (A. Doerne + S. Michels)
15. The heart of the matter (I. S. Michels)
16. Man in the moon (S. Michels/A. Doerne)

Лог создания рипа

Exact Audio Copy V1.3 from 2. September 2016
EAC extraction logfile from 24. April 2017, 12:58
Various / Under The Moon
Used drive : hp CDDVDW TS-H653T Adapter: 1 ID: 0
Read mode : SecureUtilize accurate stream : YesDefeat audio cache : YesMake use of C2 pointers : No
Read offset correction : 6Overread into Lead-In and Lead-Out : NoFill up missing offset samples with silence : YesDelete leading and trailing silent blocks : NoNull samples used in CRC calculations : YesUsed interface : Native Win32 interface for Win NT & 2000
Used output format : User Defined EncoderSelected bitrate : 128 kBit/sQuality : HighAdd ID3 tag : NoCommand line compressor : C:\Program Files\Exact Audio Copy\Flac\flac.exeAdditional command line options : -V -8 -T "Date=%year%" -T "Genre=%genre%" %source%
TOC of the extracted CD
Track | Start | Length | Start sector | End sector --------------------------------------------------------- 1 | 0:00.00 | 3:06.34 | 0 | 13983 2 | 3:06.34 | 2:45.51 | 13984 | 26409 3 | 5:52.10 | 2:45.12 | 26410 | 38796 4 | 8:37.22 | 2:11.65 | 38797 | 48686 5 | 10:49.12 | 3:19.35 | 48687 | 63646 6 | 14:08.47 | 3:55.15 | 63647 | 81286 7 | 18:03.62 | 2:19.58 | 81287 | 91769 8 | 20:23.45 | 4:54.52 | 91770 | 113871 9 | 25:18.22 | 3:23.18 | 113872 | 129114 10 | 28:41.40 | 2:41.17 | 129115 | 141206 11 | 31:22.57 | 2:55.40 | 141207 | 154371 12 | 34:18.22 | 3:35.18 | 154372 | 170514 13 | 37:53.40 | 4:25.62 | 170515 | 190451 14 | 42:19.27 | 4:06.63 | 190452 | 208964 15 | 46:26.15 | 5:31.72 | 208965 | 233861 16 | 51:58.12 | 1:55.15 | 233862 | 242501
Range status and errors
Selected range
Filename C:\Users\ds_engineer\Music\Various - Under The Moon.wav
Peak level 98.0 % Extraction speed 7.2 X Range quality 99.9 % Copy CRC 8F98EBE3 Copy OK
No errors occurred
End of status report
==== Log checksum D2CBFCC5F34F9D0912F1947D9F6D173185B5BC193A357CC648C4744268EF28B0 ====

Об альбоме (сборнике)

http://www.acoustic-affair.de/CD_Under_the_moon.html
Это неизвестный в России сборник каверов, который записали, собравшись, разные певцы, сделав, на мой взгляд, прекрасное "домашнее" многоголосие.
Вы не можете начинать темы
Вы не можете отвечать на сообщения
Вы не можете редактировать свои сообщения
Вы не можете удалять свои сообщения
Вы не можете голосовать в опросах
Вы не можете прикреплять файлы к сообщениям
Вы можете скачивать файлы
!ВНИМАНИЕ!

Сайт не предоставляет электронные версии произведений, а занимается лишь коллекционированием и каталогизацией ссылок, присылаемых и публикуемых на форуме нашими читателями. Если вы являетесь правообладателем какого-либо представленного материала и не желаете, чтобы ссылка на него находилась в нашем каталоге, свяжитесь с нами, и мы незамедлительно удалим ее. Файлы для обмена на трекере предоставлены пользователями сайта, и администрация не несет ответственности за их содержание. Просьба не заливать файлы, защищенные авторскими правами, а также файлы нелегального содержания!

Искали программы, игры, дополнения, музыка mp3, аниме, аудио книги, журналы? Добро пожаловать на свободный торрент трекер Torrents, у нас можно скачать бесплатно, без смс и регистрации и прочих ограничений лучшие, отборные сборки программ, игр. Скачать торрентом не составит труда даже не опытному пользователю. Раздачи ежедневно обновляются, только лучшие и качественные раздачи, подробные описания и скриншоты. Огромная коллекция программ для работы со звуком, графикой, дизайном, а так же множество плагинов и инструментов к ним с подробной инструкцией и рекомендациями. Прошивки для навигаторов, карты. Разнообразные игры, для Windows, Linux. В коллекцие есть и старые игры любых жанров, Rpg, Action, Shooter, strategy Множество дополнений, модификаций, сценариев для популярных игр в жанре экш, рпг, гонки, стратегии, логические игры. Множество аддонов и сценариев для Microsoft Flight Simulator Большая коллекция книг, учебников. Если нет возможности купить печатное издание - смело скачивайте цифровую версию книги или, быть может, журнала. Не любите читать - можно загрузить бесплатно аудикнигу. Для веб дизайнеров и программистов так же найдется множество специализированного софта, таких как: редакторы с подсветкой, среды программирования, компоненты, системы управления базами данных, разнообразные скрипты и шаблоны. Не так давно у нас появился материал для автолюбителей и владельцев мото - оригинальные и неоригинальные каталоги запчастей, книги и журналы по ремонту и обслуживанию, видеоуроки, статьи по чип тюнингу, прошивкам. Процедура получения контента элементарная, достаточно просто скачать торрент файл и добавить его в загрузку в вашем торрент клиенте. Если у вас нет специального торрент клиента, вы можете его скачать у нас.

Kuroko no Basket 275 | Haikyuu!! | Wishmaster