(Various) [CD] VA - De Pre Historie 1968 [EMI/Virgin, 260.740, Belgium] - 1990, FLAC (tracks+.cue), lossless 

Цитировать
De Pre Historie 1968
Жанр: Various
Носитель: CD
Страна-производитель диска (релиза): Belgium
Год издания: 1990
Издатель (лейбл): EMI/Virgin
Номер по каталогу: 260.740
Аудиокодек: FLAC (*.flac)
Тип рипа: tracks+.cue
Битрейт аудио: lossless
Продолжительность: 00:58:35
Источник (релизер): From RED
Наличие сканов в содержимом раздачи: нет

Треклист:
01. Otis Redding – The Dock Of The Bay
02. The Moody Blues – Nights In White Satin
03. Marbles – Only One Woman
04. Bee Gees – World
05. Aphrodite's Child – Rain And Tears
06. Louis Armstrong – What A Wonderful World
07. John Rowles – If I Only Had Time
08. Esther & Abi Ofarim – Cinderella Rockefella
09. Dusty Springfield – Son Of A Preacherman
10. Marvin Gaye – I Heard It Through The Grapevine
11. Tom Jones – Delilah
12. The Love Affair – Everlasting Love
13. Amen Corner – Bend Me, Shape Me
14. Small Faces – Tin Soldier
15. Canned Heat – On The Road Again
16. New Inspiration – You Made A Fool Of Me
17. Jess & James – Something For Nothing
18. Billy Joe Royal – Hush
19. Julie Driscoll – This Wheel's On Fire
20. Arthur Brown – Fire

Лог создания рипа

Exact Audio Copy V1.3 from 2. September 2016
EAC extraction logfile from 19. May 2017, 1:45
Various Artists / De Pre Historie 1968
Used drive : ATAPI iHAS124 F Adapter: 1 ID: 2
Read mode : SecureUtilize accurate stream : YesDefeat audio cache : YesMake use of C2 pointers : No
Read offset correction : 6Overread into Lead-In and Lead-Out : NoFill up missing offset samples with silence : YesDelete leading and trailing silent blocks : NoNull samples used in CRC calculations : YesUsed interface : Native Win32 interface for Win NT & 2000Gap handling : Appended to previous track
Used output format : User Defined EncoderSelected bitrate : 1024 kBit/sQuality : HighAdd ID3 tag : NoCommand line compressor : C:\cmd.exeAdditional command line options : /c ""C:\F\CUETools.FLACCL.cmd.exe" -8 --verify %source% -o %dest% & "C:\M\metaflac.exe" --set-tag="ARTIST=%artist%" --set-tag="TITLE=%title%" --set-tag="ALBUM=%albumtitle%" --set-tag="DATE=%year%" --set-tag="TRACKNUMBER=%tracknr%" --set-tag="GENRE=%genre%" --set-tag="COMPOSER=%composer%" --set-tag="ALBUMARTIST=%albumartist%" %dest%"
TOC of the extracted CD
Track | Start | Length | Start sector | End sector --------------------------------------------------------- 1 | 0:00.33 | 2:41.55 | 33 | 12162 2 | 2:42.13 | 4:23.02 | 12163 | 31889 3 | 7:05.15 | 2:43.55 | 31890 | 44169 4 | 9:48.70 | 3:09.30 | 44170 | 58374 5 | 12:58.25 | 3:08.73 | 58375 | 72547 6 | 16:07.23 | 2:15.60 | 72548 | 82732 7 | 18:23.08 | 2:44.45 | 82733 | 95077 8 | 21:07.53 | 2:28.12 | 95078 | 106189 9 | 23:35.65 | 2:25.28 | 106190 | 117092 10 | 26:01.18 | 3:15.72 | 117093 | 131789 11 | 29:17.15 | 3:16.58 | 131790 | 146547 12 | 32:33.73 | 2:53.47 | 146548 | 159569 13 | 35:27.45 | 2:35.35 | 159570 | 171229 14 | 38:03.05 | 3:19.03 | 171230 | 186157 15 | 41:22.08 | 3:23.25 | 186158 | 201407 16 | 44:45.33 | 2:31.05 | 201408 | 212737 17 | 47:16.38 | 2:29.60 | 212738 | 223972 18 | 49:46.23 | 2:27.60 | 223973 | 235057 19 | 52:14.08 | 3:32.25 | 235058 | 250982 20 | 55:46.33 | 2:56.10 | 250983 | 264192
Track 1
Filename E:\EAC Rips\2017-05 Mei\Various Artists - De Pre Historie 1968 (1990) [FLAC] {BMG 260.740}\01 - Otis Redding - The Dock Of The Bay.wav
Pre-gap length 0:00:02.33
Peak level 91.2 % Extraction speed 1.8 X Track quality 100.0 % Test CRC F8602534 Copy CRC F8602534 Accurately ripped (confidence 6) [7B3A754C] (AR v2) Copy OK
Track 2
Filename E:\EAC Rips\2017-05 Mei\Various Artists - De Pre Historie 1968 (1990) [FLAC] {BMG 260.740}\02 - The Moody Blues - Night In White Satin.wav
Pre-gap length 0:00:00.45
Peak level 84.8 % Extraction speed 2.1 X Track quality 100.0 % Test CRC 21CF4878 Copy CRC 21CF4878 Accurately ripped (confidence 6) [9E51D96C] (AR v2) Copy OK
Track 3
Filename E:\EAC Rips\2017-05 Mei\Various Artists - De Pre Historie 1968 (1990) [FLAC] {BMG 260.740}\03 - The Marbles - Only One Woman.wav
Pre-gap length 0:00:00.25
Peak level 94.6 % Extraction speed 2.1 X Track quality 100.0 % Test CRC 2020B725 Copy CRC 2020B725 Accurately ripped (confidence 6) [42A707E2] (AR v2) Copy OK
Track 4
Filename E:\EAC Rips\2017-05 Mei\Various Artists - De Pre Historie 1968 (1990) [FLAC] {BMG 260.740}\04 - Bee Gees - World.wav
Pre-gap length 0:00:00.40
Peak level 91.6 % Extraction speed 2.3 X Track quality 100.0 % Test CRC 4A7A34E8 Copy CRC 4A7A34E8 Accurately ripped (confidence 6) [173694E1] (AR v2) Copy OK
Track 5
Filename E:\EAC Rips\2017-05 Mei\Various Artists - De Pre Historie 1968 (1990) [FLAC] {BMG 260.740}\05 - Aphrodite's Child - Rain And Tears.wav
Pre-gap length 0:00:00.05
Peak level 97.3 % Extraction speed 2.4 X Track quality 100.0 % Test CRC BA629FEA Copy CRC BA629FEA Accurately ripped (confidence 6) [10C9F01D] (AR v2) Copy OK
Track 6
Filename E:\EAC Rips\2017-05 Mei\Various Artists - De Pre Historie 1968 (1990) [FLAC] {BMG 260.740}\06 - Louis Armstrong - What A Wonderful World.wav
Pre-gap length 0:00:00.20
Peak level 95.5 % Extraction speed 2.0 X Track quality 99.9 % Test CRC 3EC4898D Copy CRC 3EC4898D Accurately ripped (confidence 6) [16A05A7D] (AR v2) Copy OK
Track 7
Filename E:\EAC Rips\2017-05 Mei\Various Artists - De Pre Historie 1968 (1990) [FLAC] {BMG 260.740}\07 - John Rowles - If I Only Had Time.wav
Pre-gap length 0:00:00.30
Peak level 95.8 % Extraction speed 2.5 X Track quality 100.0 % Test CRC D03F90B2 Copy CRC D03F90B2 Accurately ripped (confidence 6) [1AD4D928] (AR v2) Copy OK
Track 8
Filename E:\EAC Rips\2017-05 Mei\Various Artists - De Pre Historie 1968 (1990) [FLAC] {BMG 260.740}\08 - Esther & Abi Ofarim - Cinderella Rockefella.wav
Pre-gap length 0:00:00.43
Peak level 83.9 % Extraction speed 2.6 X Track quality 100.0 % Test CRC 195AF489 Copy CRC 195AF489 Accurately ripped (confidence 5) [4AD4B03B] (AR v2) Copy OK
Track 9
Filename E:\EAC Rips\2017-05 Mei\Various Artists - De Pre Historie 1968 (1990) [FLAC] {BMG 260.740}\09 - Dusty Springfield - Son Of A Preacherman.wav
Pre-gap length 0:00:00.35
Peak level 90.5 % Extraction speed 2.7 X Track quality 100.0 % Test CRC 738CF90A Copy CRC 738CF90A Accurately ripped (confidence 5) [A948EDCF] (AR v2) Copy OK
Track 10
Filename E:\EAC Rips\2017-05 Mei\Various Artists - De Pre Historie 1968 (1990) [FLAC] {BMG 260.740}\10 - Marvin Gaye - I Heard It Through The Grapevine.wav
Pre-gap length 0:00:00.10
Peak level 86.9 % Extraction speed 2.9 X Track quality 100.0 % Test CRC 7805715D Copy CRC 7805715D Accurately ripped (confidence 5) [99BD5D2F] (AR v2) Copy OK
Track 11
Filename E:\EAC Rips\2017-05 Mei\Various Artists - De Pre Historie 1968 (1990) [FLAC] {BMG 260.740}\11 - Tom Jones - Delilah.wav
Pre-gap length 0:00:01.05
Peak level 86.3 % Extraction speed 3.0 X Track quality 100.0 % Test CRC A7044264 Copy CRC A7044264 Accurately ripped (confidence 6) [82CCDF90] (AR v2) Copy OK
Track 12
Filename E:\EAC Rips\2017-05 Mei\Various Artists - De Pre Historie 1968 (1990) [FLAC] {BMG 260.740}\12 - Love Affair - Everlasting Love.wav
Pre-gap length 0:00:00.50
Peak level 80.2 % Extraction speed 2.6 X Track quality 99.9 % Test CRC B21095ED Copy CRC B21095ED Accurately ripped (confidence 6) [A35B43C4] (AR v2) Copy OK
Track 13
Filename E:\EAC Rips\2017-05 Mei\Various Artists - De Pre Historie 1968 (1990) [FLAC] {BMG 260.740}\13 - Amen Corner - Bend Me, Shape Me.wav
Pre-gap length 0:00:00.27
Peak level 87.5 % Extraction speed 3.1 X Track quality 100.0 % Test CRC 741B776F Copy CRC 741B776F Accurately ripped (confidence 6) [F8082318] (AR v2) Copy OK
Track 14
Filename E:\EAC Rips\2017-05 Mei\Various Artists - De Pre Historie 1968 (1990) [FLAC] {BMG 260.740}\14 - Small Faces - Tin Soldier.wav
Pre-gap length 0:00:00.42
Peak level 87.4 % Extraction speed 3.3 X Track quality 100.0 % Test CRC 73B59BC8 Copy CRC 73B59BC8 Accurately ripped (confidence 6) [B0344684] (AR v2) Copy OK
Track 15
Filename E:\EAC Rips\2017-05 Mei\Various Artists - De Pre Historie 1968 (1990) [FLAC] {BMG 260.740}\15 - Canned Heat - On The Road Again.wav
Peak level 84.5 % Extraction speed 3.4 X Track quality 100.0 % Test CRC 4417BD6B Copy CRC 4417BD6B Accurately ripped (confidence 6) [A1A2BC92] (AR v2) Copy OK
Track 16
Filename E:\EAC Rips\2017-05 Mei\Various Artists - De Pre Historie 1968 (1990) [FLAC] {BMG 260.740}\16 - New Inspiration - You Made A Fool Of Me.wav
Pre-gap length 0:00:00.25
Peak level 89.9 % Extraction speed 2.8 X Track quality 99.9 % Test CRC 4BDD1A04 Copy CRC 4BDD1A04 Accurately ripped (confidence 6) [14212287] (AR v2) Copy OK
Track 17
Filename E:\EAC Rips\2017-05 Mei\Various Artists - De Pre Historie 1968 (1990) [FLAC] {BMG 260.740}\17 - Jess & James - Something For Nothing.wav
Pre-gap length 0:00:00.25
Peak level 96.1 % Extraction speed 3.3 X Track quality 100.0 % Test CRC 3688AD1B Copy CRC 3688AD1B Accurately ripped (confidence 5) [8BBDE24D] (AR v2) Copy OK
Track 18
Filename E:\EAC Rips\2017-05 Mei\Various Artists - De Pre Historie 1968 (1990) [FLAC] {BMG 260.740}\18 - Billy Joe Royal - Hush.wav
Peak level 93.3 % Extraction speed 3.4 X Track quality 100.0 % Test CRC 897C1F3F Copy CRC 897C1F3F Accurately ripped (confidence 6) [C6E9BB32] (AR v2) Copy OK
Track 19
Filename E:\EAC Rips\2017-05 Mei\Various Artists - De Pre Historie 1968 (1990) [FLAC] {BMG 260.740}\19 - Julie Driscoll - This Wheel's On Fire.wav
Pre-gap length 0:00:00.25
Peak level 84.8 % Extraction speed 3.7 X Track quality 100.0 % Test CRC F552512F Copy CRC F552512F Accurately ripped (confidence 6) [F65E5C2D] (AR v2) Copy OK
Track 20
Filename E:\EAC Rips\2017-05 Mei\Various Artists - De Pre Historie 1968 (1990) [FLAC] {BMG 260.740}\20 - Arthur Brown - Fire.wav
Pre-gap length 0:00:00.10
Peak level 87.1 % Extraction speed 3.7 X Track quality 100.0 % Test CRC B7377BF4 Copy CRC B7377BF4 Accurately ripped (confidence 6) [E54DE544] (AR v2) Copy OK
All tracks accurately ripped
No errors occurred
End of status report
---- CUETools DB Plugin V2.1.6
[CTDB TOCID: 80wtlQawkZGLhrDKzSJ.XDH4vlE-] foundSubmit result: already submittedTrack | CTDB Status 1 | (8/9) Accurately ripped, or (1/9) differs in 7 samples @00:05:12-00:05:13 2 | (8/9) Accurately ripped, or (1/9) differs in 2 samples @00:00:32 3 | (9/9) Accurately ripped 4 | (9/9) Accurately ripped 5 | (9/9) Accurately ripped 6 | (9/9) Accurately ripped 7 | (9/9) Accurately ripped 8 | (9/9) Accurately ripped 9 | (9/9) Accurately ripped 10 | (9/9) Accurately ripped 11 | (9/9) Accurately ripped 12 | (9/9) Accurately ripped 13 | (9/9) Accurately ripped 14 | (9/9) Accurately ripped 15 | (9/9) Accurately ripped 16 | (9/9) Accurately ripped 17 | (9/9) Accurately ripped 18 | (9/9) Accurately ripped 19 | (8/9) Accurately ripped, or (1/9) differs in 12 samples @00:46:37,01:21:31 20 | (9/9) Accurately ripped
==== Log checksum BFFC4C401FDF9730524573A40141601EF52F5BDBB8B6E2B9DCD15DA0A5D5E282 ====

Содержание индексной карты (.CUE)

REM DATE 1990REM DISCID 460DC214REM COMMENT "ExactAudioCopy v1.3"PERFORMER "Various Artists"TITLE "De Pre Historie 1968"REM COMPOSER ""FILE "01 - Otis Redding - The Dock Of The Bay.wav" WAVE  TRACK 01 AUDIO    TITLE "The Dock Of The Bay"    PERFORMER "Otis Redding"    REM COMPOSER ""    PREGAP 00:00:33    INDEX 01 00:00:00  TRACK 02 AUDIO    TITLE "Night In White Satin"    PERFORMER "The Moody Blues"    REM COMPOSER ""    INDEX 00 02:41:10FILE "02 - The Moody Blues - Night In White Satin.wav" WAVE    INDEX 01 00:00:00  TRACK 03 AUDIO    TITLE "Only One Woman"    PERFORMER "The Marbles"    REM COMPOSER ""    INDEX 00 04:22:52FILE "03 - The Marbles - Only One Woman.wav" WAVE    INDEX 01 00:00:00  TRACK 04 AUDIO    TITLE "World"    PERFORMER "Bee Gees"    REM COMPOSER ""    INDEX 00 02:43:15FILE "04 - Bee Gees - World.wav" WAVE    INDEX 01 00:00:00  TRACK 05 AUDIO    TITLE "Rain And Tears"    PERFORMER "Aphrodite's Child"    REM COMPOSER ""    INDEX 00 03:09:25FILE "05 - Aphrodite's Child - Rain And Tears.wav" WAVE    INDEX 01 00:00:00  TRACK 06 AUDIO    TITLE "What A Wonderful World"    PERFORMER "Louis Armstrong"    REM COMPOSER ""    INDEX 00 03:08:53FILE "06 - Louis Armstrong - What A Wonderful World.wav" WAVE    INDEX 01 00:00:00  TRACK 07 AUDIO    TITLE "If I Only Had Time"    PERFORMER "John Rowles"    REM COMPOSER ""    INDEX 00 02:15:30FILE "07 - John Rowles - If I Only Had Time.wav" WAVE    INDEX 01 00:00:00  TRACK 08 AUDIO    TITLE "Cinderella Rockefella"    PERFORMER "Esther & Abi Ofarim"    REM COMPOSER ""    INDEX 00 02:44:02FILE "08 - Esther & Abi Ofarim - Cinderella Rockefella.wav" WAVE    INDEX 01 00:00:00  TRACK 09 AUDIO    TITLE "Son Of A Preacherman"    PERFORMER "Dusty Springfield"    REM COMPOSER ""    INDEX 00 02:27:52FILE "09 - Dusty Springfield - Son Of A Preacherman.wav" WAVE    INDEX 01 00:00:00  TRACK 10 AUDIO    TITLE "I Heard It Through The Grapevine"    PERFORMER "Marvin Gaye"    REM COMPOSER ""    INDEX 00 02:25:18FILE "10 - Marvin Gaye - I Heard It Through The Grapevine.wav" WAVE    INDEX 01 00:00:00  TRACK 11 AUDIO    TITLE "Delilah"    PERFORMER "Tom Jones"    REM COMPOSER ""    INDEX 00 03:14:67FILE "11 - Tom Jones - Delilah.wav" WAVE    INDEX 01 00:00:00  TRACK 12 AUDIO    TITLE "Everlasting Love"    PERFORMER "Love Affair"    REM COMPOSER ""    INDEX 00 03:16:08FILE "12 - Love Affair - Everlasting Love.wav" WAVE    INDEX 01 00:00:00  TRACK 13 AUDIO    TITLE "Bend Me, Shape Me"    PERFORMER "Amen Corner"    REM COMPOSER ""    INDEX 00 02:53:20FILE "13 - Amen Corner - Bend Me, Shape Me.wav" WAVE    INDEX 01 00:00:00  TRACK 14 AUDIO    TITLE "Tin Soldier"    PERFORMER "Small Faces"    REM COMPOSER ""    INDEX 00 02:34:68FILE "14 - Small Faces - Tin Soldier.wav" WAVE    INDEX 01 00:00:00FILE "15 - Canned Heat - On The Road Again.wav" WAVE  TRACK 15 AUDIO    TITLE "On The Road Again"    PERFORMER "Canned Heat"    REM COMPOSER ""    INDEX 01 00:00:00  TRACK 16 AUDIO    TITLE "You Made A Fool Of Me"    PERFORMER "New Inspiration"    REM COMPOSER ""    INDEX 00 03:23:00FILE "16 - New Inspiration - You Made A Fool Of Me.wav" WAVE    INDEX 01 00:00:00  TRACK 17 AUDIO    TITLE "Something For Nothing"    PERFORMER "Jess & James"    REM COMPOSER ""    INDEX 00 02:30:55FILE "17 - Jess & James - Something For Nothing.wav" WAVE    INDEX 01 00:00:00FILE "18 - Billy Joe Royal - Hush.wav" WAVE  TRACK 18 AUDIO    TITLE "Hush"    PERFORMER "Billy Joe Royal"    REM COMPOSER ""    INDEX 01 00:00:00  TRACK 19 AUDIO    TITLE "This Wheel's On Fire"    PERFORMER "Julie Driscoll"    REM COMPOSER ""    INDEX 00 02:27:35FILE "19 - Julie Driscoll - This Wheel's On Fire.wav" WAVE    INDEX 01 00:00:00  TRACK 20 AUDIO    TITLE "Fire"    PERFORMER "Arthur Brown"    REM COMPOSER ""    INDEX 00 03:32:15FILE "20 - Arthur Brown - Fire.wav" WAVE    INDEX 01 00:00:00

AccurateRip

[CUETools log; Date: 18.10.2018 19:51:50; Version: 2.1.5]Pregap length 00:00:33.[CTDB TOCID: 80wtlQawkZGLhrDKzSJ.XDH4vlE-] found.Track | CTDB Status  1   | (12/13) Accurately ripped  2   | (13/13) Accurately ripped  3   | (13/13) Accurately ripped  4   | (13/13) Accurately ripped  5   | (13/13) Accurately ripped  6   | (13/13) Accurately ripped  7   | (13/13) Accurately ripped  8   | (12/13) Accurately ripped  9   | (13/13) Accurately ripped 10   | (13/13) Accurately ripped 11   | (13/13) Accurately ripped 12   | (13/13) Accurately ripped 13   | (13/13) Accurately ripped 14   | (13/13) Accurately ripped 15   | (13/13) Accurately ripped 16   | (13/13) Accurately ripped 17   | (13/13) Accurately ripped 18   | (13/13) Accurately ripped 19   | (12/13) Accurately ripped 20   | (13/13) Accurately ripped[AccurateRip ID: 002ac8d2-026f9478-460dc214] found.Track   [  CRC   |   V2   ] Status 01     [addef9cf|7b3a754c] (04+06/10) Accurately ripped 02     [52c4f034|9e51d96c] (04+06/10) Accurately ripped 03     [7ec3e453|42a707e2] (04+06/10) Accurately ripped 04     [0752817d|173694e1] (04+06/10) Accurately ripped 05     [ef0f3cf8|10c9f01d] (04+06/10) Accurately ripped 06     [d41d859a|16a05a7d] (04+06/10) Accurately ripped 07     [7b9e684f|1ad4d928] (04+06/10) Accurately ripped 08     [573e3956|4ad4b03b] (04+05/09) Accurately ripped 09     [881f98cc|a948edcf] (04+05/09) Accurately ripped 10     [e191dc6c|99bd5d2f] (04+05/09) Accurately ripped 11     [c52a8bdb|82ccdf90] (04+06/10) Accurately ripped 12     [fe7c1c9d|a35b43c4] (04+06/10) Accurately ripped 13     [900c83ec|f8082318] (04+06/10) Accurately ripped 14     [298d3285|b0344684] (04+06/10) Accurately ripped 15     [4ed4bbd7|a1a2bc92] (04+06/10) Accurately ripped 16     [ec5e8bda|14212287] (04+06/10) Accurately ripped 17     [8947a0c3|8bbde24d] (04+05/09) Accurately ripped 18     [fc5e40f6|c6e9bb32] (04+06/10) Accurately ripped 19     [d8f63163|f65e5c2d] (04+06/10) Accurately ripped 20     [eebb85bc|e54de544] (04+06/10) Accurately ripped
Track Peak [ CRC32 ] [W/O NULL] [ LOG ] -- 97,3 [1B1EA4F9] [2E67F5A5] 01 91,2 [F8602534] [F9D55C1F] CRC32 02 84,8 [21CF4878] [42BFA4BF] CRC32 03 94,6 [2020B725] [D8840956] CRC32 04 91,6 [4A7A34E8] [8FA8C346] CRC32 05 97,3 [BA629FEA] [6C2516CB] CRC32 06 95,5 [3EC4898D] [2F517C53] CRC32 07 95,8 [D03F90B2] [D1A897CF] CRC32 08 83,9 [195AF489] [D9E63B65] CRC32 09 90,5 [738CF90A] [9F8EEC34] CRC32 10 86,9 [7805715D] [4B32C5F8] CRC32 11 86,3 [A7044264] [030E2E33] CRC32 12 80,2 [B21095ED] [7D5BA37E] CRC32 13 87,5 [741B776F] [8BB74A64] CRC32 14 87,4 [73B59BC8] [3650B1AD] CRC32 15 84,5 [4417BD6B] [F7EA2EEF] CRC32 16 89,9 [4BDD1A04] [FBEDED82] CRC32 17 96,1 [3688AD1B] [1200E7ED] CRC32 18 93,3 [897C1F3F] [9E8F52E7] CRC32 19 84,8 [F552512F] [18072F28] CRC32 20 87,1 [B7377BF4] [C60BDC6B] CRC32
Вы не можете начинать темы
Вы не можете отвечать на сообщения
Вы не можете редактировать свои сообщения
Вы не можете удалять свои сообщения
Вы не можете голосовать в опросах
Вы не можете прикреплять файлы к сообщениям
Вы можете скачивать файлы
!ВНИМАНИЕ!

Сайт не предоставляет электронные версии произведений, а занимается лишь коллекционированием и каталогизацией ссылок, присылаемых и публикуемых на форуме нашими читателями. Если вы являетесь правообладателем какого-либо представленного материала и не желаете, чтобы ссылка на него находилась в нашем каталоге, свяжитесь с нами, и мы незамедлительно удалим ее. Файлы для обмена на трекере предоставлены пользователями сайта, и администрация не несет ответственности за их содержание. Просьба не заливать файлы, защищенные авторскими правами, а также файлы нелегального содержания!

Искали программы, игры, дополнения, музыка mp3, аниме, аудио книги, журналы? Добро пожаловать на свободный торрент трекер Torrents, у нас можно скачать бесплатно, без смс и регистрации и прочих ограничений лучшие, отборные сборки программ, игр. Скачать торрентом не составит труда даже не опытному пользователю. Раздачи ежедневно обновляются, только лучшие и качественные раздачи, подробные описания и скриншоты. Огромная коллекция программ для работы со звуком, графикой, дизайном, а так же множество плагинов и инструментов к ним с подробной инструкцией и рекомендациями. Прошивки для навигаторов, карты. Разнообразные игры, для Windows, Linux. В коллекцие есть и старые игры любых жанров, Rpg, Action, Shooter, strategy Множество дополнений, модификаций, сценариев для популярных игр в жанре экш, рпг, гонки, стратегии, логические игры. Множество аддонов и сценариев для Microsoft Flight Simulator Большая коллекция книг, учебников. Если нет возможности купить печатное издание - смело скачивайте цифровую версию книги или, быть может, журнала. Не любите читать - можно загрузить бесплатно аудикнигу. Для веб дизайнеров и программистов так же найдется множество специализированного софта, таких как: редакторы с подсветкой, среды программирования, компоненты, системы управления базами данных, разнообразные скрипты и шаблоны. Не так давно у нас появился материал для автолюбителей и владельцев мото - оригинальные и неоригинальные каталоги запчастей, книги и журналы по ремонту и обслуживанию, видеоуроки, статьи по чип тюнингу, прошивкам. Процедура получения контента элементарная, достаточно просто скачать торрент файл и добавить его в загрузку в вашем торрент клиенте. Если у вас нет специального торрент клиента, вы можете его скачать у нас.

film animation | Major: Message OVA English Subbed | Djesse (Vol. 1) - Jacob Collier, Metropole Orchestra & Jules Buckley Mp3