(Various) [CD] VA - De Pre Historie 1969 [EMI/Virgin, 260.741, Belgium] - 1990, FLAC (tracks+.cue), lossless 

Цитировать
De Pre Historie 1969
Жанр: Various
Носитель: CD
Страна-производитель диска (релиза): Belgium
Год издания: 1990
Издатель (лейбл): EMI/Virgin
Номер по каталогу: 260.741
Аудиокодек: FLAC (*.flac)
Тип рипа: tracks+.cue
Битрейт аудио: lossless
Продолжительность: 01:10:21
Источник (релизер): From RED
Наличие сканов в содержимом раздачи: нет

Треклист:
01. Percy Sledge – My Special Prayer
02. Robin Gibb – Saved By The Bell
03. Nilsson – Everybody's Talkin'
04. Fleetwood Mac – Albatross
05. Wallace Collection – Daydream
06. Scaffold – Lily The Pink
07. Peter Sarstedt – Where Do You Go To My Lovely
08. Thunderclap Newman – Something In The Air
09. The Fifth Dimension – Aquarius
10. Grapefruit – Deep Water
11. The Pebbles – Seven Horses In The Sky
12. Blood, Sweat And Tears – Spinning Wheel
13. The Beach Boys – I Can Hear Music
14. Zager & Evans – In The Year 2525
15. The Hollies – Sorry Suzanne
16. Jane Birkin & Serge Gainsbourg – Je T'aime ... Moi Non Plus
17. Donovan – Atlantis
18. Chicken Shack – I'd Rather Go Blind
19. Jimmy Cliff – Wonderful World, Beautiful People
20. Sir Douglas Quintet – Mendocino

Лог создания рипа

Exact Audio Copy V1.3 from 2. September 2016
EAC extraction logfile from 19. May 2017, 1:00
Various Artists / De Pre Historie 1969
Used drive : ATAPI iHAS124 F Adapter: 1 ID: 1
Read mode : SecureUtilize accurate stream : YesDefeat audio cache : YesMake use of C2 pointers : No
Read offset correction : 6Overread into Lead-In and Lead-Out : NoFill up missing offset samples with silence : YesDelete leading and trailing silent blocks : NoNull samples used in CRC calculations : YesUsed interface : Native Win32 interface for Win NT & 2000Gap handling : Appended to previous track
Used output format : User Defined EncoderSelected bitrate : 1024 kBit/sQuality : HighAdd ID3 tag : NoCommand line compressor : C:\cmd.exeAdditional command line options : /c ""C:\F\CUETools.FLACCL.cmd.exe" -8 --verify %source% -o %dest% & "C:\M\metaflac.exe" --set-tag="ARTIST=%artist%" --set-tag="TITLE=%title%" --set-tag="ALBUM=%albumtitle%" --set-tag="DATE=%year%" --set-tag="TRACKNUMBER=%tracknr%" --set-tag="GENRE=%genre%" --set-tag="COMPOSER=%composer%" --set-tag="ALBUMARTIST=%albumartist%" %dest%"
TOC of the extracted CD
Track | Start | Length | Start sector | End sector --------------------------------------------------------- 1 | 0:00.32 | 3:00.55 | 32 | 13586 2 | 3:01.12 | 2:53.13 | 13587 | 26574 3 | 5:54.25 | 2:43.55 | 26575 | 38854 4 | 8:38.05 | 3:07.40 | 38855 | 52919 5 | 11:45.45 | 5:00.45 | 52920 | 75464 6 | 16:46.15 | 4:19.17 | 75465 | 94906 7 | 21:05.32 | 4:38.73 | 94907 | 115829 8 | 25:44.30 | 3:52.15 | 115830 | 133244 9 | 29:36.45 | 3:51.00 | 133245 | 150569 10 | 33:27.45 | 2:14.32 | 150570 | 160651 11 | 35:42.02 | 3:37.45 | 160652 | 176971 12 | 39:19.47 | 4:05.68 | 176972 | 195414 13 | 43:25.40 | 2:34.45 | 195415 | 207009 14 | 46:00.10 | 3:14.72 | 207010 | 221631 15 | 49:15.07 | 2:57.28 | 221632 | 234934 16 | 52:12.35 | 4:19.37 | 234935 | 254396 17 | 56:31.72 | 4:59.38 | 254397 | 276859 18 | 61:31.35 | 3:12.40 | 276860 | 291299 19 | 64:44.00 | 3:11.45 | 291300 | 305669 20 | 67:55.45 | 2:40.10 | 305670 | 317679
Track 1
Filename E:\EAC Rips\2017-05 Mei\Various Artists - De Pre Historie 1969 (1990) [FLAC] {BMG 260.741}\01 - Percy Sledge - My Special Prayer.wav
Pre-gap length 0:00:02.32
Peak level 99.2 % Extraction speed 5.4 X Track quality 100.0 % Test CRC 0535B34A Copy CRC 0535B34A Accurately ripped (confidence 6) [AB6AC0F8] (AR v2) Copy OK
Track 2
Filename E:\EAC Rips\2017-05 Mei\Various Artists - De Pre Historie 1969 (1990) [FLAC] {BMG 260.741}\02 - Robin Gibb - Saved By The Bell.wav
Pre-gap length 0:00:00.62
Peak level 99.2 % Extraction speed 5.8 X Track quality 100.0 % Test CRC 669B7733 Copy CRC 669B7733 Accurately ripped (confidence 7) [D091B51A] (AR v2) Copy OK
Track 3
Filename E:\EAC Rips\2017-05 Mei\Various Artists - De Pre Historie 1969 (1990) [FLAC] {BMG 260.741}\03 - Nilsson - Everybody's Talkin'.wav
Pre-gap length 0:00:00.40
Peak level 99.2 % Extraction speed 6.0 X Track quality 100.0 % Test CRC C988FF13 Copy CRC C988FF13 Accurately ripped (confidence 7) [FB14116B] (AR v2) Copy OK
Track 4
Filename E:\EAC Rips\2017-05 Mei\Various Artists - De Pre Historie 1969 (1990) [FLAC] {BMG 260.741}\04 - Fleetwood Mac - Albattross.wav
Pre-gap length 0:00:00.50
Peak level 99.2 % Extraction speed 5.7 X Track quality 99.9 % Test CRC 8586E2FF Copy CRC 8586E2FF Accurately ripped (confidence 6) [07FEAF62] (AR v2) Copy OK
Track 5
Filename E:\EAC Rips\2017-05 Mei\Various Artists - De Pre Historie 1969 (1990) [FLAC] {BMG 260.741}\05 - Wallace Collection - Daydream.wav
Pre-gap length 0:00:00.55
Peak level 99.2 % Extraction speed 7.3 X Track quality 100.0 % Test CRC EE2E859D Copy CRC EE2E859D Accurately ripped (confidence 5) [F0C4EC49] (AR v2) Copy OK
Track 6
Filename E:\EAC Rips\2017-05 Mei\Various Artists - De Pre Historie 1969 (1990) [FLAC] {BMG 260.741}\06 - The Scaffold - Lily The Pink.wav
Pre-gap length 0:00:01.28
Peak level 99.1 % Extraction speed 7.7 X Track quality 100.0 % Test CRC 3A6665F6 Copy CRC 3A6665F6 Accurately ripped (confidence 6) [12259E84] (AR v2) Copy OK
Track 7
Filename E:\EAC Rips\2017-05 Mei\Various Artists - De Pre Historie 1969 (1990) [FLAC] {BMG 260.741}\07 - Peter Sarstedt - Where Do You Go To My Lovely.wav
Pre-gap length 0:00:00.17
Peak level 85.7 % Extraction speed 8.2 X Track quality 100.0 % Test CRC 1997ED9F Copy CRC 1997ED9F Accurately ripped (confidence 6) [16CCFBD5] (AR v2) Copy OK
Track 8
Filename E:\EAC Rips\2017-05 Mei\Various Artists - De Pre Historie 1969 (1990) [FLAC] {BMG 260.741}\08 - Thunderclap Newman - Something In The Air.wav
Pre-gap length 0:00:00.50
Peak level 99.2 % Extraction speed 8.4 X Track quality 100.0 % Test CRC 00B41294 Copy CRC 00B41294 Accurately ripped (confidence 5) [4217537E] (AR v2) Copy OK
Track 9
Filename E:\EAC Rips\2017-05 Mei\Various Artists - De Pre Historie 1969 (1990) [FLAC] {BMG 260.741}\09 - The 5th Dimension - Aquarius.wav
Pre-gap length 0:00:00.25
Peak level 99.2 % Extraction speed 8.6 X Track quality 100.0 % Test CRC E5ED26FE Copy CRC E5ED26FE Accurately ripped (confidence 6) [F7E5E721] (AR v2) Copy OK
Track 10
Filename E:\EAC Rips\2017-05 Mei\Various Artists - De Pre Historie 1969 (1990) [FLAC] {BMG 260.741}\10 - Grapefruit - Deep Water.wav
Pre-gap length 0:00:00.55
Peak level 86.9 % Extraction speed 6.7 X Track quality 99.9 % Test CRC F8A184F7 Copy CRC F8A184F7 Accurately ripped (confidence 5) [028A2A5F] (AR v2) Copy OK
Track 11
Filename E:\EAC Rips\2017-05 Mei\Various Artists - De Pre Historie 1969 (1990) [FLAC] {BMG 260.741}\11 - The Pebbles - Seven Horses In The Sky.wav
Pre-gap length 0:00:01.17
Peak level 89.7 % Extraction speed 9.1 X Track quality 100.0 % Test CRC 1FF23A6B Copy CRC 1FF23A6B Accurately ripped (confidence 5) [0207E3F8] (AR v2) Copy OK
Track 12
Filename E:\EAC Rips\2017-05 Mei\Various Artists - De Pre Historie 1969 (1990) [FLAC] {BMG 260.741}\12 - Blood, Sweat & Tears - Spinning Wheel.wav
Pre-gap length 0:00:00.65
Peak level 98.7 % Extraction speed 9.5 X Track quality 100.0 % Test CRC B1209611 Copy CRC B1209611 Accurately ripped (confidence 5) [CEC021A7] (AR v2) Copy OK
Track 13
Filename E:\EAC Rips\2017-05 Mei\Various Artists - De Pre Historie 1969 (1990) [FLAC] {BMG 260.741}\13 - The Beach Boys - I Can Hear Music.wav
Pre-gap length 0:00:01.10
Peak level 89.7 % Extraction speed 9.1 X Track quality 100.0 % Test CRC 46BEDD53 Copy CRC 46BEDD53 Accurately ripped (confidence 7) [A8A20899] (AR v2) Copy OK
Track 14
Filename E:\EAC Rips\2017-05 Mei\Various Artists - De Pre Historie 1969 (1990) [FLAC] {BMG 260.741}\14 - Zager & Evans - In The Year 2525.wav
Pre-gap length 0:00:00.65
Peak level 89.8 % Extraction speed 9.7 X Track quality 100.0 % Test CRC A5BB8FE3 Copy CRC A5BB8FE3 Accurately ripped (confidence 7) [2C035427] (AR v2) Copy OK
Track 15
Filename E:\EAC Rips\2017-05 Mei\Various Artists - De Pre Historie 1969 (1990) [FLAC] {BMG 260.741}\15 - The Hollies - Sorry Suzanne.wav
Pre-gap length 0:00:00.52
Peak level 94.6 % Extraction speed 9.5 X Track quality 100.0 % Test CRC FBAB2CD0 Copy CRC FBAB2CD0 Accurately ripped (confidence 7) [22672513] (AR v2) Copy OK
Track 16
Filename E:\EAC Rips\2017-05 Mei\Various Artists - De Pre Historie 1969 (1990) [FLAC] {BMG 260.741}\16 - Jane Birkin & Serge Gainsbourg - Je T'aime... Moi Non Plus.wav
Pre-gap length 0:00:00.25
Peak level 92.6 % Extraction speed 10.3 X Track quality 100.0 % Test CRC 1FA1E8D4 Copy CRC 1FA1E8D4 Accurately ripped (confidence 7) [4BAF26A5] (AR v2) Copy OK
Track 17
Filename E:\EAC Rips\2017-05 Mei\Various Artists - De Pre Historie 1969 (1990) [FLAC] {BMG 260.741}\17 - Donovan - Atlantis.wav
Pre-gap length 0:00:00.65
Peak level 98.3 % Extraction speed 10.8 X Track quality 100.0 % Test CRC 7DE721F5 Copy CRC 7DE721F5 Accurately ripped (confidence 5) [B31DECA3] (AR v2) Copy OK
Track 18
Filename E:\EAC Rips\2017-05 Mei\Various Artists - De Pre Historie 1969 (1990) [FLAC] {BMG 260.741}\18 - Chicken Shack - I'd Rather Go Blind.wav
Pre-gap length 0:00:00.30
Peak level 95.6 % Extraction speed 9.3 X Track quality 99.9 % Test CRC 365A76F4 Copy CRC 365A76F4 Accurately ripped (confidence 5) [41EB23DD] (AR v2) Copy OK
Track 19
Filename E:\EAC Rips\2017-05 Mei\Various Artists - De Pre Historie 1969 (1990) [FLAC] {BMG 260.741}\19 - Jimmy Cliff - Wonderful World, Beautiful People.wav
Pre-gap length 0:00:01.05
Peak level 89.6 % Extraction speed 10.5 X Track quality 100.0 % Test CRC 27843757 Copy CRC 27843757 Accurately ripped (confidence 6) [187EAAFE] (AR v2) Copy OK
Track 20
Filename E:\EAC Rips\2017-05 Mei\Various Artists - De Pre Historie 1969 (1990) [FLAC] {BMG 260.741}\20 - The Sir Douglas Quintet - Mendocine.wav
Pre-gap length 0:00:00.48
Peak level 90.8 % Extraction speed 1.7 X Track quality 99.6 % Test CRC 5CE9AB1D Copy CRC 5CE9AB1D Accurately ripped (confidence 5) [E7A46D43] (AR v2) Copy OK
All tracks accurately ripped
No errors occurred
End of status report
---- CUETools DB Plugin V2.1.6
[CTDB TOCID: e_JyaKXa6owF_xMutk.owiY7C2E-] foundSubmit result: already submittedTrack | CTDB Status 1 | (7/7) Accurately ripped 2 | (7/7) Accurately ripped 3 | (7/7) Accurately ripped 4 | (7/7) Accurately ripped 5 | (7/7) Accurately ripped 6 | (7/7) Accurately ripped 7 | (7/7) Accurately ripped 8 | (7/7) Accurately ripped 9 | (7/7) Accurately ripped 10 | (7/7) Accurately ripped 11 | (7/7) Accurately ripped 12 | (6/7) Accurately ripped 13 | (7/7) Accurately ripped 14 | (7/7) Accurately ripped 15 | (7/7) Accurately ripped 16 | (7/7) Accurately ripped 17 | (7/7) Accurately ripped 18 | (6/7) Accurately ripped 19 | (7/7) Accurately ripped 20 | (7/7) Accurately ripped
==== Log checksum 313A899218452FB785329A187AAFC7AD353496FB2AB3B3D5CF41482A93257C1E ====

Содержание индексной карты (.CUE)

REM DATE 1990REM DISCID 28108B14REM COMMENT "ExactAudioCopy v1.3"PERFORMER "Various Artists"TITLE "De Pre Historie 1969"REM COMPOSER ""FILE "01 - Percy Sledge - My Special Prayer.wav" WAVE  TRACK 01 AUDIO    TITLE "My Special Prayer"    PERFORMER "Percy Sledge"    REM COMPOSER ""    PREGAP 00:00:32    INDEX 01 00:00:00  TRACK 02 AUDIO    TITLE "Saved By The Bell"    PERFORMER "Robin Gibb"    REM COMPOSER ""    INDEX 00 02:59:68FILE "02 - Robin Gibb - Saved By The Bell.wav" WAVE    INDEX 01 00:00:00  TRACK 03 AUDIO    TITLE "Everybody's Talkin'"    PERFORMER "Nilsson"    REM COMPOSER ""    INDEX 00 02:52:48FILE "03 - Nilsson - Everybody's Talkin'.wav" WAVE    INDEX 01 00:00:00  TRACK 04 AUDIO    TITLE "Albattross"    PERFORMER "Fleetwood Mac"    REM COMPOSER ""    INDEX 00 02:43:05FILE "04 - Fleetwood Mac - Albattross.wav" WAVE    INDEX 01 00:00:00  TRACK 05 AUDIO    TITLE "Daydream"    PERFORMER "Wallace Collection"    REM COMPOSER ""    INDEX 00 03:06:60FILE "05 - Wallace Collection - Daydream.wav" WAVE    INDEX 01 00:00:00  TRACK 06 AUDIO    TITLE "Lily The Pink"    PERFORMER "The Scaffold"    REM COMPOSER ""    INDEX 00 04:59:17FILE "06 - The Scaffold - Lily The Pink.wav" WAVE    INDEX 01 00:00:00  TRACK 07 AUDIO    TITLE "Where Do You Go To My Lovely"    PERFORMER "Peter Sarstedt"    REM COMPOSER ""    INDEX 00 04:19:00FILE "07 - Peter Sarstedt - Where Do You Go To My Lovely.wav" WAVE    INDEX 01 00:00:00  TRACK 08 AUDIO    TITLE "Something In The Air"    PERFORMER "Thunderclap Newman"    REM COMPOSER ""    INDEX 00 04:38:23FILE "08 - Thunderclap Newman - Something In The Air.wav" WAVE    INDEX 01 00:00:00  TRACK 09 AUDIO    TITLE "Aquarius"    PERFORMER "The 5th Dimension"    REM COMPOSER ""    INDEX 00 03:51:65FILE "09 - The 5th Dimension - Aquarius.wav" WAVE    INDEX 01 00:00:00  TRACK 10 AUDIO    TITLE "Deep Water"    PERFORMER "Grapefruit"    REM COMPOSER ""    INDEX 00 03:50:20FILE "10 - Grapefruit - Deep Water.wav" WAVE    INDEX 01 00:00:00  TRACK 11 AUDIO    TITLE "Seven Horses In The Sky"    PERFORMER "The Pebbles"    REM COMPOSER ""    INDEX 00 02:13:15FILE "11 - The Pebbles - Seven Horses In The Sky.wav" WAVE    INDEX 01 00:00:00  TRACK 12 AUDIO    TITLE "Spinning Wheel"    PERFORMER "Blood, Sweat & Tears"    REM COMPOSER ""    INDEX 00 03:36:55FILE "12 - Blood, Sweat & Tears - Spinning Wheel.wav" WAVE    INDEX 01 00:00:00  TRACK 13 AUDIO    TITLE "I Can Hear Music"    PERFORMER "The Beach Boys"    REM COMPOSER ""    INDEX 00 04:04:58FILE "13 - The Beach Boys - I Can Hear Music.wav" WAVE    INDEX 01 00:00:00  TRACK 14 AUDIO    TITLE "In The Year 2525"    PERFORMER "Zager & Evans"    REM COMPOSER ""    INDEX 00 02:33:55FILE "14 - Zager & Evans - In The Year 2525.wav" WAVE    INDEX 01 00:00:00  TRACK 15 AUDIO    TITLE "Sorry Suzanne"    PERFORMER "The Hollies"    REM COMPOSER ""    INDEX 00 03:14:20FILE "15 - The Hollies - Sorry Suzanne.wav" WAVE    INDEX 01 00:00:00  TRACK 16 AUDIO    TITLE "Je T'aime... Moi Non Plus"    PERFORMER "Jane Birkin & Serge Gainsbourg"    REM COMPOSER ""    INDEX 00 02:57:03FILE "16 - Jane Birkin & Serge Gainsbourg - Je T'aime... Moi Non Plus.wav" WAVE    INDEX 01 00:00:00  TRACK 17 AUDIO    TITLE "Atlantis"    PERFORMER "Donovan"    REM COMPOSER ""    INDEX 00 04:18:47FILE "17 - Donovan - Atlantis.wav" WAVE    INDEX 01 00:00:00  TRACK 18 AUDIO    TITLE "I'd Rather Go Blind"    PERFORMER "Chicken Shack"    REM COMPOSER ""    INDEX 00 04:59:08FILE "18 - Chicken Shack - I'd Rather Go Blind.wav" WAVE    INDEX 01 00:00:00  TRACK 19 AUDIO    TITLE "Wonderful World, Beautiful People"    PERFORMER "Jimmy Cliff"    REM COMPOSER ""    INDEX 00 03:11:35FILE "19 - Jimmy Cliff - Wonderful World, Beautiful People.wav" WAVE    INDEX 01 00:00:00  TRACK 20 AUDIO    TITLE "Mendocine"    PERFORMER "The Sir Douglas Quintet"    REM COMPOSER ""    INDEX 00 03:10:72FILE "20 - The Sir Douglas Quintet - Mendocine.wav" WAVE    INDEX 01 00:00:00

AccurateRip

[CUETools log; Date: 18.10.2018 20:40:49; Version: 2.1.5]Pregap length 00:00:32.[CTDB TOCID: e_JyaKXa6owF_xMutk.owiY7C2E-] found.Track | CTDB Status  1   | (10/10) Accurately ripped  2   | (10/10) Accurately ripped  3   | (10/10) Accurately ripped  4   | (10/10) Accurately ripped  5   | (10/10) Accurately ripped  6   | (10/10) Accurately ripped  7   | (10/10) Accurately ripped  8   | (10/10) Accurately ripped  9   | (10/10) Accurately ripped 10   | ( 9/10) Accurately ripped 11   | ( 9/10) Accurately ripped 12   | ( 9/10) Accurately ripped 13   | (10/10) Accurately ripped 14   | (10/10) Accurately ripped 15   | (10/10) Accurately ripped 16   | (10/10) Accurately ripped 17   | (10/10) Accurately ripped 18   | ( 9/10) Accurately ripped 19   | (10/10) Accurately ripped 20   | (10/10) Accurately ripped[AccurateRip ID: 0033087d-02f080d7-28108b14] found.Track   [  CRC   |   V2   ] Status 01     [5322cdc8|ab6ac0f8] (05+06/11) Accurately ripped 02     [8df053f3|d091b51a] (05+07/12) Accurately ripped 03     [172f28de|fb14116b] (05+07/12) Accurately ripped 04     [a615d884|07feaf62] (05+06/11) Accurately ripped 05     [f3ff21d4|f0c4ec49] (05+05/10) Accurately ripped 06     [c912c272|12259e84] (05+06/11) Accurately ripped 07     [a15dafa8|16ccfbd5] (05+06/11) Accurately ripped 08     [5ab27486|4217537e] (04+05/09) Accurately ripped 09     [83ea0e17|f7e5e721] (05+06/11) Accurately ripped 10     [18f2d728|028a2a5f] (04+05/09) Accurately ripped 11     [dc7f83b1|0207e3f8] (05+05/10) Accurately ripped 12     [4ce0be7d|cec021a7] (04+05/09) Accurately ripped 13     [ada07b1d|a8a20899] (04+07/11) Accurately ripped 14     [b33d9acb|2c035427] (05+07/12) Accurately ripped 15     [c045bd5f|22672513] (05+07/12) Accurately ripped 16     [0136c4bb|4baf26a5] (04+07/11) Accurately ripped 17     [feeff464|b31deca3] (05+05/10) Accurately ripped 18     [0eb6cd24|41eb23dd] (04+05/09) Accurately ripped 19     [0065b122|187eaafe] (03+06/09) Accurately ripped 20     [7b96ae22|e7a46d43] (03+05/08) Accurately rippedOffsetted by -664: 01     [65213208] (00/11) No match (V2 was not tested) 02     [69ea8533] (00/12) No match (V2 was not tested) 03     [cded652e] (00/12) No match (V2 was not tested) 04     [27c7e1c4] (00/11) No match (V2 was not tested) 05     [d0e26954] (00/10) No match (V2 was not tested) 06     [4805ec2c] (00/11) No match (V2 was not tested) 07     [c69eb951] (00/11) No match (V2 was not tested) 08     [4c75c710] (00/09) No match (V2 was not tested) 09     [e5b604e2] (00/11) No match (V2 was not tested) 10     [e9fc1630] (00/09) No match (V2 was not tested) 11     [0937d9c9] (00/10) No match (V2 was not tested) 12     [43791995] (00/09) No match (V2 was not tested) 13     [3693f41d] (00/11) No match (V2 was not tested) 14     [7531da13] (00/12) No match (V2 was not tested) 15     [f6ad1a4b] (00/12) No match (V2 was not tested) 16     [e9e80d6b] (00/11) No match (V2 was not tested) 17     [1227d08c] (00/10) No match (V2 was not tested) 18     [c2e23b6c] (00/09) No match (V2 was not tested) 19     [422521fa] (00/09) No match (V2 was not tested) 20     [90cb4d33] (00/08) No match (V2 was not tested)
Track Peak [ CRC32 ] [W/O NULL] [ LOG ] -- 99,2 [2175DC7D] [F8016444] 01 99,2 [0535B34A] [959D5D8F] CRC32 02 99,2 [669B7733] [B0F1B9F2] CRC32 03 99,2 [C988FF13] [D5BAB2D0] CRC32 04 99,2 [8586E2FF] [654EEB7E] CRC32 05 99,2 [EE2E859D] [E0D95CC6] CRC32 06 99,1 [3A6665F6] [D1ED2189] CRC32 07 85,7 [1997ED9F] [2D5A9059] CRC32 08 99,2 [00B41294] [5892BE6E] CRC32 09 99,2 [E5ED26FE] [E4ADF8E6] CRC32 10 86,9 [F8A184F7] [BFB2F60B] CRC32 11 89,7 [1FF23A6B] [8FF405EA] CRC32 12 98,7 [B1209611] [C5EA2406] CRC32 13 89,7 [46BEDD53] [E5CBFA8F] CRC32 14 89,8 [A5BB8FE3] [ABD3E7C1] CRC32 15 94,6 [FBAB2CD0] [3313C19C] CRC32 16 92,6 [1FA1E8D4] [3862A965] CRC32 17 98,3 [7DE721F5] [EDF41650] CRC32 18 95,6 [365A76F4] [A05E7BA2] CRC32 19 89,6 [27843757] [E78EBF48] CRC32 20 90,8 [5CE9AB1D] [72948283] CRC32
Вы не можете начинать темы
Вы не можете отвечать на сообщения
Вы не можете редактировать свои сообщения
Вы не можете удалять свои сообщения
Вы не можете голосовать в опросах
Вы не можете прикреплять файлы к сообщениям
Вы можете скачивать файлы
!ВНИМАНИЕ!

Сайт не предоставляет электронные версии произведений, а занимается лишь коллекционированием и каталогизацией ссылок, присылаемых и публикуемых на форуме нашими читателями. Если вы являетесь правообладателем какого-либо представленного материала и не желаете, чтобы ссылка на него находилась в нашем каталоге, свяжитесь с нами, и мы незамедлительно удалим ее. Файлы для обмена на трекере предоставлены пользователями сайта, и администрация не несет ответственности за их содержание. Просьба не заливать файлы, защищенные авторскими правами, а также файлы нелегального содержания!

Искали программы, игры, дополнения, музыка mp3, аниме, аудио книги, журналы? Добро пожаловать на свободный торрент трекер Torrents, у нас можно скачать бесплатно, без смс и регистрации и прочих ограничений лучшие, отборные сборки программ, игр. Скачать торрентом не составит труда даже не опытному пользователю. Раздачи ежедневно обновляются, только лучшие и качественные раздачи, подробные описания и скриншоты. Огромная коллекция программ для работы со звуком, графикой, дизайном, а так же множество плагинов и инструментов к ним с подробной инструкцией и рекомендациями. Прошивки для навигаторов, карты. Разнообразные игры, для Windows, Linux. В коллекцие есть и старые игры любых жанров, Rpg, Action, Shooter, strategy Множество дополнений, модификаций, сценариев для популярных игр в жанре экш, рпг, гонки, стратегии, логические игры. Множество аддонов и сценариев для Microsoft Flight Simulator Большая коллекция книг, учебников. Если нет возможности купить печатное издание - смело скачивайте цифровую версию книги или, быть может, журнала. Не любите читать - можно загрузить бесплатно аудикнигу. Для веб дизайнеров и программистов так же найдется множество специализированного софта, таких как: редакторы с подсветкой, среды программирования, компоненты, системы управления базами данных, разнообразные скрипты и шаблоны. Не так давно у нас появился материал для автолюбителей и владельцев мото - оригинальные и неоригинальные каталоги запчастей, книги и журналы по ремонту и обслуживанию, видеоуроки, статьи по чип тюнингу, прошивкам. Процедура получения контента элементарная, достаточно просто скачать торрент файл и добавить его в загрузку в вашем торрент клиенте. Если у вас нет специального торрент клиента, вы можете его скачать у нас.

HidupMusik | 37 Nap- Út az első világháborúig | Summitsoft 5000 Fonts 1.0.0 [CracksNow]