(Various) [CD] VA - De Pre Historie 1978 [EMI/Virgin, 260.750, Belgium] - 1991, FLAC (tracks+.cue), lossless 

Цитировать
De Pre Historie 1978
Жанр: Various
Носитель: CD
Страна-производитель диска (релиза): Belgium
Год издания: 1991
Издатель (лейбл): EMI/Virgin
Номер по каталогу: 260.750
Аудиокодек: FLAC (*.flac)
Тип рипа: tracks+.cue
Битрейт аудио: lossless
Продолжительность: 01:12:31
Источник (релизер): From RED
Наличие сканов в содержимом раздачи: нет

Треклист:
01. Bee Gees – Stayin' Alive
02. Amanda Lear – Follow Me
03. Boney M. – Rivers Of Babylon
04. Luisa Fernandez – Lay Love On You
05. Scott Fitzgerald & Yvonne Keeley – If I Had Words
06. Umberto Tozzi – Ti Amo
07. Rose Royce – Love Don't Live Here Anymore
08. Marshall Hain – Dancing In The City
09. Genesis – Follow You, Follow Me
10. ABBA – Take A Chance On Me
11. Blondie – Denis
12. Kansas – Dust In The Wind
13. Commodores – Three Times A Lady
14. Chic – Le Freak
15. The Jacksons – Blame It On The Boogie
16. Gerry Rafferty – Baker Street
17. Grace Jones – La Vie En Rose
18. Meat Loaf – Paradise By The Dashboard Light

Лог создания рипа

Exact Audio Copy V1.3 from 2. September 2016
EAC extraction logfile from 19. May 2017, 22:18
Various Artists / De Pre Historie 1978
Used drive : ATAPI iHAS124 F Adapter: 1 ID: 1
Read mode : SecureUtilize accurate stream : YesDefeat audio cache : YesMake use of C2 pointers : No
Read offset correction : 6Overread into Lead-In and Lead-Out : NoFill up missing offset samples with silence : YesDelete leading and trailing silent blocks : NoNull samples used in CRC calculations : YesUsed interface : Native Win32 interface for Win NT & 2000Gap handling : Appended to previous track
Used output format : User Defined EncoderSelected bitrate : 1024 kBit/sQuality : HighAdd ID3 tag : NoCommand line compressor : C:\cmd.exeAdditional command line options : /c ""C:\F\CUETools.FLACCL.cmd.exe" -8 --verify %source% -o %dest% & "C:\M\metaflac.exe" --set-tag="ARTIST=%artist%" --set-tag="TITLE=%title%" --set-tag="ALBUM=%albumtitle%" --set-tag="DATE=%year%" --set-tag="TRACKNUMBER=%tracknr%" --set-tag="GENRE=%genre%" --set-tag="COMPOSER=%composer%" --set-tag="ALBUMARTIST=%albumartist%" %dest%"
TOC of the extracted CD
Track | Start | Length | Start sector | End sector --------------------------------------------------------- 1 | 0:00.33 | 4:45.12 | 33 | 21419 2 | 4:45.45 | 3:50.38 | 21420 | 38707 3 | 8:36.08 | 3:57.60 | 38708 | 56542 4 | 12:33.68 | 4:15.57 | 56543 | 75724 5 | 16:49.50 | 3:47.40 | 75725 | 92789 6 | 20:37.15 | 4:06.03 | 92790 | 111242 7 | 24:43.18 | 3:53.17 | 111243 | 128734 8 | 28:36.35 | 3:44.08 | 128735 | 145542 9 | 32:20.43 | 3:55.07 | 145543 | 163174 10 | 36:15.50 | 3:57.38 | 163175 | 180987 11 | 40:13.13 | 2:15.05 | 180988 | 191117 12 | 42:28.18 | 3:24.45 | 191118 | 206462 13 | 45:52.63 | 3:35.62 | 206463 | 222649 14 | 49:28.50 | 3:27.33 | 222650 | 238207 15 | 52:56.08 | 3:32.47 | 238208 | 254154 16 | 56:28.55 | 4:03.70 | 254155 | 272449 17 | 60:32.50 | 3:34.23 | 272450 | 288522 18 | 64:06.73 | 8:24.35 | 288523 | 326357
Track 1
Filename E:\EAC Rips\2017-05 Mei\Various Artists - De Pre Historie 1978 (1991) [FLAC] {BMG 260.750}\01 - Bee Gees - Stayin' Alive.wav
Pre-gap length 0:00:02.33
Peak level 73.8 % Extraction speed 5.3 X Track quality 99.9 % Test CRC 8987553C Copy CRC 8987553C Accurately ripped (confidence 8) [9FF1CE3B] (AR v2) Copy OK
Track 2
Filename E:\EAC Rips\2017-05 Mei\Various Artists - De Pre Historie 1978 (1991) [FLAC] {BMG 260.750}\02 - Amanda Lear - Follow Me.wav
Peak level 90.4 % Extraction speed 6.2 X Track quality 100.0 % Test CRC B40F28B2 Copy CRC B40F28B2 Accurately ripped (confidence 8) [4335326D] (AR v2) Copy OK
Track 3
Filename E:\EAC Rips\2017-05 Mei\Various Artists - De Pre Historie 1978 (1991) [FLAC] {BMG 260.750}\03 - Boney M. - Rivers Of Babylon.wav
Peak level 79.3 % Extraction speed 6.7 X Track quality 100.0 % Test CRC CE1B8E79 Copy CRC CE1B8E79 Accurately ripped (confidence 8) [22DEE36F] (AR v2) Copy OK
Track 4
Filename E:\EAC Rips\2017-05 Mei\Various Artists - De Pre Historie 1978 (1991) [FLAC] {BMG 260.750}\04 - Luisa Fernandez - Lay Love On You.wav
Peak level 99.2 % Extraction speed 7.2 X Track quality 100.0 % Test CRC C3E90FA6 Copy CRC C3E90FA6 Accurately ripped (confidence 8) [D09E23DD] (AR v2) Copy OK
Track 5
Filename E:\EAC Rips\2017-05 Mei\Various Artists - De Pre Historie 1978 (1991) [FLAC] {BMG 260.750}\05 - Scott Fitzgerald & Yvonne Keeley - If I Had Words.wav
Peak level 88.9 % Extraction speed 7.5 X Track quality 100.0 % Test CRC 62CF98C9 Copy CRC 62CF98C9 Accurately ripped (confidence 8) [44FE2B7C] (AR v2) Copy OK
Track 6
Filename E:\EAC Rips\2017-05 Mei\Various Artists - De Pre Historie 1978 (1991) [FLAC] {BMG 260.750}\06 - Umberto Tozzi - Ti Amo.wav
Peak level 87.3 % Extraction speed 7.1 X Track quality 99.9 % Test CRC 017D54A8 Copy CRC 017D54A8 Accurately ripped (confidence 8) [A01FE86E] (AR v2) Copy OK
Track 7
Filename E:\EAC Rips\2017-05 Mei\Various Artists - De Pre Historie 1978 (1991) [FLAC] {BMG 260.750}\07 - Rose Royce - Love Don't Live Here Anymore.wav
Peak level 82.1 % Extraction speed 8.2 X Track quality 100.0 % Test CRC EE82E9EA Copy CRC EE82E9EA Accurately ripped (confidence 9) [FF757DDC] (AR v2) Copy OK
Track 8
Filename E:\EAC Rips\2017-05 Mei\Various Artists - De Pre Historie 1978 (1991) [FLAC] {BMG 260.750}\08 - Marshall Hain - Dancing In The City.wav
Peak level 88.4 % Extraction speed 7.5 X Track quality 99.9 % Test CRC C935618C Copy CRC C935618C Accurately ripped (confidence 8) [25534458] (AR v2) Copy OK
Track 9
Filename E:\EAC Rips\2017-05 Mei\Various Artists - De Pre Historie 1978 (1991) [FLAC] {BMG 260.750}\09 - Genesis - Follow You, Follow Me.wav
Peak level 89.2 % Extraction speed 8.8 X Track quality 100.0 % Test CRC E4E28874 Copy CRC E4E28874 Accurately ripped (confidence 8) [22CF4B61] (AR v2) Copy OK
Track 10
Filename E:\EAC Rips\2017-05 Mei\Various Artists - De Pre Historie 1978 (1991) [FLAC] {BMG 260.750}\10 - ABBA - Take A Chance On Me.wav
Peak level 85.7 % Extraction speed 9.2 X Track quality 100.0 % Test CRC 6EF4D114 Copy CRC 6EF4D114 Accurately ripped (confidence 8) [B84CAE49] (AR v2) Copy OK
Track 11
Filename E:\EAC Rips\2017-05 Mei\Various Artists - De Pre Historie 1978 (1991) [FLAC] {BMG 260.750}\11 - Blondie - Denis.wav
Peak level 93.6 % Extraction speed 8.7 X Track quality 100.0 % Test CRC 4397965D Copy CRC 4397965D Accurately ripped (confidence 8) [D5BCB712] (AR v2) Copy OK
Track 12
Filename E:\EAC Rips\2017-05 Mei\Various Artists - De Pre Historie 1978 (1991) [FLAC] {BMG 260.750}\12 - Kansas - Dust In The Wind.wav
Peak level 85.4 % Extraction speed 9.3 X Track quality 100.0 % Test CRC 459BBCCB Copy CRC 459BBCCB Accurately ripped (confidence 8) [968F5EE6] (AR v2) Copy OK
Track 13
Filename E:\EAC Rips\2017-05 Mei\Various Artists - De Pre Historie 1978 (1991) [FLAC] {BMG 260.750}\13 - Commodores - Three Times A Lady.wav
Peak level 76.4 % Extraction speed 9.7 X Track quality 100.0 % Test CRC FA13CEA8 Copy CRC FA13CEA8 Accurately ripped (confidence 8) [87545516] (AR v2) Copy OK
Track 14
Filename E:\EAC Rips\2017-05 Mei\Various Artists - De Pre Historie 1978 (1991) [FLAC] {BMG 260.750}\14 - Chic - Le Freak.wav
Peak level 96.8 % Extraction speed 9.7 X Track quality 100.0 % Test CRC FCB150C7 Copy CRC FCB150C7 Accurately ripped (confidence 8) [87687CC8] (AR v2) Copy OK
Track 15
Filename E:\EAC Rips\2017-05 Mei\Various Artists - De Pre Historie 1978 (1991) [FLAC] {BMG 260.750}\15 - The Jacksons - Blame It On The Boogie.wav
Peak level 87.4 % Extraction speed 10.1 X Track quality 100.0 % Test CRC A564035D Copy CRC A564035D Accurately ripped (confidence 8) [85544A0B] (AR v2) Copy OK
Track 16
Filename E:\EAC Rips\2017-05 Mei\Various Artists - De Pre Historie 1978 (1991) [FLAC] {BMG 260.750}\16 - Gerry Rafferty - Baker Street.wav
Peak level 77.3 % Extraction speed 10.7 X Track quality 100.0 % Test CRC FA430684 Copy CRC FA430684 Accurately ripped (confidence 7) [F1A06DC5] (AR v2) Copy OK
Track 17
Filename E:\EAC Rips\2017-05 Mei\Various Artists - De Pre Historie 1978 (1991) [FLAC] {BMG 260.750}\17 - Grace Jones - La Vie En Rose.wav
Peak level 90.2 % Extraction speed 10.7 X Track quality 100.0 % Test CRC A21AAA16 Copy CRC A21AAA16 Accurately ripped (confidence 8) [5CDB72BB] (AR v2) Copy OK
Track 18
Filename E:\EAC Rips\2017-05 Mei\Various Artists - De Pre Historie 1978 (1991) [FLAC] {BMG 260.750}\18 - Meat Loaf - Paradise By The Dashboard Light.wav
Peak level 96.3 % Extraction speed 11.9 X Track quality 100.0 % Test CRC EB45E653 Copy CRC EB45E653 Accurately ripped (confidence 7) [9DBCF3E7] (AR v2) Copy OK
All tracks accurately ripped
No errors occurred
End of status report
---- CUETools DB Plugin V2.1.6
[CTDB TOCID: XEJfpWIXGzCXcE13BqI67AUQCVU-] foundSubmit result: XEJfpWIXGzCXcE13BqI67AUQCVU- has been confirmedTrack | CTDB Status 1 | (10/12) Accurately ripped 2 | (10/12) Accurately ripped 3 | (11/12) Accurately ripped 4 | (11/12) Accurately ripped 5 | (11/12) Accurately ripped 6 | (11/12) Accurately ripped 7 | (11/12) Accurately ripped 8 | (11/12) Accurately ripped 9 | (11/12) Accurately ripped 10 | (11/12) Accurately ripped 11 | (11/12) Accurately ripped 12 | (11/12) Accurately ripped 13 | (11/12) Accurately ripped 14 | (11/12) Accurately ripped 15 | (11/12) Accurately ripped 16 | (11/12) Accurately ripped 17 | (11/12) Accurately ripped 18 | (10/12) Accurately ripped
==== Log checksum 03A30A2BFB4A3E45F76BC10FFD08D2E66ED453C58C6FC724786E400CE54F1C35 ====

Содержание индексной карты (.CUE)

REM DATE 1991REM DISCID 0E10FF12REM COMMENT "ExactAudioCopy v1.3"PERFORMER "Various Artists"TITLE "De Pre Historie 1978"REM COMPOSER ""FILE "01 - Bee Gees - Stayin' Alive.wav" WAVE  TRACK 01 AUDIO    TITLE "Stayin' Alive"    PERFORMER "Bee Gees"    REM COMPOSER ""    PREGAP 00:00:33    INDEX 01 00:00:00FILE "02 - Amanda Lear - Follow Me.wav" WAVE  TRACK 02 AUDIO    TITLE "Follow Me"    PERFORMER "Amanda Lear"    REM COMPOSER ""    INDEX 01 00:00:00FILE "03 - Boney M. - Rivers Of Babylon.wav" WAVE  TRACK 03 AUDIO    TITLE "Rivers Of Babylon"    PERFORMER "Boney M."    REM COMPOSER ""    INDEX 01 00:00:00FILE "04 - Luisa Fernandez - Lay Love On You.wav" WAVE  TRACK 04 AUDIO    TITLE "Lay Love On You"    PERFORMER "Luisa Fernandez"    REM COMPOSER ""    INDEX 01 00:00:00FILE "05 - Scott Fitzgerald & Yvonne Keeley - If I Had Words.wav" WAVE  TRACK 05 AUDIO    TITLE "If I Had Words"    PERFORMER "Scott Fitzgerald & Yvonne Keeley"    REM COMPOSER ""    INDEX 01 00:00:00FILE "06 - Umberto Tozzi - Ti Amo.wav" WAVE  TRACK 06 AUDIO    TITLE "Ti Amo"    PERFORMER "Umberto Tozzi"    REM COMPOSER ""    INDEX 01 00:00:00FILE "07 - Rose Royce - Love Don't Live Here Anymore.wav" WAVE  TRACK 07 AUDIO    TITLE "Love Don't Live Here Anymore"    PERFORMER "Rose Royce"    REM COMPOSER ""    INDEX 01 00:00:00FILE "08 - Marshall Hain - Dancing In The City.wav" WAVE  TRACK 08 AUDIO    TITLE "Dancing In The City"    PERFORMER "Marshall Hain"    REM COMPOSER ""    INDEX 01 00:00:00FILE "09 - Genesis - Follow You, Follow Me.wav" WAVE  TRACK 09 AUDIO    TITLE "Follow You, Follow Me"    PERFORMER "Genesis"    REM COMPOSER ""    INDEX 01 00:00:00FILE "10 - ABBA - Take A Chance On Me.wav" WAVE  TRACK 10 AUDIO    TITLE "Take A Chance On Me"    PERFORMER "ABBA"    REM COMPOSER ""    INDEX 01 00:00:00FILE "11 - Blondie - Denis.wav" WAVE  TRACK 11 AUDIO    TITLE "Denis"    PERFORMER "Blondie"    REM COMPOSER ""    INDEX 01 00:00:00FILE "12 - Kansas - Dust In The Wind.wav" WAVE  TRACK 12 AUDIO    TITLE "Dust In The Wind"    PERFORMER "Kansas"    REM COMPOSER ""    INDEX 01 00:00:00FILE "13 - Commodores - Three Times A Lady.wav" WAVE  TRACK 13 AUDIO    TITLE "Three Times A Lady"    PERFORMER "Commodores"    REM COMPOSER ""    INDEX 01 00:00:00FILE "14 - Chic - Le Freak.wav" WAVE  TRACK 14 AUDIO    TITLE "Le Freak"    PERFORMER "Chic"    REM COMPOSER ""    INDEX 01 00:00:00FILE "15 - The Jacksons - Blame It On The Boogie.wav" WAVE  TRACK 15 AUDIO    TITLE "Blame It On The Boogie"    PERFORMER "The Jacksons"    REM COMPOSER ""    INDEX 01 00:00:00FILE "16 - Gerry Rafferty - Baker Street.wav" WAVE  TRACK 16 AUDIO    TITLE "Baker Street"    PERFORMER "Gerry Rafferty"    REM COMPOSER ""    INDEX 01 00:00:00FILE "17 - Grace Jones - La Vie En Rose.wav" WAVE  TRACK 17 AUDIO    TITLE "La Vie En Rose"    PERFORMER "Grace Jones"    REM COMPOSER ""    INDEX 01 00:00:00FILE "18 - Meat Loaf - Paradise By The Dashboard Light.wav" WAVE  TRACK 18 AUDIO    TITLE "Paradise By The Dashboard Light"    PERFORMER "Meat Loaf"    REM COMPOSER ""    INDEX 01 00:00:00

AccurateRip

[CUETools log; Date: 20.10.2018 18:47:43; Version: 2.1.5]Pregap length 00:00:33.[CTDB TOCID: XEJfpWIXGzCXcE13BqI67AUQCVU-] found.Track | CTDB Status  1   | (20/22) Accurately ripped  2   | (19/22) Accurately ripped  3   | (20/22) Accurately ripped  4   | (21/22) Accurately ripped  5   | (21/22) Accurately ripped  6   | (21/22) Accurately ripped  7   | (21/22) Accurately ripped  8   | (21/22) Accurately ripped  9   | (20/22) Accurately ripped 10   | (20/22) Accurately ripped 11   | (21/22) Accurately ripped 12   | (21/22) Accurately ripped 13   | (21/22) Accurately ripped 14   | (21/22) Accurately ripped 15   | (20/22) Accurately ripped 16   | (20/22) Accurately ripped 17   | (20/22) Accurately ripped 18   | (19/22) Accurately ripped[AccurateRip ID: 002e00ac-025fa135-0e10ff12] found.Track   [  CRC   |   V2   ] Status 01     [8e773a91|9ff1ce3b] (08+12/29) Accurately ripped 02     [2087162d|4335326d] (08+12/28) Accurately ripped 03     [dbd818b1|22dee36f] (07+12/28) Accurately ripped 04     [f1e1e8d0|d09e23dd] (07+12/28) Accurately ripped 05     [6b3f9220|44fe2b7c] (06+12/27) Accurately ripped 06     [f9e4db7e|a01fe86e] (06+11/26) Accurately ripped 07     [82c8ea44|ff757ddc] (07+13/28) Accurately ripped 08     [055dd92d|25534458] (07+12/27) Accurately ripped 09     [47d6f31a|22cf4b61] (07+12/27) Accurately ripped 10     [aa179100|b84cae49] (07+12/28) Accurately ripped 11     [db2256f1|d5bcb712] (08+12/29) Accurately ripped 12     [5698ae8c|968f5ee6] (07+12/26) Accurately ripped 13     [6a8b9bc0|87545516] (08+12/28) Accurately ripped 14     [a96dbb57|87687cc8] (08+12/29) Accurately ripped 15     [01b2f430|85544a0b] (08+12/28) Accurately ripped 16     [39c85217|f1a06dc5] (08+10/27) Accurately ripped 17     [e6005685|5cdb72bb] (08+11/27) Accurately ripped 18     [0b0ef985|9dbcf3e7] (06+10/22) Accurately rippedOffsetted by 874: 01     [5dc054d9] (03/29) Accurately ripped 02     [d4d5f8db] (02/28) Accurately ripped 03     [63653963] (03/28) Accurately ripped 04     [44c654ea] (03/28) Accurately ripped 05     [44fdc316] (03/27) Accurately ripped 06     [47ce0a0a] (03/26) Accurately ripped 07     [f3ee40a6] (02/28) Accurately ripped 08     [9a89e9e9] (02/27) Accurately ripped 09     [57dc68d2] (02/27) Accurately ripped 10     [afce5a9c] (03/28) Accurately ripped 11     [d0edfc4d] (03/29) Accurately ripped 12     [a788355e] (02/26) Accurately ripped 13     [c1a2f3ee] (02/28) Accurately ripped 14     [ff02d977] (03/29) Accurately ripped 15     [4378b9d6] (02/28) Accurately ripped 16     [ce616915] (03/27) Accurately ripped 17     [bb2bba89] (02/27) Accurately ripped 18     [869b1ced] (00/22) No match (V2 was not tested)
Track Peak [ CRC32 ] [W/O NULL] [ LOG ] -- 99,2 [41BF8A6D] [4E8C8897] 01 73,8 [8987553C] [1ADF85C8] CRC32 02 90,4 [B40F28B2] [C73762F8] CRC32 03 79,3 [CE1B8E79] [83D84A6C] CRC32 04 99,2 [C3E90FA6] [703F6704] CRC32 05 88,9 [62CF98C9] [5B9DD867] CRC32 06 87,3 [017D54A8] [E439F93C] CRC32 07 82,1 [EE82E9EA] [63A52E47] CRC32 08 88,4 [C935618C] [438C9AEE] CRC32 09 89,2 [E4E28874] [6055EB37] CRC32 10 85,7 [6EF4D114] [6062AEB1] CRC32 11 93,6 [4397965D] [1B3B2297] CRC32 12 85,4 [459BBCCB] [2D29EC76] CRC32 13 76,4 [FA13CEA8] [F12555D6] CRC32 14 96,8 [FCB150C7] [BAF4161C] CRC32 15 87,4 [A564035D] [9CD5455A] CRC32 16 77,3 [FA430684] [C8116C7E] CRC32 17 90,2 [A21AAA16] [06B3C388] CRC32 18 96,3 [EB45E653] [5663F110] CRC32
Вы не можете начинать темы
Вы не можете отвечать на сообщения
Вы не можете редактировать свои сообщения
Вы не можете удалять свои сообщения
Вы не можете голосовать в опросах
Вы не можете прикреплять файлы к сообщениям
Вы можете скачивать файлы
!ВНИМАНИЕ!

Сайт не предоставляет электронные версии произведений, а занимается лишь коллекционированием и каталогизацией ссылок, присылаемых и публикуемых на форуме нашими читателями. Если вы являетесь правообладателем какого-либо представленного материала и не желаете, чтобы ссылка на него находилась в нашем каталоге, свяжитесь с нами, и мы незамедлительно удалим ее. Файлы для обмена на трекере предоставлены пользователями сайта, и администрация не несет ответственности за их содержание. Просьба не заливать файлы, защищенные авторскими правами, а также файлы нелегального содержания!

Искали программы, игры, дополнения, музыка mp3, аниме, аудио книги, журналы? Добро пожаловать на свободный торрент трекер Torrents, у нас можно скачать бесплатно, без смс и регистрации и прочих ограничений лучшие, отборные сборки программ, игр. Скачать торрентом не составит труда даже не опытному пользователю. Раздачи ежедневно обновляются, только лучшие и качественные раздачи, подробные описания и скриншоты. Огромная коллекция программ для работы со звуком, графикой, дизайном, а так же множество плагинов и инструментов к ним с подробной инструкцией и рекомендациями. Прошивки для навигаторов, карты. Разнообразные игры, для Windows, Linux. В коллекцие есть и старые игры любых жанров, Rpg, Action, Shooter, strategy Множество дополнений, модификаций, сценариев для популярных игр в жанре экш, рпг, гонки, стратегии, логические игры. Множество аддонов и сценариев для Microsoft Flight Simulator Большая коллекция книг, учебников. Если нет возможности купить печатное издание - смело скачивайте цифровую версию книги или, быть может, журнала. Не любите читать - можно загрузить бесплатно аудикнигу. Для веб дизайнеров и программистов так же найдется множество специализированного софта, таких как: редакторы с подсветкой, среды программирования, компоненты, системы управления базами данных, разнообразные скрипты и шаблоны. Не так давно у нас появился материал для автолюбителей и владельцев мото - оригинальные и неоригинальные каталоги запчастей, книги и журналы по ремонту и обслуживанию, видеоуроки, статьи по чип тюнингу, прошивкам. Процедура получения контента элементарная, достаточно просто скачать торрент файл и добавить его в загрузку в вашем торрент клиенте. Если у вас нет специального торрент клиента, вы можете его скачать у нас.

He Private Lives Of Great Animals Episode 3 | Jillisa Lynn | The Net Serie TV Streaming Download