(Various) [CD] VA - De Pre Historie 1975 [EMI/Virgin, 260.747, Belgium] - 1991, FLAC (tracks+.cue), lossless 

Цитировать
De Pre Historie 1975
Жанр: Various
Носитель: CD
Страна-производитель диска (релиза): Belgium
Год издания: 1991
Издатель (лейбл): EMI/Virgin
Номер по каталогу: 260.747
Аудиокодек: FLAC (*.flac)
Тип рипа: tracks+.cue
Битрейт аудио: lossless
Продолжительность: 01:10:20
Источник (релизер): From RED
Наличие сканов в содержимом раздачи: нет

Треклист:
01. ABBA – S.O.S.
02. LaBelle – Lady Marmalade (Voulez-Vous Coucher Avec Moi Ce Soir?)
03. Gloria Gaynor – Never Can Say Goodbye
04. Barry White – You're The First, The Last, My Everything
05. Barry Manilow – Mandy
06. Two Man Sound – Charly Brown
07. Tammy Wynette – Stand By Your Man
08. Glenn Campbell – Rhinestone Cowboy
09. Pussycat – Mississippi
10. The Eagles – One Of These Nights
11. Freddy Fender – Before The Next Teardrops Fall
12. Billy-Jo Spears – Blanket On The Ground
13. Harpo – Moviestar
14. Roger Glover – Love Is All
15. Steve Harley & Cockney Rebel – Make Me Smile
16. 10 cc – I'm Not In Love
17. Judy Collins – Send In The Clowns
18. Minnie Riperton – Lovin' You
19. Ann Christy – Gelukkig Zijn
20. Joe Dassin – L'Eté Indien

Лог создания рипа

Exact Audio Copy V1.3 from 2. September 2016
EAC extraction logfile from 19. May 2017, 17:52
Various Artists / De Pre Historie 1975
Used drive : ATAPI iHAS124 F Adapter: 1 ID: 0
Read mode : SecureUtilize accurate stream : YesDefeat audio cache : YesMake use of C2 pointers : No
Read offset correction : 6Overread into Lead-In and Lead-Out : NoFill up missing offset samples with silence : YesDelete leading and trailing silent blocks : NoNull samples used in CRC calculations : YesUsed interface : Native Win32 interface for Win NT & 2000Gap handling : Appended to previous track
Used output format : User Defined EncoderSelected bitrate : 1024 kBit/sQuality : HighAdd ID3 tag : NoCommand line compressor : C:\cmd.exeAdditional command line options : /c ""C:\F\CUETools.FLACCL.cmd.exe" -8 --verify %source% -o %dest% & "C:\M\metaflac.exe" --set-tag="ARTIST=%artist%" --set-tag="TITLE=%title%" --set-tag="ALBUM=%albumtitle%" --set-tag="DATE=%year%" --set-tag="TRACKNUMBER=%tracknr%" --set-tag="GENRE=%genre%" --set-tag="COMPOSER=%composer%" --set-tag="ALBUMARTIST=%albumartist%" %dest%"
TOC of the extracted CD
Track | Start | Length | Start sector | End sector --------------------------------------------------------- 1 | 0:00.33 | 3:21.50 | 33 | 15157 2 | 3:22.08 | 3:56.32 | 15158 | 32889 3 | 7:18.40 | 2:59.70 | 32890 | 46384 4 | 10:18.35 | 4:30.73 | 46385 | 66707 5 | 14:49.33 | 3:20.35 | 66708 | 81742 6 | 18:09.68 | 3:10.72 | 81743 | 96064 7 | 21:20.65 | 2:41.00 | 96065 | 108139 8 | 24:01.65 | 3:11.68 | 108140 | 122532 9 | 27:13.58 | 3:06.22 | 122533 | 136504 10 | 30:20.05 | 4:51.65 | 136505 | 158394 11 | 35:11.70 | 2:32.28 | 158395 | 169822 12 | 37:44.23 | 3:32.65 | 169823 | 185787 13 | 41:17.13 | 3:18.25 | 185788 | 200662 14 | 44:35.38 | 3:06.65 | 200663 | 214677 15 | 47:42.28 | 3:58.00 | 214678 | 232527 16 | 51:40.28 | 3:45.37 | 232528 | 249439 17 | 55:25.65 | 4:03.10 | 249440 | 267674 18 | 59:29.00 | 3:20.58 | 267675 | 282732 19 | 62:49.58 | 3:01.37 | 282733 | 296344 20 | 65:51.20 | 4:29.28 | 296345 | 316547
Track 1
Filename E:\EAC Rips\2017-05 Mei\Various Artists - De Pre Historie 1975 (1991) [FLAC] {BMG 260.747}\01 - ABBA - S.O.S..wav
Pre-gap length 0:00:02.33
Peak level 72.4 % Extraction speed 2.1 X Track quality 100.0 % Test CRC 9AEC01EF Copy CRC 9AEC01EF Accurately ripped (confidence 4) [5BB8B4F9] (AR v2) Copy OK
Track 2
Filename E:\EAC Rips\2017-05 Mei\Various Artists - De Pre Historie 1975 (1991) [FLAC] {BMG 260.747}\02 - LaBelle - Lady Marmalade (Voulez-Vous Coucher Avec Moi Ce Soir).wav
Peak level 88.6 % Extraction speed 2.3 X Track quality 100.0 % Test CRC C714EA6A Copy CRC C714EA6A Accurately ripped (confidence 4) [ABECB7A1] (AR v2) Copy OK
Track 3
Filename E:\EAC Rips\2017-05 Mei\Various Artists - De Pre Historie 1975 (1991) [FLAC] {BMG 260.747}\03 - Gloria Gaynor - Never Can Say Goodbye.wav
Peak level 97.7 % Extraction speed 1.6 X Track quality 99.9 % Test CRC C818CC25 Copy CRC C818CC25 Accurately ripped (confidence 4) [28554CA8] (AR v2) Copy OK
Track 4
Filename E:\EAC Rips\2017-05 Mei\Various Artists - De Pre Historie 1975 (1991) [FLAC] {BMG 260.747}\04 - Barry White - You're The First, The Last, My Everything.wav
Peak level 91.7 % Extraction speed 2.7 X Track quality 100.0 % Test CRC B5B66A89 Copy CRC B5B66A89 Accurately ripped (confidence 4) [69419BB3] (AR v2) Copy OK
Track 5
Filename E:\EAC Rips\2017-05 Mei\Various Artists - De Pre Historie 1975 (1991) [FLAC] {BMG 260.747}\05 - Barry Manilow - Mandy.wav
Peak level 96.8 % Extraction speed 2.7 X Track quality 100.0 % Test CRC E9BF1EE0 Copy CRC E9BF1EE0 Accurately ripped (confidence 4) [828C5EA9] (AR v2) Copy OK
Track 6
Filename E:\EAC Rips\2017-05 Mei\Various Artists - De Pre Historie 1975 (1991) [FLAC] {BMG 260.747}\06 - Two Man Sound - Charly Brown.wav
Peak level 87.5 % Extraction speed 2.9 X Track quality 100.0 % Test CRC 26434CBD Copy CRC 26434CBD Accurately ripped (confidence 4) [E5C78EC3] (AR v2) Copy OK
Track 7
Filename E:\EAC Rips\2017-05 Mei\Various Artists - De Pre Historie 1975 (1991) [FLAC] {BMG 260.747}\07 - Tammy Wynette - Stand By Your Man.wav
Peak level 76.9 % Extraction speed 1.9 X Track quality 99.9 % Test CRC A1B35573 Copy CRC A1B35573 Accurately ripped (confidence 4) [3678DD09] (AR v2) Copy OK
Track 8
Filename E:\EAC Rips\2017-05 Mei\Various Artists - De Pre Historie 1975 (1991) [FLAC] {BMG 260.747}\08 - Glenn Campbell - Rhinestone Cowboy.wav
Peak level 96.4 % Extraction speed 2.1 X Track quality 99.9 % Test CRC 96CE65A5 Copy CRC 96CE65A5 Accurately ripped (confidence 4) [A4554F1B] (AR v2) Copy OK
Track 9
Filename E:\EAC Rips\2017-05 Mei\Various Artists - De Pre Historie 1975 (1991) [FLAC] {BMG 260.747}\09 - Pussycat (2) - Mississippi.wav
Peak level 81.0 % Extraction speed 3.2 X Track quality 100.0 % Test CRC 1839050F Copy CRC 1839050F Accurately ripped (confidence 4) [892A871E] (AR v2) Copy OK
Track 10
Filename E:\EAC Rips\2017-05 Mei\Various Artists - De Pre Historie 1975 (1991) [FLAC] {BMG 260.747}\10 - Eagles - One Of These Nights.wav
Peak level 93.3 % Extraction speed 3.5 X Track quality 100.0 % Test CRC 93DBAC6A Copy CRC 93DBAC6A Accurately ripped (confidence 4) [03EAAF2D] (AR v2) Copy OK
Track 11
Filename E:\EAC Rips\2017-05 Mei\Various Artists - De Pre Historie 1975 (1991) [FLAC] {BMG 260.747}\11 - Freddy Fender (2) - Before The Next Teardrops Fall.wav
Peak level 74.7 % Extraction speed 2.1 X Track quality 99.9 % Test CRC C7D62C33 Copy CRC C7D62C33 Accurately ripped (confidence 4) [92CB20FC] (AR v2) Copy OK
Track 12
Filename E:\EAC Rips\2017-05 Mei\Various Artists - De Pre Historie 1975 (1991) [FLAC] {BMG 260.747}\12 - Billy-Jo Spears - Blanket On The Ground.wav
Peak level 88.5 % Extraction speed 3.6 X Track quality 100.0 % Test CRC CE1EF19A Copy CRC CE1EF19A Accurately ripped (confidence 4) [C60AE1C7] (AR v2) Copy OK
Track 13
Filename E:\EAC Rips\2017-05 Mei\Various Artists - De Pre Historie 1975 (1991) [FLAC] {BMG 260.747}\13 - Harpo - Moviestar.wav
Peak level 89.8 % Extraction speed 3.6 X Track quality 100.0 % Test CRC 9C0E0EEE Copy CRC 9C0E0EEE Accurately ripped (confidence 4) [7600A4BE] (AR v2) Copy OK
Track 14
Filename E:\EAC Rips\2017-05 Mei\Various Artists - De Pre Historie 1975 (1991) [FLAC] {BMG 260.747}\14 - Roger Glover - Love Is All.wav
Peak level 85.1 % Extraction speed 2.5 X Track quality 99.9 % Test CRC EDD123D7 Copy CRC EDD123D7 Accurately ripped (confidence 4) [FBEAD46B] (AR v2) Copy OK
Track 15
Filename E:\EAC Rips\2017-05 Mei\Various Artists - De Pre Historie 1975 (1991) [FLAC] {BMG 260.747}\15 - Steve Harley & Cockney Rebel - Make Me Smile.wav
Peak level 94.0 % Extraction speed 4.0 X Track quality 100.0 % Test CRC AA9209DA Copy CRC AA9209DA Accurately ripped (confidence 3) [9DDACB13] (AR v2) Copy OK
Track 16
Filename E:\EAC Rips\2017-05 Mei\Various Artists - De Pre Historie 1975 (1991) [FLAC] {BMG 260.747}\16 - 10cc - I'm Not In Love.wav
Peak level 95.6 % Extraction speed 4.0 X Track quality 100.0 % Test CRC F8B2F979 Copy CRC F8B2F979 Accurately ripped (confidence 4) [37D9F164] (AR v2) Copy OK
Track 17
Filename E:\EAC Rips\2017-05 Mei\Various Artists - De Pre Historie 1975 (1991) [FLAC] {BMG 260.747}\17 - Judy Collins - Send In The Clowns.wav
Peak level 95.0 % Extraction speed 4.2 X Track quality 100.0 % Test CRC 498DD929 Copy CRC 498DD929 Accurately ripped (confidence 3) [56E53622] (AR v2) Copy OK
Track 18
Filename E:\EAC Rips\2017-05 Mei\Various Artists - De Pre Historie 1975 (1991) [FLAC] {BMG 260.747}\18 - Minnie Riperton - Lovin' You.wav
Peak level 79.4 % Extraction speed 4.1 X Track quality 100.0 % Test CRC E21698D2 Copy CRC E21698D2 Accurately ripped (confidence 3) [D8F71434] (AR v2) Copy OK
Track 19
Filename E:\EAC Rips\2017-05 Mei\Various Artists - De Pre Historie 1975 (1991) [FLAC] {BMG 260.747}\19 - Ann Christy - Gelukkig Zijn.wav
Peak level 99.8 % Extraction speed 4.2 X Track quality 100.0 % Test CRC F7E2F8CC Copy CRC F7E2F8CC Accurately ripped (confidence 4) [3F7BEB88] (AR v2) Copy OK
Track 20
Filename E:\EAC Rips\2017-05 Mei\Various Artists - De Pre Historie 1975 (1991) [FLAC] {BMG 260.747}\20 - Joe Dassin - L'Eté Indien.wav
Peak level 97.3 % Extraction speed 4.5 X Track quality 100.0 % Test CRC AB581177 Copy CRC AB581177 Accurately ripped (confidence 3) [31D3233A] (AR v2) Copy OK
All tracks accurately ripped
No errors occurred
End of status report
---- CUETools DB Plugin V2.1.6
[CTDB TOCID: sDeiawnIOsbRhWcmFAWw_8v8uP4-] foundSubmit result: sDeiawnIOsbRhWcmFAWw_8v8uP4- has been confirmedTrack | CTDB Status 1 | (13/14) Accurately ripped 2 | (13/14) Accurately ripped 3 | (13/14) Accurately ripped 4 | (13/14) Accurately ripped 5 | (13/14) Accurately ripped 6 | (13/14) Accurately ripped 7 | (13/14) Accurately ripped 8 | (13/14) Accurately ripped 9 | (13/14) Accurately ripped 10 | (13/14) Accurately ripped 11 | (13/14) Accurately ripped 12 | (13/14) Accurately ripped 13 | (13/14) Accurately ripped 14 | (13/14) Accurately ripped 15 | (13/14) Accurately ripped 16 | (13/14) Accurately ripped 17 | (13/14) Accurately ripped 18 | (13/14) Accurately ripped 19 | (13/14) Accurately ripped 20 | (14/14) Accurately ripped
==== Log checksum 32C4139DCE63F6E92B2700E783F89C4D4A3DB00C5B1279DC47279106EBC39491 ====

Содержание индексной карты (.CUE)

REM DATE 1991REM DISCID 0D107C14REM COMMENT "ExactAudioCopy v1.3"PERFORMER "Various Artists"TITLE "De Pre Historie 1975"REM COMPOSER ""FILE "01 - ABBA - S.O.S..wav" WAVE  TRACK 01 AUDIO    TITLE "S.O.S."    PERFORMER "ABBA"    REM COMPOSER ""    PREGAP 00:00:33    INDEX 01 00:00:00FILE "02 - LaBelle - Lady Marmalade (Voulez-Vous Coucher Avec Moi Ce Soir).wav" WAVE  TRACK 02 AUDIO    TITLE "Lady Marmalade (Voulez-Vous Coucher Avec Moi Ce Soir?)"    PERFORMER "LaBelle"    REM COMPOSER ""    INDEX 01 00:00:00FILE "03 - Gloria Gaynor - Never Can Say Goodbye.wav" WAVE  TRACK 03 AUDIO    TITLE "Never Can Say Goodbye"    PERFORMER "Gloria Gaynor"    REM COMPOSER ""    INDEX 01 00:00:00FILE "04 - Barry White - You're The First, The Last, My Everything.wav" WAVE  TRACK 04 AUDIO    TITLE "You're The First, The Last, My Everything"    PERFORMER "Barry White"    REM COMPOSER ""    INDEX 01 00:00:00FILE "05 - Barry Manilow - Mandy.wav" WAVE  TRACK 05 AUDIO    TITLE "Mandy"    PERFORMER "Barry Manilow"    REM COMPOSER ""    INDEX 01 00:00:00FILE "06 - Two Man Sound - Charly Brown.wav" WAVE  TRACK 06 AUDIO    TITLE "Charly Brown"    PERFORMER "Two Man Sound"    REM COMPOSER ""    INDEX 01 00:00:00FILE "07 - Tammy Wynette - Stand By Your Man.wav" WAVE  TRACK 07 AUDIO    TITLE "Stand By Your Man"    PERFORMER "Tammy Wynette"    REM COMPOSER ""    INDEX 01 00:00:00FILE "08 - Glenn Campbell - Rhinestone Cowboy.wav" WAVE  TRACK 08 AUDIO    TITLE "Rhinestone Cowboy"    PERFORMER "Glenn Campbell"    REM COMPOSER ""    INDEX 01 00:00:00FILE "09 - Pussycat - Mississippi.wav" WAVE  TRACK 09 AUDIO    TITLE "Mississippi"    PERFORMER "Pussycat"    REM COMPOSER ""    INDEX 01 00:00:00FILE "10 - Eagles - One Of These Nights.wav" WAVE  TRACK 10 AUDIO    TITLE "One Of These Nights"    PERFORMER "Eagles"    REM COMPOSER ""    INDEX 01 00:00:00FILE "11 - Freddy Fender - Before The Next Teardrops Fall.wav" WAVE  TRACK 11 AUDIO    TITLE "Before The Next Teardrops Fall"    PERFORMER "Freddy Fender"    REM COMPOSER ""    INDEX 01 00:00:00FILE "12 - Billy-Jo Spears - Blanket On The Ground.wav" WAVE  TRACK 12 AUDIO    TITLE "Blanket On The Ground"    PERFORMER "Billy-Jo Spears"    REM COMPOSER ""    INDEX 01 00:00:00FILE "13 - Harpo - Moviestar.wav" WAVE  TRACK 13 AUDIO    TITLE "Moviestar"    PERFORMER "Harpo"    REM COMPOSER ""    INDEX 01 00:00:00FILE "14 - Roger Glover - Love Is All.wav" WAVE  TRACK 14 AUDIO    TITLE "Love Is All"    PERFORMER "Roger Glover"    REM COMPOSER ""    INDEX 01 00:00:00FILE "15 - Steve Harley & Cockney Rebel - Make Me Smile.wav" WAVE  TRACK 15 AUDIO    TITLE "Make Me Smile"    PERFORMER "Steve Harley & Cockney Rebel"    REM COMPOSER ""    INDEX 01 00:00:00FILE "16 - 10cc - I'm Not In Love.wav" WAVE  TRACK 16 AUDIO    TITLE "I'm Not In Love"    PERFORMER "10cc"    REM COMPOSER ""    INDEX 01 00:00:00FILE "17 - Judy Collins - Send In The Clowns.wav" WAVE  TRACK 17 AUDIO    TITLE "Send In The Clowns"    PERFORMER "Judy Collins"    REM COMPOSER ""    INDEX 01 00:00:00FILE "18 - Minnie Riperton - Lovin' You.wav" WAVE  TRACK 18 AUDIO    TITLE "Lovin' You"    PERFORMER "Minnie Riperton"    REM COMPOSER ""    INDEX 01 00:00:00FILE "19 - Ann Christy - Gelukkig Zijn.wav" WAVE  TRACK 19 AUDIO    TITLE "Gelukkig Zijn"    PERFORMER "Ann Christy"    REM COMPOSER ""    INDEX 01 00:00:00FILE "20 - Joe Dassin - L'Ete Indien.wav" WAVE  TRACK 20 AUDIO    TITLE "L'Ete Indien"    PERFORMER "Joe Dassin"    REM COMPOSER ""    INDEX 01 00:00:00

AccurateRip

[CUETools log; Date: 20.10.2018 16:46:03; Version: 2.1.5]Pregap length 00:00:33.[CTDB TOCID: sDeiawnIOsbRhWcmFAWw_8v8uP4-] found.Track | CTDB Status  1   | (24/25) Accurately ripped  2   | (24/25) Accurately ripped  3   | (24/25) Accurately ripped  4   | (24/25) Accurately ripped  5   | (24/25) Accurately ripped  6   | (23/25) Accurately ripped  7   | (24/25) Accurately ripped  8   | (24/25) Accurately ripped  9   | (24/25) Accurately ripped 10   | (23/25) Accurately ripped 11   | (24/25) Accurately ripped 12   | (24/25) Accurately ripped 13   | (24/25) Accurately ripped 14   | (24/25) Accurately ripped 15   | (23/25) Accurately ripped 16   | (23/25) Accurately ripped 17   | (23/25) Accurately ripped 18   | (24/25) Accurately ripped 19   | (24/25) Accurately ripped 20   | (25/25) Accurately ripped[AccurateRip ID: 00320f88-02dddc65-0d107c14] found.Track   [  CRC   |   V2   ] Status 01     [897626ed|5bb8b4f9] (04+07/25) Accurately ripped 02     [66c69671|abecb7a1] (03+07/24) Accurately ripped 03     [6955443e|28554ca8] (03+07/24) Accurately ripped 04     [efc514fd|69419bb3] (03+07/24) Accurately ripped 05     [7557627b|828c5ea9] (03+07/24) Accurately ripped 06     [5ed1e7f5|e5c78ec3] (04+07/25) Accurately ripped 07     [dc3ac75f|3678dd09] (03+07/23) Accurately ripped 08     [e27956cd|a4554f1b] (03+07/23) Accurately ripped 09     [9ce12798|892a871e] (04+07/23) Accurately ripped 10     [227675fc|03eaaf2d] (04+07/24) Accurately ripped 11     [1bd792d4|92cb20fc] (03+07/24) Accurately ripped 12     [31328c55|c60ae1c7] (03+07/24) Accurately ripped 13     [028b8feb|7600a4be] (03+07/25) Accurately ripped 14     [fe5dd33a|fbead46b] (04+07/26) Accurately ripped 15     [e9a8ffd3|9ddacb13] (03+06/24) Accurately ripped 16     [16b5a765|37d9f164] (03+07/24) Accurately ripped 17     [893d435a|56e53622] (03+06/24) Accurately ripped 18     [789a38a2|d8f71434] (03+06/24) Accurately ripped 19     [20af55df|3f7beb88] (04+07/25) Accurately ripped 20     [d1e46ce6|31d3233a] (04+06/24) Accurately rippedOffsetted by -1120: 01     [32de7f2d] (06/25) Accurately ripped 02     [365be131] (06/24) Accurately ripped 03     [b651fc7e] (06/24) Accurately ripped 04     [c71b4d7d] (06/24) Accurately ripped 05     [97d5d6bb] (06/24) Accurately ripped 06     [750fe2d5] (06/25) Accurately ripped 07     [58a5e79f] (05/23) Accurately ripped 08     [f0ad5f2d] (06/23) Accurately ripped 09     [afcb7f38] (05/23) Accurately ripped 10     [46a8975c] (05/24) Accurately ripped 11     [7e6dfb34] (06/24) Accurately ripped 12     [95e5afd5] (06/24) Accurately ripped 13     [78a1f12b] (07/25) Accurately ripped 14     [01627e9a] (07/26) Accurately ripped 15     [1d77a513] (07/24) Accurately ripped 16     [9da746a5] (07/24) Accurately ripped 17     [bfd37dda] (07/24) Accurately ripped 18     [0c383562] (07/24) Accurately ripped 19     [60146b3f] (06/25) Accurately ripped 20     [9c968206] (07/24) Accurately ripped
Track Peak [ CRC32 ] [W/O NULL] [ LOG ] -- 99,8 [15C12D93] [AE2292AA] 01 72,4 [9AEC01EF] [FEC23F11] CRC32 02 88,5 [C714EA6A] [4C2F15FF] CRC32 03 97,7 [C818CC25] [80B94EC6] CRC32 04 91,7 [B5B66A89] [232FB738] CRC32 05 96,8 [E9BF1EE0] [83BDE30C] CRC32 06 87,5 [26434CBD] [B345D035] CRC32 07 76,9 [A1B35573] [8F6A8A83] CRC32 08 96,4 [96CE65A5] [E2395FDB] CRC32 09 81,0 [1839050F] [704BF66B] CRC32 10 93,3 [93DBAC6A] [13F8D546] CRC32 11 74,7 [C7D62C33] [FECE2117] CRC32 12 88,5 [CE1EF19A] [46650B12] CRC32 13 89,8 [9C0E0EEE] [202A91EE] CRC32 14 85,1 [EDD123D7] [B1016326] CRC32 15 93,9 [AA9209DA] [425D74F8] CRC32 16 95,6 [F8B2F979] [E2C13A44] CRC32 17 95,0 [498DD929] [1A54FA03] CRC32 18 79,4 [E21698D2] [62A40D6B] CRC32 19 99,8 [F7E2F8CC] [0DA9D470] CRC32 20 97,3 [AB581177] [517C85E8] CRC32
Вы не можете начинать темы
Вы не можете отвечать на сообщения
Вы не можете редактировать свои сообщения
Вы не можете удалять свои сообщения
Вы не можете голосовать в опросах
Вы не можете прикреплять файлы к сообщениям
Вы можете скачивать файлы
!ВНИМАНИЕ!

Сайт не предоставляет электронные версии произведений, а занимается лишь коллекционированием и каталогизацией ссылок, присылаемых и публикуемых на форуме нашими читателями. Если вы являетесь правообладателем какого-либо представленного материала и не желаете, чтобы ссылка на него находилась в нашем каталоге, свяжитесь с нами, и мы незамедлительно удалим ее. Файлы для обмена на трекере предоставлены пользователями сайта, и администрация не несет ответственности за их содержание. Просьба не заливать файлы, защищенные авторскими правами, а также файлы нелегального содержания!

Искали программы, игры, дополнения, музыка mp3, аниме, аудио книги, журналы? Добро пожаловать на свободный торрент трекер Torrents, у нас можно скачать бесплатно, без смс и регистрации и прочих ограничений лучшие, отборные сборки программ, игр. Скачать торрентом не составит труда даже не опытному пользователю. Раздачи ежедневно обновляются, только лучшие и качественные раздачи, подробные описания и скриншоты. Огромная коллекция программ для работы со звуком, графикой, дизайном, а так же множество плагинов и инструментов к ним с подробной инструкцией и рекомендациями. Прошивки для навигаторов, карты. Разнообразные игры, для Windows, Linux. В коллекцие есть и старые игры любых жанров, Rpg, Action, Shooter, strategy Множество дополнений, модификаций, сценариев для популярных игр в жанре экш, рпг, гонки, стратегии, логические игры. Множество аддонов и сценариев для Microsoft Flight Simulator Большая коллекция книг, учебников. Если нет возможности купить печатное издание - смело скачивайте цифровую версию книги или, быть может, журнала. Не любите читать - можно загрузить бесплатно аудикнигу. Для веб дизайнеров и программистов так же найдется множество специализированного софта, таких как: редакторы с подсветкой, среды программирования, компоненты, системы управления базами данных, разнообразные скрипты и шаблоны. Не так давно у нас появился материал для автолюбителей и владельцев мото - оригинальные и неоригинальные каталоги запчастей, книги и журналы по ремонту и обслуживанию, видеоуроки, статьи по чип тюнингу, прошивкам. Процедура получения контента элементарная, достаточно просто скачать торрент файл и добавить его в загрузку в вашем торрент клиенте. Если у вас нет специального торрент клиента, вы можете его скачать у нас.

System Mechanic Pro 18 0 1 391 zip | September 24th, 2018 | GoPro HERO7 Black Waterproof Digital Action Camera 4K HD Video 12MP + 32gb Kit