(Various) [CD] VA - De Pre Historie 1974 [EMI/Virgin, 260.746, Belgium] - 1991, FLAC (tracks+.cue), lossless 

Цитировать
De Pre Historie 1974
Жанр: Various
Носитель: CD
Страна-производитель диска (релиза): Belgium
Год издания: 1991
Издатель (лейбл): EMI/Virgin
Номер по каталогу: 260.746
Аудиокодек: FLAC (*.flac)
Тип рипа: tracks+.cue
Битрейт аудио: lossless
Продолжительность: 01:11:46
Источник (релизер): From RED
Наличие сканов в содержимом раздачи: нет

Треклист:
01. ABBA – Waterloo
02. Terry Jacks – Seasons In The Sun
03. The Three Degrees – Dirty Ol' Man
04. George McCrae – Rock Your Baby
05. Drifters – Kissing In The Back Row Of The Movies
06. Billy Swan – I Can Help
07. Mud – Tiger Feet
08. Steve Harley & Cockney Rebel – Sebastian
09. The Sparks – This Town Ain't Big Enough For Both Of Us
10. Bachman-Turner Overdrive – You Ain't Seen Nothing Yet
11. The Rubettes – Sugar Baby Love
12. The Hollies – The Air That I Breathe
13. First Class – Beach Baby
14. Marvin Hamlish – The Entertainer
15. Charlie Rich – The Most Beautiful Girl
16. Eric Clapton – I Shot The Sheriff
17. Hot Chocolate – Emma
18. Hues Corporation – Rock The Boat
19. Love Unlimited Orchestra – Love's Theme
20. Barry White – Never Never Gonna Give You Up

Лог создания рипа

Exact Audio Copy V1.3 from 2. September 2016
EAC extraction logfile from 19. May 2017, 11:58
Various Artists / De Pre Historie 1974
Used drive : ATAPI iHAS124 F Adapter: 1 ID: 2
Read mode : SecureUtilize accurate stream : YesDefeat audio cache : YesMake use of C2 pointers : No
Read offset correction : 6Overread into Lead-In and Lead-Out : NoFill up missing offset samples with silence : YesDelete leading and trailing silent blocks : NoNull samples used in CRC calculations : YesUsed interface : Native Win32 interface for Win NT & 2000Gap handling : Appended to previous track
Used output format : User Defined EncoderSelected bitrate : 1024 kBit/sQuality : HighAdd ID3 tag : NoCommand line compressor : C:\cmd.exeAdditional command line options : /c ""C:\F\CUETools.FLACCL.cmd.exe" -8 --verify %source% -o %dest% & "C:\M\metaflac.exe" --set-tag="ARTIST=%artist%" --set-tag="TITLE=%title%" --set-tag="ALBUM=%albumtitle%" --set-tag="DATE=%year%" --set-tag="TRACKNUMBER=%tracknr%" --set-tag="GENRE=%genre%" --set-tag="COMPOSER=%composer%" --set-tag="ALBUMARTIST=%albumartist%" %dest%"
TOC of the extracted CD
Track | Start | Length | Start sector | End sector --------------------------------------------------------- 1 | 0:00.33 | 2:46.17 | 33 | 12499 2 | 2:46.50 | 3:26.18 | 12500 | 27967 3 | 6:12.68 | 3:13.62 | 27968 | 42504 4 | 9:26.55 | 3:14.28 | 42505 | 57082 5 | 12:41.08 | 3:31.02 | 57083 | 72909 6 | 16:12.10 | 2:56.65 | 72910 | 86174 7 | 19:09.00 | 3:51.50 | 86175 | 103549 8 | 23:00.50 | 5:42.58 | 103550 | 129257 9 | 28:43.33 | 3:04.27 | 129258 | 143084 10 | 31:47.60 | 3:33.10 | 143085 | 159069 11 | 35:20.70 | 3:30.35 | 159070 | 174854 12 | 38:51.30 | 4:08.25 | 174855 | 193479 13 | 42:59.55 | 4:54.68 | 193480 | 215597 14 | 47:54.48 | 3:06.35 | 215598 | 229582 15 | 51:01.08 | 2:34.05 | 229583 | 241137 16 | 53:35.13 | 3:31.32 | 241138 | 256994 17 | 57:06.45 | 3:47.30 | 256995 | 274049 18 | 60:54.00 | 3:06.58 | 274050 | 288057 19 | 64:00.58 | 4:06.55 | 288058 | 306562 20 | 68:07.38 | 3:56.62 | 306563 | 324324
Track 1
Filename E:\EAC Rips\2017-05 Mei\Various Artists - De Pre Historie 1974 (1991) [FLAC] {BMG 260.746}\01 - ABBA - Waterloo.wav
Pre-gap length 0:00:02.33
Peak level 80.0 % Extraction speed 2.0 X Track quality 100.0 % Test CRC 06F23E92 Copy CRC 06F23E92 Accurately ripped (confidence 4) [0E9BAA21] (AR v2) Copy OK
Track 2
Filename E:\EAC Rips\2017-05 Mei\Various Artists - De Pre Historie 1974 (1991) [FLAC] {BMG 260.746}\02 - Terry Jacks - Seasons In The Sun.wav
Pre-gap length 0:00:01.12
Peak level 77.2 % Extraction speed 2.2 X Track quality 100.0 % Test CRC E2D29019 Copy CRC E2D29019 Accurately ripped (confidence 4) [486F0F43] (AR v2) Copy OK
Track 3
Filename E:\EAC Rips\2017-05 Mei\Various Artists - De Pre Historie 1974 (1991) [FLAC] {BMG 260.746}\03 - The Three Degrees - Dirty Ol' Man.wav
Peak level 88.1 % Extraction speed 2.3 X Track quality 100.0 % Test CRC F9825446 Copy CRC F9825446 Accurately ripped (confidence 4) [05BDC32B] (AR v2) Copy OK
Track 4
Filename E:\EAC Rips\2017-05 Mei\Various Artists - De Pre Historie 1974 (1991) [FLAC] {BMG 260.746}\04 - George McCrae - Rock Your Baby.wav
Peak level 91.4 % Extraction speed 2.5 X Track quality 100.0 % Test CRC 34DB3AFF Copy CRC 34DB3AFF Accurately ripped (confidence 4) [46BA3356] (AR v2) Copy OK
Track 5
Filename E:\EAC Rips\2017-05 Mei\Various Artists - De Pre Historie 1974 (1991) [FLAC] {BMG 260.746}\05 - The Drifters - Kissing In The Back Row Of The Movies.wav
Pre-gap length 0:00:01.65
Peak level 63.9 % Extraction speed 2.6 X Track quality 100.0 % Test CRC 84E260BE Copy CRC 84E260BE Accurately ripped (confidence 4) [F4A80C90] (AR v2) Copy OK
Track 6
Filename E:\EAC Rips\2017-05 Mei\Various Artists - De Pre Historie 1974 (1991) [FLAC] {BMG 260.746}\06 - Billy Swan - I Can Help.wav
Peak level 80.8 % Extraction speed 2.7 X Track quality 100.0 % Test CRC ACAC8E6C Copy CRC ACAC8E6C Accurately ripped (confidence 4) [D19E5F01] (AR v2) Copy OK
Track 7
Filename E:\EAC Rips\2017-05 Mei\Various Artists - De Pre Historie 1974 (1991) [FLAC] {BMG 260.746}\07 - Mud - Tiger Feet.wav
Peak level 82.5 % Extraction speed 3.0 X Track quality 100.0 % Test CRC 4461D374 Copy CRC 4461D374 Accurately ripped (confidence 4) [9111269F] (AR v2) Copy OK
Track 8
Filename E:\EAC Rips\2017-05 Mei\Various Artists - De Pre Historie 1974 (1991) [FLAC] {BMG 260.746}\08 - Steve Harley & Cockney Rebel - Sebastian.wav
Pre-gap length 0:00:01.57
Peak level 81.7 % Extraction speed 3.3 X Track quality 100.0 % Test CRC 26C57EF3 Copy CRC 26C57EF3 Accurately ripped (confidence 4) [D8C9742E] (AR v2) Copy OK
Track 9
Filename E:\EAC Rips\2017-05 Mei\Various Artists - De Pre Historie 1974 (1991) [FLAC] {BMG 260.746}\09 - Sparks - This Town Ain't Big Enough For Both Of Us.wav
Peak level 99.2 % Extraction speed 3.2 X Track quality 100.0 % Test CRC 92065ADD Copy CRC 92065ADD Accurately ripped (confidence 4) [9F4B0CAF] (AR v2) Copy OK
Track 10
Filename E:\EAC Rips\2017-05 Mei\Various Artists - De Pre Historie 1974 (1991) [FLAC] {BMG 260.746}\10 - Bachman–Turner Overdrive - You Ain't Seen Nothing Yet.wav
Pre-gap length 0:00:01.07
Peak level 84.0 % Extraction speed 2.9 X Track quality 99.9 % Test CRC 5FC42272 Copy CRC 5FC42272 Accurately ripped (confidence 4) [142DEEBD] (AR v2) Copy OK
Track 11
Filename E:\EAC Rips\2017-05 Mei\Various Artists - De Pre Historie 1974 (1991) [FLAC] {BMG 260.746}\11 - The Rubettes - Sugar Baby Love.wav
Peak level 74.0 % Extraction speed 3.0 X Track quality 99.9 % Test CRC 379BC11A Copy CRC 379BC11A Accurately ripped (confidence 4) [4D805A78] (AR v2) Copy OK
Track 12
Filename E:\EAC Rips\2017-05 Mei\Various Artists - De Pre Historie 1974 (1991) [FLAC] {BMG 260.746}\12 - The Hollies - The Air That I Breathe.wav
Pre-gap length 0:00:01.40
Peak level 99.2 % Extraction speed 3.2 X Track quality 99.9 % Test CRC 73A74ED2 Copy CRC 73A74ED2 Accurately ripped (confidence 4) [6EA82F3F] (AR v2) Copy OK
Track 13
Filename E:\EAC Rips\2017-05 Mei\Various Artists - De Pre Historie 1974 (1991) [FLAC] {BMG 260.746}\13 - First Class - Beach Baby.wav
Peak level 99.2 % Extraction speed 3.8 X Track quality 100.0 % Test CRC E4B0B2BE Copy CRC E4B0B2BE Accurately ripped (confidence 4) [0EE255A4] (AR v2) Copy OK
Track 14
Filename E:\EAC Rips\2017-05 Mei\Various Artists - De Pre Historie 1974 (1991) [FLAC] {BMG 260.746}\14 - Marvin Hamlisch - The Entertainer.wav
Pre-gap length 0:00:01.50
Peak level 87.2 % Extraction speed 3.7 X Track quality 100.0 % Test CRC 412559F8 Copy CRC 412559F8 Accurately ripped (confidence 4) [84C19F6B] (AR v2) Copy OK
Track 15
Filename E:\EAC Rips\2017-05 Mei\Various Artists - De Pre Historie 1974 (1991) [FLAC] {BMG 260.746}\15 - Charlie Rich - The Most Beautiful Girl.wav
Pre-gap length 0:00:03.03
Peak level 78.8 % Extraction speed 3.6 X Track quality 100.0 % Test CRC DDB3E775 Copy CRC DDB3E775 Accurately ripped (confidence 4) [E8B8BD7B] (AR v2) Copy OK
Track 16
Filename E:\EAC Rips\2017-05 Mei\Various Artists - De Pre Historie 1974 (1991) [FLAC] {BMG 260.746}\16 - Eric Clapton - I Shot The Sheriff.wav
Pre-gap length 0:00:01.25
Peak level 99.2 % Extraction speed 3.9 X Track quality 100.0 % Test CRC 9BB7D90D Copy CRC 9BB7D90D Accurately ripped (confidence 4) [DCAFBE29] (AR v2) Copy OK
Track 17
Filename E:\EAC Rips\2017-05 Mei\Various Artists - De Pre Historie 1974 (1991) [FLAC] {BMG 260.746}\17 - Hot Chocolate - Emma.wav
Peak level 92.6 % Extraction speed 3.6 X Track quality 99.9 % Test CRC 8CC613A9 Copy CRC 8CC613A9 Accurately ripped (confidence 4) [966B86C3] (AR v2) Copy OK
Track 18
Filename E:\EAC Rips\2017-05 Mei\Various Artists - De Pre Historie 1974 (1991) [FLAC] {BMG 260.746}\18 - The Hues Corporation - Rock The Boat.wav
Pre-gap length 0:00:01.45
Peak level 80.3 % Extraction speed 4.0 X Track quality 100.0 % Test CRC B9825EBC Copy CRC B9825EBC Accurately ripped (confidence 4) [3A7A513C] (AR v2) Copy OK
Track 19
Filename E:\EAC Rips\2017-05 Mei\Various Artists - De Pre Historie 1974 (1991) [FLAC] {BMG 260.746}\19 - Love Unlimited Orchestra - Love's Theme.wav
Pre-gap length 0:00:01.00
Peak level 89.4 % Extraction speed 4.2 X Track quality 100.0 % Test CRC EB75A17D Copy CRC EB75A17D Accurately ripped (confidence 3) [8D1C7225] (AR v2) Copy OK
Track 20
Filename E:\EAC Rips\2017-05 Mei\Various Artists - De Pre Historie 1974 (1991) [FLAC] {BMG 260.746}\20 - Barry White - Never Never Gonna Give You Up.wav
Pre-gap length 0:00:01.33
Peak level 67.3 % Extraction speed 4.3 X Track quality 100.0 % Test CRC F3C499E9 Copy CRC F3C499E9 Accurately ripped (confidence 4) [3BE3083A] (AR v2) Copy OK
All tracks accurately ripped
No errors occurred
End of status report
---- CUETools DB Plugin V2.1.6
[CTDB TOCID: 7dCs5GiytkY.spOEn3lBRoxgjjs-] foundSubmit result: 7dCs5GiytkY.spOEn3lBRoxgjjs- has been confirmedTrack | CTDB Status 1 | (12/12) Accurately ripped 2 | (12/12) Accurately ripped 3 | (12/12) Accurately ripped 4 | (12/12) Accurately ripped 5 | (12/12) Accurately ripped 6 | (12/12) Accurately ripped 7 | (12/12) Accurately ripped 8 | (12/12) Accurately ripped 9 | (12/12) Accurately ripped 10 | (12/12) Accurately ripped 11 | (12/12) Accurately ripped 12 | (12/12) Accurately ripped 13 | (12/12) Accurately ripped 14 | (12/12) Accurately ripped 15 | (12/12) Accurately ripped 16 | (12/12) Accurately ripped 17 | (12/12) Accurately ripped 18 | (12/12) Accurately ripped 19 | (12/12) Accurately ripped 20 | (12/12) Accurately ripped
==== Log checksum 1AC9B0E9D1050DE671E4FADF387935654AFFA07F6E545578BCF51E98EE8B5161 ====

Содержание индексной карты (.CUE)

REM DATE 1991REM DISCID 2C10E414REM COMMENT "ExactAudioCopy v1.3"PERFORMER "Various Artists"TITLE "De Pre Historie 1974"REM COMPOSER ""FILE "01 - ABBA - Waterloo.wav" WAVE  TRACK 01 AUDIO    TITLE "Waterloo"    PERFORMER "ABBA"    REM COMPOSER ""    PREGAP 00:00:33    INDEX 01 00:00:00  TRACK 02 AUDIO    TITLE "Seasons In The Sun"    PERFORMER "Terry Jacks"    REM COMPOSER ""    INDEX 00 02:45:05FILE "02 - Terry Jacks - Seasons In The Sun.wav" WAVE    INDEX 01 00:00:00FILE "03 - The Three Degrees - Dirty Ol' Man.wav" WAVE  TRACK 03 AUDIO    TITLE "Dirty Ol' Man"    PERFORMER "The Three Degrees"    REM COMPOSER ""    INDEX 01 00:00:00FILE "04 - George McCrae - Rock Your Baby.wav" WAVE  TRACK 04 AUDIO    TITLE "Rock Your Baby"    PERFORMER "George McCrae"    REM COMPOSER ""    INDEX 01 00:00:00  TRACK 05 AUDIO    TITLE "Kissing In The Back Row Of The Movies"    PERFORMER "The Drifters"    REM COMPOSER ""    INDEX 00 03:12:38FILE "05 - The Drifters - Kissing In The Back Row Of The Movies.wav" WAVE    INDEX 01 00:00:00FILE "06 - Billy Swan - I Can Help.wav" WAVE  TRACK 06 AUDIO    TITLE "I Can Help"    PERFORMER "Billy Swan"    REM COMPOSER ""    INDEX 01 00:00:00FILE "07 - Mud - Tiger Feet.wav" WAVE  TRACK 07 AUDIO    TITLE "Tiger Feet"    PERFORMER "Mud"    REM COMPOSER ""    INDEX 01 00:00:00  TRACK 08 AUDIO    TITLE "Sebastian"    PERFORMER "Steve Harley & Cockney Rebel"    REM COMPOSER ""    INDEX 00 03:49:68FILE "08 - Steve Harley & Cockney Rebel - Sebastian.wav" WAVE    INDEX 01 00:00:00FILE "09 - Sparks - This Town Ain't Big Enough For Both Of Us.wav" WAVE  TRACK 09 AUDIO    TITLE "This Town Ain't Big Enough For Both Of Us"    PERFORMER "Sparks"    REM COMPOSER ""    INDEX 01 00:00:00  TRACK 10 AUDIO    TITLE "You Ain't Seen Nothing Yet"    PERFORMER "Bachman–Turner Overdrive"    REM COMPOSER ""    INDEX 00 03:03:20FILE "10 - Bachman–Turner Overdrive - You Ain't Seen Nothing Yet.wav" WAVE    INDEX 01 00:00:00FILE "11 - The Rubettes - Sugar Baby Love.wav" WAVE  TRACK 11 AUDIO    TITLE "Sugar Baby Love"    PERFORMER "The Rubettes"    REM COMPOSER ""    INDEX 01 00:00:00  TRACK 12 AUDIO    TITLE "The Air That I Breathe"    PERFORMER "The Hollies"    REM COMPOSER ""    INDEX 00 03:28:70FILE "12 - The Hollies - The Air That I Breathe.wav" WAVE    INDEX 01 00:00:00FILE "13 - First Class - Beach Baby.wav" WAVE  TRACK 13 AUDIO    TITLE "Beach Baby"    PERFORMER "First Class"    REM COMPOSER ""    INDEX 01 00:00:00  TRACK 14 AUDIO    TITLE "The Entertainer"    PERFORMER "Marvin Hamlisch"    REM COMPOSER ""    INDEX 00 04:53:18FILE "14 - Marvin Hamlisch - The Entertainer.wav" WAVE    INDEX 01 00:00:00  TRACK 15 AUDIO    TITLE "The Most Beautiful Girl"    PERFORMER "Charlie Rich"    REM COMPOSER ""    INDEX 00 03:03:32FILE "15 - Charlie Rich - The Most Beautiful Girl.wav" WAVE    INDEX 01 00:00:00  TRACK 16 AUDIO    TITLE "I Shot The Sheriff"    PERFORMER "Eric Clapton"    REM COMPOSER ""    INDEX 00 02:32:55FILE "16 - Eric Clapton - I Shot The Sheriff.wav" WAVE    INDEX 01 00:00:00FILE "17 - Hot Chocolate - Emma.wav" WAVE  TRACK 17 AUDIO    TITLE "Emma"    PERFORMER "Hot Chocolate"    REM COMPOSER ""    INDEX 01 00:00:00  TRACK 18 AUDIO    TITLE "Rock The Boat"    PERFORMER "The Hues Corporation"    REM COMPOSER ""    INDEX 00 03:45:60FILE "18 - The Hues Corporation - Rock The Boat.wav" WAVE    INDEX 01 00:00:00  TRACK 19 AUDIO    TITLE "Love's Theme"    PERFORMER "Love Unlimited Orchestra"    REM COMPOSER ""    INDEX 00 03:05:58FILE "19 - Love Unlimited Orchestra - Love's Theme.wav" WAVE    INDEX 01 00:00:00  TRACK 20 AUDIO    TITLE "Never Never Gonna Give You Up"    PERFORMER "Barry White"    REM COMPOSER ""    INDEX 00 04:05:22FILE "20 - Barry White - Never Never Gonna Give You Up.wav" WAVE    INDEX 01 00:00:00

AccurateRip

[CUETools log; Date: 20.10.2018 16:25:56; Version: 2.1.5]Pregap length 00:00:33.[CTDB TOCID: 7dCs5GiytkY.spOEn3lBRoxgjjs-] found.Track | CTDB Status  1   | (26/26) Accurately ripped  2   | (26/26) Accurately ripped  3   | (26/26) Accurately ripped  4   | (26/26) Accurately ripped  5   | (26/26) Accurately ripped  6   | (26/26) Accurately ripped  7   | (26/26) Accurately ripped  8   | (26/26) Accurately ripped  9   | (26/26) Accurately ripped 10   | (26/26) Accurately ripped 11   | (26/26) Accurately ripped 12   | (26/26) Accurately ripped 13   | (26/26) Accurately ripped 14   | (26/26) Accurately ripped 15   | (26/26) Accurately ripped 16   | (26/26) Accurately ripped 17   | (26/26) Accurately ripped 18   | (26/26) Accurately ripped 19   | (25/26) Accurately ripped 20   | (25/26) Accurately ripped[AccurateRip ID: 0032f21e-02f23702-2c10e414] found.Track   [  CRC   |   V2   ] Status 01     [b300b3de|0e9baa21] (04+05/27) Accurately ripped 02     [4c2c4729|486f0f43] (04+05/26) Accurately ripped 03     [ca015dab|05bdc32b] (03+05/25) Accurately ripped 04     [d76f5430|46ba3356] (03+05/25) Accurately ripped 05     [fdd31fb1|f4a80c90] (04+05/26) Accurately ripped 06     [67036252|d19e5f01] (04+05/25) Accurately ripped 07     [2e5cad03|9111269f] (03+05/25) Accurately ripped 08     [07e799b5|d8c9742e] (03+05/25) Accurately ripped 09     [258ea32d|9f4b0caf] (03+05/25) Accurately ripped 10     [20b84601|142deebd] (03+05/24) Accurately ripped 11     [667ea2cb|4d805a78] (03+05/25) Accurately ripped 12     [572ffa20|6ea82f3f] (03+05/25) Accurately ripped 13     [01d0a86c|0ee255a4] (03+05/24) Accurately ripped 14     [2d4d010b|84c19f6b] (04+05/25) Accurately ripped 15     [feb294fc|e8b8bd7b] (03+05/25) Accurately ripped 16     [71589841|dcafbe29] (04+05/26) Accurately ripped 17     [07367115|966b86c3] (03+05/25) Accurately ripped 18     [5ddfc652|3a7a513c] (03+05/24) Accurately ripped 19     [d12d77ce|8d1c7225] (03+04/23) Accurately ripped 20     [8677484b|3be3083a] (02+05/23) Accurately rippedOffsetted by -30: 01     [c5564909] (07/27) Accurately ripped 02     [f655e9fc] (06/26) Accurately ripped 03     [30334a2a] (06/25) Accurately ripped 04     [495fd216] (06/25) Accurately ripped 05     [189e96df] (06/26) Accurately ripped 06     [23740b35] (06/25) Accurately ripped 07     [75307e26] (06/25) Accurately ripped 08     [dce1f009] (06/25) Accurately ripped 09     [1ccce128] (06/25) Accurately ripped 10     [aba7bd7a] (06/24) Accurately ripped 11     [7df69fb8] (06/25) Accurately ripped 12     [2f0d7d31] (06/25) Accurately ripped 13     [2d39317a] (06/24) Accurately ripped 14     [eef65e6c] (06/25) Accurately ripped 15     [225fad51] (06/25) Accurately ripped 16     [2bb2b346] (06/26) Accurately ripped 17     [35f9dc35] (06/25) Accurately ripped 18     [9aebd2b4] (05/24) Accurately ripped 19     [a6ca7104] (06/23) Accurately ripped 20     [5ecd69d8] (06/23) Accurately ripped
Track Peak [ CRC32 ] [W/O NULL] [ LOG ] -- 99,2 [80325D3E] [3017614C] 01 80,0 [06F23E92] [C2574E5B] CRC32 02 77,2 [E2D29019] [8AA3A9F1] CRC32 03 88,1 [F9825446] [BB0AB1CD] CRC32 04 91,4 [34DB3AFF] [5A3499CD] CRC32 05 63,9 [84E260BE] [C1E3587E] CRC32 06 80,8 [ACAC8E6C] [87DEE07B] CRC32 07 82,5 [4461D374] [3E06CEAD] CRC32 08 81,7 [26C57EF3] [30928CF4] CRC32 09 99,2 [92065ADD] [024478DE] CRC32 10 84,0 [5FC42272] [8FD389A3] CRC32 11 74,0 [379BC11A] [F6E3751D] CRC32 12 99,2 [73A74ED2] [D5833E0B] CRC32 13 99,2 [E4B0B2BE] [0A70451C] CRC32 14 87,2 [412559F8] [E26F54B7] CRC32 15 78,8 [DDB3E775] [57F9AA47] CRC32 16 99,2 [9BB7D90D] [BEA14B2E] CRC32 17 92,6 [8CC613A9] [A7B0F7E5] CRC32 18 80,3 [B9825EBC] [5D2B445C] CRC32 19 89,4 [EB75A17D] [9CF9B3DB] CRC32 20 67,3 [F3C499E9] [1A7EE727] CRC32
Вы не можете начинать темы
Вы не можете отвечать на сообщения
Вы не можете редактировать свои сообщения
Вы не можете удалять свои сообщения
Вы не можете голосовать в опросах
Вы не можете прикреплять файлы к сообщениям
Вы можете скачивать файлы
!ВНИМАНИЕ!

Сайт не предоставляет электронные версии произведений, а занимается лишь коллекционированием и каталогизацией ссылок, присылаемых и публикуемых на форуме нашими читателями. Если вы являетесь правообладателем какого-либо представленного материала и не желаете, чтобы ссылка на него находилась в нашем каталоге, свяжитесь с нами, и мы незамедлительно удалим ее. Файлы для обмена на трекере предоставлены пользователями сайта, и администрация не несет ответственности за их содержание. Просьба не заливать файлы, защищенные авторскими правами, а также файлы нелегального содержания!

Искали программы, игры, дополнения, музыка mp3, аниме, аудио книги, журналы? Добро пожаловать на свободный торрент трекер Torrents, у нас можно скачать бесплатно, без смс и регистрации и прочих ограничений лучшие, отборные сборки программ, игр. Скачать торрентом не составит труда даже не опытному пользователю. Раздачи ежедневно обновляются, только лучшие и качественные раздачи, подробные описания и скриншоты. Огромная коллекция программ для работы со звуком, графикой, дизайном, а так же множество плагинов и инструментов к ним с подробной инструкцией и рекомендациями. Прошивки для навигаторов, карты. Разнообразные игры, для Windows, Linux. В коллекцие есть и старые игры любых жанров, Rpg, Action, Shooter, strategy Множество дополнений, модификаций, сценариев для популярных игр в жанре экш, рпг, гонки, стратегии, логические игры. Множество аддонов и сценариев для Microsoft Flight Simulator Большая коллекция книг, учебников. Если нет возможности купить печатное издание - смело скачивайте цифровую версию книги или, быть может, журнала. Не любите читать - можно загрузить бесплатно аудикнигу. Для веб дизайнеров и программистов так же найдется множество специализированного софта, таких как: редакторы с подсветкой, среды программирования, компоненты, системы управления базами данных, разнообразные скрипты и шаблоны. Не так давно у нас появился материал для автолюбителей и владельцев мото - оригинальные и неоригинальные каталоги запчастей, книги и журналы по ремонту и обслуживанию, видеоуроки, статьи по чип тюнингу, прошивкам. Процедура получения контента элементарная, достаточно просто скачать торрент файл и добавить его в загрузку в вашем торрент клиенте. Если у вас нет специального торрент клиента, вы можете его скачать у нас.

The Greatest Show | Isolados do Mundo (Goodbye World) 2014 | Kirrak Party (2018) Hindi Dubbed HDRip | 720p | 480p