(Various) [CD] VA - De Pre Historie 1961 Vol. 2 [EVA, 74321 16217 2, Belgium] - 1993, FLAC (tracks+.cue), lossless 

Цитировать
De Pre Historie 1961 Vol. 2
Жанр: Various
Носитель: CD
Страна-производитель диска (релиза): Belgium
Год издания: 1993
Издатель (лейбл): EVA
Номер по каталогу: 74321 16217 2
Аудиокодек: FLAC (*.flac)
Тип рипа: tracks+.cue
Битрейт аудио: lossless
Продолжительность: 01:07:18
Источник (релизер): From RED
Наличие сканов в содержимом раздачи: нет

Треклист:
01. Al Caiola – Bonanza
02. Neil Sedaka – Happy Birthday Sweet Sixteen
03. Paul Anka – Cinderella
04. Brenda Lee – Emotions
05. Timi Yuro – Hurt
06. Roy Orbison – Crying
07. Tony Dallara – La Novia
08. Floyd Cramer – On The Rebound
09. Joe Dowell – Wooden Heart
10. Chakachas – Pachanga
11. Los Machucambos – La Bamba
12. Freddy Quinn – La Paloma
13. The Mar-Keys – Last Night
14. Gene Chandler – Duke Of Earl
15. Curtis Lee – Pretty Little Angel Eyes
16. Gene McDaniels – A Hundred Pounds Of Clay
17. Joey Dee & The Starliters – Peppermint Twist
18. The Cousins – Kana Kapila
19. The Shirelles – Dedicated To The One I Love
20. Ben E. King – Spanish Harlem
21. Solomon Burke – Cry To Me
22. Eddie Hodges – I'm Gonna Knock On Your Door
23. John D. Loudermilk – Language Of Love
24. Everly Brothers – Walk Right Back
25. Gene Pitney – Every Breath I Take
26. The Dave Brubeck Quartet – Take 5

Лог создания рипа

Exact Audio Copy V1.3 from 2. September 2016
EAC extraction logfile from 12. May 2017, 11:42
Various Artists / De Pre Historie 1961, Volume 2
Used drive : ATAPI iHAS124 F Adapter: 1 ID: 1
Read mode : SecureUtilize accurate stream : YesDefeat audio cache : YesMake use of C2 pointers : No
Read offset correction : 6Overread into Lead-In and Lead-Out : NoFill up missing offset samples with silence : YesDelete leading and trailing silent blocks : NoNull samples used in CRC calculations : YesUsed interface : Native Win32 interface for Win NT & 2000Gap handling : Appended to previous track
Used output format : User Defined EncoderSelected bitrate : 1024 kBit/sQuality : HighAdd ID3 tag : NoCommand line compressor : C:\cmd.exeAdditional command line options : /c ""C:\F\CUETools.FLACCL.cmd.exe" -8 --verify %source% -o %dest% & "C:\M\metaflac.exe" --set-tag="ARTIST=%artist%" --set-tag="TITLE=%title%" --set-tag="ALBUM=%albumtitle%" --set-tag="DATE=%year%" --set-tag="TRACKNUMBER=%tracknr%" --set-tag="GENRE=%genre%" --set-tag="COMPOSER=%composer%" --set-tag="ALBUMARTIST=%albumartist%" %dest%"
TOC of the extracted CD
Track | Start | Length | Start sector | End sector --------------------------------------------------------- 1 | 0:00.33 | 2:18.70 | 33 | 10452 2 | 2:19.28 | 2:35.00 | 10453 | 22077 3 | 4:54.28 | 2:03.70 | 22078 | 31372 4 | 6:58.23 | 2:50.07 | 31373 | 44129 5 | 9:48.30 | 2:28.38 | 44130 | 55267 6 | 12:16.68 | 2:47.07 | 55268 | 67799 7 | 15:04.00 | 2:52.10 | 67800 | 80709 8 | 17:56.10 | 2:08.38 | 80710 | 90347 9 | 20:04.48 | 2:02.67 | 90348 | 99564 10 | 22:07.40 | 2:13.60 | 99565 | 109599 11 | 24:21.25 | 3:19.50 | 109600 | 124574 12 | 27:41.00 | 3:51.43 | 124575 | 141942 13 | 31:32.43 | 2:38.70 | 141943 | 153862 14 | 34:11.38 | 2:24.02 | 153863 | 164664 15 | 36:35.40 | 2:44.15 | 164665 | 176979 16 | 39:19.55 | 2:17.00 | 176980 | 187254 17 | 41:36.55 | 2:00.38 | 187255 | 196292 18 | 43:37.18 | 2:04.02 | 196293 | 205594 19 | 45:41.20 | 2:03.73 | 205595 | 214892 20 | 47:45.18 | 2:59.57 | 214893 | 228374 21 | 50:45.00 | 2:34.23 | 228375 | 239947 22 | 53:19.23 | 2:04.50 | 239948 | 249297 23 | 55:23.73 | 1:46.22 | 249298 | 257269 24 | 57:10.20 | 2:20.05 | 257270 | 267774 25 | 59:30.25 | 2:46.65 | 267775 | 280289 26 | 62:17.15 | 5:26.08 | 280290 | 304747
Track 1
Filename E:\EAC Rips\2017-05 Mei\Various Artists - De Pre Historie 1961, Volume 2\Various Artists - De Pre Historie 1961, Volume 2 (1993) [FLAC] {EVA 74321 162172}\01 - Al Caiola - Bonanza.wav
Pre-gap length 0:00:02.33
Peak level 82.0 % Extraction speed 1.7 X Track quality 100.0 % Test CRC 2C1BB75C Copy CRC 2C1BB75C Accurately ripped (confidence 4) [B6077363] (AR v2) Copy OK
Track 2
Filename E:\EAC Rips\2017-05 Mei\Various Artists - De Pre Historie 1961, Volume 2\Various Artists - De Pre Historie 1961, Volume 2 (1993) [FLAC] {EVA 74321 162172}\02 - Neil Sedaka - Happy Birthday Sweet Sixteen.wav
Pre-gap length 0:00:01.35
Peak level 90.1 % Extraction speed 1.2 X Track quality 99.9 % Test CRC 9695A556 Copy CRC 9695A556 Accurately ripped (confidence 3) [2DEF9CF0] (AR v2) Copy OK
Track 3
Filename E:\EAC Rips\2017-05 Mei\Various Artists - De Pre Historie 1961, Volume 2\Various Artists - De Pre Historie 1961, Volume 2 (1993) [FLAC] {EVA 74321 162172}\03 - Paul Anka - Cinderella.wav
Pre-gap length 0:00:01.15
Peak level 90.4 % Extraction speed 1.9 X Track quality 100.0 % Test CRC C3FCEF6D Copy CRC C3FCEF6D Accurately ripped (confidence 3) [047381AC] (AR v2) Copy OK
Track 4
Filename E:\EAC Rips\2017-05 Mei\Various Artists - De Pre Historie 1961, Volume 2\Various Artists - De Pre Historie 1961, Volume 2 (1993) [FLAC] {EVA 74321 162172}\04 - Brenda Lee - Emotions.wav
Pre-gap length 0:00:01.48
Peak level 95.1 % Extraction speed 2.2 X Track quality 100.0 % Test CRC 47C1234D Copy CRC 47C1234D Accurately ripped (confidence 4) [8D93CBDF] (AR v2) Copy OK
Track 5
Filename E:\EAC Rips\2017-05 Mei\Various Artists - De Pre Historie 1961, Volume 2\Various Artists - De Pre Historie 1961, Volume 2 (1993) [FLAC] {EVA 74321 162172}\05 - Timi Yuro - Hurt.wav
Pre-gap length 0:00:01.12
Peak level 93.8 % Extraction speed 2.2 X Track quality 100.0 % Test CRC AB29C3EC Copy CRC AB29C3EC Accurately ripped (confidence 4) [9FA38CD6] (AR v2) Copy OK
Track 6
Filename E:\EAC Rips\2017-05 Mei\Various Artists - De Pre Historie 1961, Volume 2\Various Artists - De Pre Historie 1961, Volume 2 (1993) [FLAC] {EVA 74321 162172}\06 - Roy Orbison - Crying.wav
Pre-gap length 0:00:01.20
Peak level 86.1 % Extraction speed 2.3 X Track quality 100.0 % Test CRC 13E36F43 Copy CRC 13E36F43 Accurately ripped (confidence 4) [78011522] (AR v2) Copy OK
Track 7
Filename E:\EAC Rips\2017-05 Mei\Various Artists - De Pre Historie 1961, Volume 2\Various Artists - De Pre Historie 1961, Volume 2 (1993) [FLAC] {EVA 74321 162172}\07 - Tony Dallara - La Novia.wav
Peak level 83.6 % Extraction speed 2.5 X Track quality 100.0 % Test CRC D1B03AC6 Copy CRC D1B03AC6 Accurately ripped (confidence 4) [5EB4DD7D] (AR v2) Copy OK
Track 8
Filename E:\EAC Rips\2017-05 Mei\Various Artists - De Pre Historie 1961, Volume 2\Various Artists - De Pre Historie 1961, Volume 2 (1993) [FLAC] {EVA 74321 162172}\08 - Floyd Cramer - On The Rebound.wav
Pre-gap length 0:00:01.17
Peak level 87.6 % Extraction speed 2.4 X Track quality 100.0 % Test CRC 4401D4EC Copy CRC 4401D4EC Accurately ripped (confidence 3) [FA3A980D] (AR v2) Copy OK
Track 9
Filename E:\EAC Rips\2017-05 Mei\Various Artists - De Pre Historie 1961, Volume 2\Various Artists - De Pre Historie 1961, Volume 2 (1993) [FLAC] {EVA 74321 162172}\09 - Joe Dowell - Wooden Heart.wav
Peak level 90.6 % Extraction speed 2.5 X Track quality 100.0 % Test CRC 15E578D6 Copy CRC 15E578D6 Accurately ripped (confidence 4) [7A769A4A] (AR v2) Copy OK
Track 10
Filename E:\EAC Rips\2017-05 Mei\Various Artists - De Pre Historie 1961, Volume 2\Various Artists - De Pre Historie 1961, Volume 2 (1993) [FLAC] {EVA 74321 162172}\10 - Chakachas - Pachanga.wav
Pre-gap length 0:00:01.27
Peak level 83.4 % Extraction speed 1.6 X Track quality 99.9 % Test CRC 6DB910D8 Copy CRC 6DB910D8 Accurately ripped (confidence 4) [8D37AB7F] (AR v2) Copy OK
Track 11
Filename E:\EAC Rips\2017-05 Mei\Various Artists - De Pre Historie 1961, Volume 2\Various Artists - De Pre Historie 1961, Volume 2 (1993) [FLAC] {EVA 74321 162172}\11 - Los Machucambos - La Bamba.wav
Pre-gap length 0:00:01.07
Peak level 93.3 % Extraction speed 2.9 X Track quality 100.0 % Test CRC B35A308B Copy CRC B35A308B Accurately ripped (confidence 4) [CA3B20F4] (AR v2) Copy OK
Track 12
Filename E:\EAC Rips\2017-05 Mei\Various Artists - De Pre Historie 1961, Volume 2\Various Artists - De Pre Historie 1961, Volume 2 (1993) [FLAC] {EVA 74321 162172}\12 - Freddy Quinn - La Paloma.wav
Peak level 94.0 % Extraction speed 3.1 X Track quality 100.0 % Test CRC F05D89F7 Copy CRC F05D89F7 Accurately ripped (confidence 4) [DF6A6ADB] (AR v2) Copy OK
Track 13
Filename E:\EAC Rips\2017-05 Mei\Various Artists - De Pre Historie 1961, Volume 2\Various Artists - De Pre Historie 1961, Volume 2 (1993) [FLAC] {EVA 74321 162172}\13 - The Mar‐Keys - Last Night.wav
Pre-gap length 0:00:01.00
Peak level 50.6 % Extraction speed 3.0 X Track quality 100.0 % Test CRC 971E4A29 Copy CRC 971E4A29 Accurately ripped (confidence 4) [46762616] (AR v2) Copy OK
Track 14
Filename E:\EAC Rips\2017-05 Mei\Various Artists - De Pre Historie 1961, Volume 2\Various Artists - De Pre Historie 1961, Volume 2 (1993) [FLAC] {EVA 74321 162172}\14 - Gene Chandler - Duke Of Earl.wav
Pre-gap length 0:00:01.35
Peak level 71.1 % Extraction speed 3.0 X Track quality 100.0 % Test CRC 62FF0BB9 Copy CRC 62FF0BB9 Accurately ripped (confidence 4) [8CAC5226] (AR v2) Copy OK
Track 15
Filename E:\EAC Rips\2017-05 Mei\Various Artists - De Pre Historie 1961, Volume 2\Various Artists - De Pre Historie 1961, Volume 2 (1993) [FLAC] {EVA 74321 162172}\15 - Curtis Lee - Pretty Little Angel Eyes.wav
Pre-gap length 0:00:02.20
Peak level 98.5 % Extraction speed 3.1 X Track quality 100.0 % Test CRC C7A2F874 Copy CRC C7A2F874 Accurately ripped (confidence 4) [2182002F] (AR v2) Copy OK
Track 16
Filename E:\EAC Rips\2017-05 Mei\Various Artists - De Pre Historie 1961, Volume 2\Various Artists - De Pre Historie 1961, Volume 2 (1993) [FLAC] {EVA 74321 162172}\16 - Gene McDaniels - A Hundred Pounds Of Clay.wav
Pre-gap length 0:00:01.07
Peak level 85.6 % Extraction speed 3.1 X Track quality 100.0 % Test CRC 8CE8DB3B Copy CRC 8CE8DB3B Accurately ripped (confidence 4) [749E5327] (AR v2) Copy OK
Track 17
Filename E:\EAC Rips\2017-05 Mei\Various Artists - De Pre Historie 1961, Volume 2\Various Artists - De Pre Historie 1961, Volume 2 (1993) [FLAC] {EVA 74321 162172}\17 - Joey Dee & The Starliters - Peppermint Twist.wav
Pre-gap length 0:00:01.10
Peak level 81.2 % Extraction speed 1.9 X Track quality 99.9 % Test CRC B82EE254 Copy CRC B82EE254 Accurately ripped (confidence 4) [C8850A22] (AR v2) Copy OK
Track 18
Filename E:\EAC Rips\2017-05 Mei\Various Artists - De Pre Historie 1961, Volume 2\Various Artists - De Pre Historie 1961, Volume 2 (1993) [FLAC] {EVA 74321 162172}\18 - The Cousins - Kana Kapila.wav
Pre-gap length 0:00:01.23
Peak level 91.0 % Extraction speed 3.1 X Track quality 100.0 % Test CRC E100A584 Copy CRC E100A584 Accurately ripped (confidence 4) [7FCAE7F0] (AR v2) Copy OK
Track 19
Filename E:\EAC Rips\2017-05 Mei\Various Artists - De Pre Historie 1961, Volume 2\Various Artists - De Pre Historie 1961, Volume 2 (1993) [FLAC] {EVA 74321 162172}\19 - The Shirelles - Dedicated To The One I Love.wav
Pre-gap length 0:00:01.45
Peak level 93.8 % Extraction speed 3.2 X Track quality 100.0 % Test CRC 1521E783 Copy CRC 1521E783 Accurately ripped (confidence 4) [74833063] (AR v2) Copy OK
Track 20
Filename E:\EAC Rips\2017-05 Mei\Various Artists - De Pre Historie 1961, Volume 2\Various Artists - De Pre Historie 1961, Volume 2 (1993) [FLAC] {EVA 74321 162172}\20 - Ben E. King - Spanish Harlem.wav
Peak level 99.2 % Extraction speed 3.5 X Track quality 100.0 % Test CRC D74D12B7 Copy CRC D74D12B7 Accurately ripped (confidence 4) [17AA07CE] (AR v2) Copy OK
Track 21
Filename E:\EAC Rips\2017-05 Mei\Various Artists - De Pre Historie 1961, Volume 2\Various Artists - De Pre Historie 1961, Volume 2 (1993) [FLAC] {EVA 74321 162172}\21 - Solomon Burke - Cry To Me.wav
Pre-gap length 0:00:00.22
Peak level 94.4 % Extraction speed 3.5 X Track quality 100.0 % Test CRC BAF89606 Copy CRC BAF89606 Accurately ripped (confidence 4) [5113082A] (AR v2) Copy OK
Track 22
Filename E:\EAC Rips\2017-05 Mei\Various Artists - De Pre Historie 1961, Volume 2\Various Artists - De Pre Historie 1961, Volume 2 (1993) [FLAC] {EVA 74321 162172}\22 - Eddie Hodges - I'm Gonna Knock On Your Door.wav
Pre-gap length 0:00:01.05
Peak level 80.9 % Extraction speed 3.4 X Track quality 100.0 % Test CRC 49FFC1A1 Copy CRC 49FFC1A1 Accurately ripped (confidence 4) [9685F1C2] (AR v2) Copy OK
Track 23
Filename E:\EAC Rips\2017-05 Mei\Various Artists - De Pre Historie 1961, Volume 2\Various Artists - De Pre Historie 1961, Volume 2 (1993) [FLAC] {EVA 74321 162172}\23 - John D. Loudermilk - Language Of Love.wav
Pre-gap length 0:00:00.63
Peak level 96.7 % Extraction speed 3.3 X Track quality 100.0 % Test CRC 39D48564 Copy CRC 39D48564 Accurately ripped (confidence 4) [56FD65F1] (AR v2) Copy OK
Track 24
Filename E:\EAC Rips\2017-05 Mei\Various Artists - De Pre Historie 1961, Volume 2\Various Artists - De Pre Historie 1961, Volume 2 (1993) [FLAC] {EVA 74321 162172}\24 - The Everly Brothers - Walk Right Back.wav
Pre-gap length 0:00:00.50
Peak level 88.3 % Extraction speed 2.3 X Track quality 99.9 % Test CRC 15927B74 Copy CRC 15927B74 Accurately ripped (confidence 4) [59A4E592] (AR v2) Copy OK
Track 25
Filename E:\EAC Rips\2017-05 Mei\Various Artists - De Pre Historie 1961, Volume 2\Various Artists - De Pre Historie 1961, Volume 2 (1993) [FLAC] {EVA 74321 162172}\25 - Gene Pitney - Every Breath I Take.wav
Pre-gap length 0:00:01.25
Peak level 84.5 % Extraction speed 3.7 X Track quality 100.0 % Test CRC DF6A0054 Copy CRC DF6A0054 Accurately ripped (confidence 3) [3A341D02] (AR v2) Copy OK
Track 26
Filename E:\EAC Rips\2017-05 Mei\Various Artists - De Pre Historie 1961, Volume 2\Various Artists - De Pre Historie 1961, Volume 2 (1993) [FLAC] {EVA 74321 162172}\26 - The Dave Brubeck Quartet - Take 5.wav
Pre-gap length 0:00:00.40
Peak level 79.1 % Extraction speed 4.2 X Track quality 100.0 % Test CRC 4CBC491D Copy CRC 4CBC491D Accurately ripped (confidence 4) [E7F55806] (AR v2) Copy OK
All tracks accurately ripped
No errors occurred
End of status report
---- CUETools DB Plugin V2.1.6
[CTDB TOCID: G3cyX13XOu1klcpwwLm_gfCJhA4-] foundSubmit result: G3cyX13XOu1klcpwwLm_gfCJhA4- has been confirmedTrack | CTDB Status 1 | (2/2) Accurately ripped 2 | (2/2) Accurately ripped 3 | (2/2) Accurately ripped 4 | (2/2) Accurately ripped 5 | (2/2) Accurately ripped 6 | (2/2) Accurately ripped 7 | (2/2) Accurately ripped 8 | (2/2) Accurately ripped 9 | (2/2) Accurately ripped 10 | (2/2) Accurately ripped 11 | (2/2) Accurately ripped 12 | (2/2) Accurately ripped 13 | (2/2) Accurately ripped 14 | (2/2) Accurately ripped 15 | (2/2) Accurately ripped 16 | (2/2) Accurately ripped 17 | (2/2) Accurately ripped 18 | (2/2) Accurately ripped 19 | (2/2) Accurately ripped 20 | (2/2) Accurately ripped 21 | (2/2) Accurately ripped 22 | (2/2) Accurately ripped 23 | (2/2) Accurately ripped 24 | (2/2) Accurately ripped 25 | (2/2) Accurately ripped 26 | (2/2) Accurately ripped
==== Log checksum 9CAB6549924DE4A787FE1503505E8C3A937FFF4414FEBD119DA5E8BBD4911F33 ====

Содержание индексной карты (.CUE)

REM DATE 1993REM DISCID 780FDF1AREM COMMENT "ExactAudioCopy v1.3"PERFORMER "Various Artists"TITLE "De Pre Historie 1961, Volume 2"REM COMPOSER ""FILE "01 - Al Caiola - Bonanza.wav" WAVE  TRACK 01 AUDIO    TITLE "Bonanza"    PERFORMER "Al Caiola"    REM COMPOSER ""    PREGAP 00:00:33    INDEX 01 00:00:00  TRACK 02 AUDIO    TITLE "Happy Birthday Sweet Sixteen"    PERFORMER "Neil Sedaka"    REM COMPOSER ""    INDEX 00 02:17:35FILE "02 - Neil Sedaka - Happy Birthday Sweet Sixteen.wav" WAVE    INDEX 01 00:00:00  TRACK 03 AUDIO    TITLE "Cinderella"    PERFORMER "Paul Anka"    REM COMPOSER ""    INDEX 00 02:33:60FILE "03 - Paul Anka - Cinderella.wav" WAVE    INDEX 01 00:00:00  TRACK 04 AUDIO    TITLE "Emotions"    PERFORMER "Brenda Lee"    REM COMPOSER ""    INDEX 00 02:02:22FILE "04 - Brenda Lee - Emotions.wav" WAVE    INDEX 01 00:00:00  TRACK 05 AUDIO    TITLE "Hurt"    PERFORMER "Timi Yuro"    REM COMPOSER ""    INDEX 00 02:48:70FILE "05 - Timi Yuro - Hurt.wav" WAVE    INDEX 01 00:00:00  TRACK 06 AUDIO    TITLE "Crying"    PERFORMER "Roy Orbison"    REM COMPOSER ""    INDEX 00 02:27:18FILE "06 - Roy Orbison - Crying.wav" WAVE    INDEX 01 00:00:00FILE "07 - Tony Dallara - La Novia.wav" WAVE  TRACK 07 AUDIO    TITLE "La Novia"    PERFORMER "Tony Dallara"    REM COMPOSER ""    INDEX 01 00:00:00  TRACK 08 AUDIO    TITLE "On The Rebound"    PERFORMER "Floyd Cramer"    REM COMPOSER ""    INDEX 00 02:50:68FILE "08 - Floyd Cramer - On The Rebound.wav" WAVE    INDEX 01 00:00:00FILE "09 - Joe Dowell - Wooden Heart.wav" WAVE  TRACK 09 AUDIO    TITLE "Wooden Heart"    PERFORMER "Joe Dowell"    REM COMPOSER ""    INDEX 01 00:00:00  TRACK 10 AUDIO    TITLE "Pachanga"    PERFORMER "Chakachas"    REM COMPOSER ""    INDEX 00 02:01:40FILE "10 - Chakachas - Pachanga.wav" WAVE    INDEX 01 00:00:00  TRACK 11 AUDIO    TITLE "La Bamba"    PERFORMER "Los Machucambos"    REM COMPOSER ""    INDEX 00 02:12:53FILE "11 - Los Machucambos - La Bamba.wav" WAVE    INDEX 01 00:00:00FILE "12 - Freddy Quinn - La Paloma.wav" WAVE  TRACK 12 AUDIO    TITLE "La Paloma"    PERFORMER "Freddy Quinn"    REM COMPOSER ""    INDEX 01 00:00:00  TRACK 13 AUDIO    TITLE "Last Night"    PERFORMER "The Mar-Keys"    REM COMPOSER ""    INDEX 00 03:50:43FILE "13 - The Mar-Keys - Last Night.wav" WAVE    INDEX 01 00:00:00  TRACK 14 AUDIO    TITLE "Duke Of Earl"    PERFORMER "Gene Chandler"    REM COMPOSER ""    INDEX 00 02:37:35FILE "14 - Gene Chandler - Duke Of Earl.wav" WAVE    INDEX 01 00:00:00  TRACK 15 AUDIO    TITLE "Pretty Little Angel Eyes"    PERFORMER "Curtis Lee"    REM COMPOSER ""    INDEX 00 02:21:57FILE "15 - Curtis Lee - Pretty Little Angel Eyes.wav" WAVE    INDEX 01 00:00:00  TRACK 16 AUDIO    TITLE "A Hundred Pounds Of Clay"    PERFORMER "Gene McDaniels"    REM COMPOSER ""    INDEX 00 02:43:08FILE "16 - Gene McDaniels - A Hundred Pounds Of Clay.wav" WAVE    INDEX 01 00:00:00  TRACK 17 AUDIO    TITLE "Peppermint Twist"    PERFORMER "Joey Dee & The Starliters"    REM COMPOSER ""    INDEX 00 02:15:65FILE "17 - Joey Dee & The Starliters - Peppermint Twist.wav" WAVE    INDEX 01 00:00:00  TRACK 18 AUDIO    TITLE "Kana Kapila"    PERFORMER "The Cousins"    REM COMPOSER ""    INDEX 00 01:59:15FILE "18 - The Cousins - Kana Kapila.wav" WAVE    INDEX 01 00:00:00  TRACK 19 AUDIO    TITLE "Dedicated To The One I Love"    PERFORMER "The Shirelles"    REM COMPOSER ""    INDEX 00 02:02:32FILE "19 - The Shirelles - Dedicated To The One I Love.wav" WAVE    INDEX 01 00:00:00FILE "20 - Ben E. King - Spanish Harlem.wav" WAVE  TRACK 20 AUDIO    TITLE "Spanish Harlem"    PERFORMER "Ben E. King"    REM COMPOSER ""    INDEX 01 00:00:00  TRACK 21 AUDIO    TITLE "Cry To Me"    PERFORMER "Solomon Burke"    REM COMPOSER ""    INDEX 00 02:59:35FILE "21 - Solomon Burke - Cry To Me.wav" WAVE    INDEX 01 00:00:00  TRACK 22 AUDIO    TITLE "I'm Gonna Knock On Your Door"    PERFORMER "Eddie Hodges"    REM COMPOSER ""    INDEX 00 02:33:18FILE "22 - Eddie Hodges - I'm Gonna Knock On Your Door.wav" WAVE    INDEX 01 00:00:00  TRACK 23 AUDIO    TITLE "Language Of Love"    PERFORMER "John D. Loudermilk"    REM COMPOSER ""    INDEX 00 02:03:62FILE "23 - John D. Loudermilk - Language Of Love.wav" WAVE    INDEX 01 00:00:00  TRACK 24 AUDIO    TITLE "Walk Right Back"    PERFORMER "The Everly Brothers"    REM COMPOSER ""    INDEX 00 01:45:47FILE "24 - The Everly Brothers - Walk Right Back.wav" WAVE    INDEX 01 00:00:00  TRACK 25 AUDIO    TITLE "Every Breath I Take"    PERFORMER "Gene Pitney"    REM COMPOSER ""    INDEX 00 02:18:55FILE "25 - Gene Pitney - Every Breath I Take.wav" WAVE    INDEX 01 00:00:00  TRACK 26 AUDIO    TITLE "Take 5"    PERFORMER "The Dave Brubeck Quartet"    REM COMPOSER ""    INDEX 00 02:46:25FILE "26 - The Dave Brubeck Quartet - Take 5.wav" WAVE    INDEX 01 00:00:00

AccurateRip

[CUETools log; Date: 15.10.2018 17:11:04; Version: 2.1.5]Pregap length 00:00:33.[CTDB TOCID: G3cyX13XOu1klcpwwLm_gfCJhA4-] found.Track | CTDB Status  1   | (7/7) Accurately ripped  2   | (7/7) Accurately ripped  3   | (7/7) Accurately ripped  4   | (7/7) Accurately ripped  5   | (7/7) Accurately ripped  6   | (7/7) Accurately ripped  7   | (7/7) Accurately ripped  8   | (6/7) Accurately ripped  9   | (7/7) Accurately ripped 10   | (7/7) Accurately ripped 11   | (7/7) Accurately ripped 12   | (7/7) Accurately ripped 13   | (7/7) Accurately ripped 14   | (7/7) Accurately ripped 15   | (6/7) Accurately ripped 16   | (7/7) Accurately ripped 17   | (7/7) Accurately ripped 18   | (7/7) Accurately ripped 19   | (7/7) Accurately ripped 20   | (7/7) Accurately ripped 21   | (7/7) Accurately ripped 22   | (6/7) Accurately ripped 23   | (7/7) Accurately ripped 24   | (7/7) Accurately ripped 25   | (7/7) Accurately ripped 26   | (7/7) Accurately ripped[AccurateRip ID: 003d1d04-04758057-780fdf1a] found.Track   [  CRC   |   V2   ] Status 01     [39c2ef0a|b6077363] (04+05/09) Accurately ripped 02     [13dd652a|2def9cf0] (04+04/08) Accurately ripped 03     [34f9c54b|047381ac] (04+04/08) Accurately ripped 04     [64c99481|8d93cbdf] (04+05/09) Accurately ripped 05     [e6795889|9fa38cd6] (04+05/09) Accurately ripped 06     [3fc1b502|78011522] (04+05/09) Accurately ripped 07     [aa9389a2|5eb4dd7d] (05+05/10) Accurately ripped 08     [adca1365|fa3a980d] (04+04/08) Accurately ripped 09     [2a8aec2d|7a769a4a] (04+05/09) Accurately ripped 10     [63d2e230|8d37ab7f] (05+05/10) Accurately ripped 11     [2e95c89f|ca3b20f4] (05+05/10) Accurately ripped 12     [a1b894bd|df6a6adb] (05+05/10) Accurately ripped 13     [e14f32ff|46762616] (05+05/10) Accurately ripped 14     [d17fa4a6|8cac5226] (05+05/10) Accurately ripped 15     [ab4f8749|2182002f] (05+05/10) Accurately ripped 16     [a51e1707|749e5327] (05+05/10) Accurately ripped 17     [eb840e03|c8850a22] (05+05/10) Accurately ripped 18     [7fbc3853|7fcae7f0] (05+05/10) Accurately ripped 19     [e4127da5|74833063] (04+05/09) Accurately ripped 20     [d008c322|17aa07ce] (03+05/08) Accurately ripped 21     [ecf00192|5113082a] (04+05/09) Accurately ripped 22     [1726eee2|9685f1c2] (05+05/10) Accurately ripped 23     [2a9b6c1c|56fd65f1] (05+05/10) Accurately ripped 24     [c11c9ccc|59a4e592] (05+05/10) Accurately ripped 25     [19e60d38|3a341d02] (05+04/09) Accurately ripped 26     [f33ee80d|e7f55806] (04+05/09) Accurately ripped
Track Peak [ CRC32 ] [W/O NULL] [ LOG ] -- 99,2 [344E3156] [4EF5585F] 01 82,0 [2C1BB75C] [57F40AE3] CRC32 02 90,1 [9695A556] [CB34B92A] CRC32 03 90,4 [C3FCEF6D] [1813B340] CRC32 04 95,1 [47C1234D] [17CEB9A2] CRC32 05 93,8 [AB29C3EC] [51D0F7C9] CRC32 06 86,1 [13E36F43] [33A5D4B9] CRC32 07 83,6 [D1B03AC6] [A88BB375] CRC32 08 87,6 [4401D4EC] [B81A5D66] CRC32 09 90,6 [15E578D6] [4E8BC414] CRC32 10 83,4 [6DB910D8] [5743C305] CRC32 11 93,3 [B35A308B] [24168072] CRC32 12 94,0 [F05D89F7] [E1D9A01C] CRC32 13 50,6 [971E4A29] [1E39D5D9] CRC32 14 71,1 [62FF0BB9] [EB943EC8] CRC32 15 98,5 [C7A2F874] [805B3200] CRC32 16 85,6 [8CE8DB3B] [5DF04794] CRC32 17 81,2 [B82EE254] [26BD79AF] CRC32 18 91,0 [E100A584] [5830E05A] CRC32 19 93,8 [1521E783] [5A3E17EF] CRC32 20 99,2 [D74D12B7] [DAAD98C3] CRC32 21 94,4 [BAF89606] [B4CD90A2] CRC32 22 80,9 [49FFC1A1] [49079658] CRC32 23 96,7 [39D48564] [A5DCBCB7] CRC32 24 88,3 [15927B74] [4F1B7600] CRC32 25 84,5 [DF6A0054] [620BE00A] CRC32 26 79,1 [4CBC491D] [3614ADCB] CRC32
Вы не можете начинать темы
Вы не можете отвечать на сообщения
Вы не можете редактировать свои сообщения
Вы не можете удалять свои сообщения
Вы не можете голосовать в опросах
Вы не можете прикреплять файлы к сообщениям
Вы можете скачивать файлы
!ВНИМАНИЕ!

Сайт не предоставляет электронные версии произведений, а занимается лишь коллекционированием и каталогизацией ссылок, присылаемых и публикуемых на форуме нашими читателями. Если вы являетесь правообладателем какого-либо представленного материала и не желаете, чтобы ссылка на него находилась в нашем каталоге, свяжитесь с нами, и мы незамедлительно удалим ее. Файлы для обмена на трекере предоставлены пользователями сайта, и администрация не несет ответственности за их содержание. Просьба не заливать файлы, защищенные авторскими правами, а также файлы нелегального содержания!

Искали программы, игры, дополнения, музыка mp3, аниме, аудио книги, журналы? Добро пожаловать на свободный торрент трекер Torrents, у нас можно скачать бесплатно, без смс и регистрации и прочих ограничений лучшие, отборные сборки программ, игр. Скачать торрентом не составит труда даже не опытному пользователю. Раздачи ежедневно обновляются, только лучшие и качественные раздачи, подробные описания и скриншоты. Огромная коллекция программ для работы со звуком, графикой, дизайном, а так же множество плагинов и инструментов к ним с подробной инструкцией и рекомендациями. Прошивки для навигаторов, карты. Разнообразные игры, для Windows, Linux. В коллекцие есть и старые игры любых жанров, Rpg, Action, Shooter, strategy Множество дополнений, модификаций, сценариев для популярных игр в жанре экш, рпг, гонки, стратегии, логические игры. Множество аддонов и сценариев для Microsoft Flight Simulator Большая коллекция книг, учебников. Если нет возможности купить печатное издание - смело скачивайте цифровую версию книги или, быть может, журнала. Не любите читать - можно загрузить бесплатно аудикнигу. Для веб дизайнеров и программистов так же найдется множество специализированного софта, таких как: редакторы с подсветкой, среды программирования, компоненты, системы управления базами данных, разнообразные скрипты и шаблоны. Не так давно у нас появился материал для автолюбителей и владельцев мото - оригинальные и неоригинальные каталоги запчастей, книги и журналы по ремонту и обслуживанию, видеоуроки, статьи по чип тюнингу, прошивкам. Процедура получения контента элементарная, достаточно просто скачать торрент файл и добавить его в загрузку в вашем торрент клиенте. Если у вас нет специального торрент клиента, вы можете его скачать у нас.

God of Study | Where the Red Fern Grows Final Test | 4:01 Hidden Music Lock For Smartphones | Lock With Drums , Piano Guitar | #TTS