(Various) [CD] VA - De Pre Historie 1965 [EMI/Virgin, 260.737, Belgium] - 1990, FLAC (tracks+.cue), lossless 

Цитировать
De Pre Historie 1965
Жанр: Various
Носитель: CD
Страна-производитель диска (релиза): Belgium
Год издания: 1990
Издатель (лейбл): EMI/Virgin
Номер по каталогу: 260.737
Аудиокодек: FLAC (*.flac)
Тип рипа: tracks+.cue
Битрейт аудио: lossless
Продолжительность: 00:51:49
Источник (релизер): From RED
Наличие сканов в содержимом раздачи: нет

Треклист:
01. Tom Jones – It's Not Unusual
02. Shirley Bassey – Goldfinger
03. Gudrun Jenkins – Letkis
04. Adamo – Dolce Paola
05. Chris Andrews – Yesterday Man
06. The Animals – Don't Let Me Be Misunderstood
07. Cilla Black – You've Lost That Lovin' Feeling
08. The Righteous Brothers – Unchained Melody
09. Dave Berry – This Strange Effect
10. The Byrds – Mr. Tambourine Man
11. Sonny & Cher – I Got You Babe
12. Them – Here Comes The Night
13. The Supremes – I Hear A Symphony
14. Manfred Mann – If You Gotta Go, Go Now
15. Jewel Akens – The Birds And The Bees
16. Peggy March – Mit 17 Hat Man Noch Traüme
17. The Four Tops – It's The Same Old Song
18. Jay & The Americans – Cara Mia
19. The McCoys – Hang On Sloopy
20. The Yardbirds – For Your Love

Лог создания рипа

Exact Audio Copy V1.3 from 2. September 2016
EAC extraction logfile from 18. May 2017, 20:56
Various Artists / De Pre Historie 1965
Used drive : ATAPI iHAS124 F Adapter: 1 ID: 0
Read mode : SecureUtilize accurate stream : YesDefeat audio cache : YesMake use of C2 pointers : No
Read offset correction : 6Overread into Lead-In and Lead-Out : NoFill up missing offset samples with silence : YesDelete leading and trailing silent blocks : NoNull samples used in CRC calculations : YesUsed interface : Native Win32 interface for Win NT & 2000Gap handling : Appended to previous track
Used output format : User Defined EncoderSelected bitrate : 1024 kBit/sQuality : HighAdd ID3 tag : NoCommand line compressor : C:\cmd.exeAdditional command line options : /c ""C:\F\CUETools.FLACCL.cmd.exe" -8 --verify %source% -o %dest% & "C:\M\metaflac.exe" --set-tag="ARTIST=%artist%" --set-tag="TITLE=%title%" --set-tag="ALBUM=%albumtitle%" --set-tag="DATE=%year%" --set-tag="TRACKNUMBER=%tracknr%" --set-tag="GENRE=%genre%" --set-tag="COMPOSER=%composer%" --set-tag="ALBUMARTIST=%albumartist%" %dest%"
TOC of the extracted CD
Track | Start | Length | Start sector | End sector --------------------------------------------------------- 1 | 0:00.33 | 2:01.52 | 33 | 9159 2 | 2:02.10 | 2:49.05 | 9160 | 21839 3 | 4:51.15 | 2:12.40 | 21840 | 31779 4 | 7:03.55 | 2:03.28 | 31780 | 41032 5 | 9:07.08 | 2:30.62 | 41033 | 52344 6 | 11:37.70 | 2:16.70 | 52345 | 62614 7 | 13:54.65 | 3:09.63 | 62615 | 76852 8 | 17:04.53 | 3:37.37 | 76853 | 93164 9 | 20:42.15 | 2:26.55 | 93165 | 104169 10 | 23:08.70 | 2:18.50 | 104170 | 114569 11 | 25:27.45 | 3:05.60 | 114570 | 128504 12 | 28:33.30 | 2:46.18 | 128505 | 140972 13 | 31:19.48 | 2:43.47 | 140973 | 153244 14 | 34:03.20 | 2:30.68 | 153245 | 164562 15 | 36:34.13 | 2:08.07 | 164563 | 174169 16 | 38:42.20 | 2:44.10 | 174170 | 186479 17 | 41:26.30 | 2:47.35 | 186480 | 199039 18 | 44:13.65 | 2:32.43 | 199040 | 210482 19 | 46:46.33 | 3:04.37 | 210483 | 224319 20 | 49:50.70 | 2:18.38 | 224320 | 234707
Track 1
Filename E:\EAC Rips\2017-05 Mei\Various Artists - De Pre Historie 1965 (1990) [FLAC] {BMG 260.737}\01 - Tom Jones - It's Not Unusual.wav
Pre-gap length 0:00:02.33
Peak level 81.5 % Extraction speed 1.6 X Track quality 100.0 % Test CRC A225A481 Copy CRC A225A481 Accurately ripped (confidence 4) [C247BBDF] (AR v2) Copy OK
Track 2
Filename E:\EAC Rips\2017-05 Mei\Various Artists - De Pre Historie 1965 (1990) [FLAC] {BMG 260.737}\02 - Shirley Bassey - Goldfinger.wav
Pre-gap length 0:00:01.15
Peak level 91.3 % Extraction speed 1.8 X Track quality 100.0 % Test CRC 3558AA6B Copy CRC 3558AA6B Accurately ripped (confidence 4) [EA6F8FBF] (AR v2) Copy OK
Track 3
Filename E:\EAC Rips\2017-05 Mei\Various Artists - De Pre Historie 1965 (1990) [FLAC] {BMG 260.737}\03 - Gudrun Jenkins - Letkiss.wav
Pre-gap length 0:00:01.32
Peak level 84.0 % Extraction speed 1.9 X Track quality 100.0 % Test CRC B25BE0A3 Copy CRC B25BE0A3 Accurately ripped (confidence 4) [B8877311] (AR v2) Copy OK
Track 4
Filename E:\EAC Rips\2017-05 Mei\Various Artists - De Pre Historie 1965 (1990) [FLAC] {BMG 260.737}\04 - Adamo - Dolce Paola.wav
Pre-gap length 0:00:01.15
Peak level 89.0 % Extraction speed 1.9 X Track quality 100.0 % Test CRC 41800229 Copy CRC 41800229 Accurately ripped (confidence 4) [A4EB26CF] (AR v2) Copy OK
Track 5
Filename E:\EAC Rips\2017-05 Mei\Various Artists - De Pre Historie 1965 (1990) [FLAC] {BMG 260.737}\05 - Chris Andrews - Yesterday Man.wav
Pre-gap length 0:00:01.58
Peak level 75.7 % Extraction speed 2.1 X Track quality 100.0 % Test CRC 0F363EEC Copy CRC 0F363EEC Accurately ripped (confidence 4) [047A1001] (AR v2) Copy OK
Track 6
Filename E:\EAC Rips\2017-05 Mei\Various Artists - De Pre Historie 1965 (1990) [FLAC] {BMG 260.737}\06 - The Animals - Don't Let Me Be Misunderstood.wav
Pre-gap length 0:00:01.52
Peak level 75.3 % Extraction speed 2.1 X Track quality 100.0 % Test CRC 6570DFC3 Copy CRC 6570DFC3 Accurately ripped (confidence 4) [98287656] (AR v2) Copy OK
Track 7
Filename E:\EAC Rips\2017-05 Mei\Various Artists - De Pre Historie 1965 (1990) [FLAC] {BMG 260.737}\07 - Cilla Black - You've Lost That Lovin' Feeling.wav
Pre-gap length 0:00:00.47
Peak level 69.7 % Extraction speed 2.4 X Track quality 100.0 % Test CRC 949F224A Copy CRC 949F224A Accurately ripped (confidence 4) [1BB7A6E4] (AR v2) Copy OK
Track 8
Filename E:\EAC Rips\2017-05 Mei\Various Artists - De Pre Historie 1965 (1990) [FLAC] {BMG 260.737}\08 - The Righteous Brothers - Unchained Melody.wav
Pre-gap length 0:00:01.10
Peak level 99.2 % Extraction speed 2.6 X Track quality 100.0 % Test CRC 878E53FB Copy CRC 878E53FB Accurately ripped (confidence 4) [8243D4F2] (AR v2) Copy OK
Track 9
Filename E:\EAC Rips\2017-05 Mei\Various Artists - De Pre Historie 1965 (1990) [FLAC] {BMG 260.737}\09 - Dave Berry - This Strange Effect.wav
Pre-gap length 0:00:01.12
Peak level 71.5 % Extraction speed 2.1 X Track quality 99.9 % Test CRC 3FF4D313 Copy CRC 3FF4D313 Accurately ripped (confidence 4) [2EC33ACF] (AR v2) Copy OK
Track 10
Filename E:\EAC Rips\2017-05 Mei\Various Artists - De Pre Historie 1965 (1990) [FLAC] {BMG 260.737}\10 - The Byrds - Mr. Tambourine Man.wav
Pre-gap length 0:00:00.42
Peak level 81.4 % Extraction speed 2.6 X Track quality 100.0 % Test CRC 9CD2DBEC Copy CRC 9CD2DBEC Accurately ripped (confidence 4) [E5854952] (AR v2) Copy OK
Track 11
Filename E:\EAC Rips\2017-05 Mei\Various Artists - De Pre Historie 1965 (1990) [FLAC] {BMG 260.737}\11 - Sonny & Cher - I Got You Babe.wav
Pre-gap length 0:00:00.70
Peak level 97.9 % Extraction speed 2.8 X Track quality 100.0 % Test CRC 32C4A027 Copy CRC 32C4A027 Accurately ripped (confidence 4) [17536133] (AR v2) Copy OK
Track 12
Filename E:\EAC Rips\2017-05 Mei\Various Artists - De Pre Historie 1965 (1990) [FLAC] {BMG 260.737}\12 - Them - Here Comes The Night.wav
Pre-gap length 0:00:00.60
Peak level 81.8 % Extraction speed 2.9 X Track quality 100.0 % Test CRC EF78295D Copy CRC EF78295D Accurately ripped (confidence 4) [F4965C3B] (AR v2) Copy OK
Track 13
Filename E:\EAC Rips\2017-05 Mei\Various Artists - De Pre Historie 1965 (1990) [FLAC] {BMG 260.737}\13 - The Supremes - I Hear A Symphony.wav
Pre-gap length 0:00:01.40
Peak level 92.3 % Extraction speed 2.9 X Track quality 100.0 % Test CRC 63262A8B Copy CRC 63262A8B Accurately ripped (confidence 4) [2283642E] (AR v2) Copy OK
Track 14
Filename E:\EAC Rips\2017-05 Mei\Various Artists - De Pre Historie 1965 (1990) [FLAC] {BMG 260.737}\14 - Manfred Mann - If You Gotta Go, Go Now.wav
Pre-gap length 0:00:00.45
Peak level 74.9 % Extraction speed 2.9 X Track quality 100.0 % Test CRC B61B71EB Copy CRC B61B71EB Accurately ripped (confidence 4) [62DA4A2A] (AR v2) Copy OK
Track 15
Filename E:\EAC Rips\2017-05 Mei\Various Artists - De Pre Historie 1965 (1990) [FLAC] {BMG 260.737}\15 - Jewel Akens - The Birds And The Bees.wav
Pre-gap length 0:00:01.45
Peak level 77.1 % Extraction speed 2.9 X Track quality 100.0 % Test CRC D6DBA04C Copy CRC D6DBA04C Accurately ripped (confidence 4) [577CB988] (AR v2) Copy OK
Track 16
Filename E:\EAC Rips\2017-05 Mei\Various Artists - De Pre Historie 1965 (1990) [FLAC] {BMG 260.737}\16 - Peggy March - Mit 17 Hat Man Noch Traume.wav
Pre-gap length 0:00:00.70
Peak level 61.5 % Extraction speed 3.1 X Track quality 100.0 % Test CRC 6625F8D9 Copy CRC 6625F8D9 Accurately ripped (confidence 4) [4EE3A32C] (AR v2) Copy OK
Track 17
Filename E:\EAC Rips\2017-05 Mei\Various Artists - De Pre Historie 1965 (1990) [FLAC] {BMG 260.737}\17 - Four Tops - It's The Same Old Song.wav
Pre-gap length 0:00:00.15
Peak level 99.2 % Extraction speed 3.2 X Track quality 100.0 % Test CRC 64342026 Copy CRC 64342026 Accurately ripped (confidence 4) [16741E19] (AR v2) Copy OK
Track 18
Filename E:\EAC Rips\2017-05 Mei\Various Artists - De Pre Historie 1965 (1990) [FLAC] {BMG 260.737}\18 - Jay & The Americans - Cara Mia.wav
Pre-gap length 0:00:00.60
Peak level 84.0 % Extraction speed 3.2 X Track quality 100.0 % Test CRC 438E379C Copy CRC 438E379C Accurately ripped (confidence 4) [557CE2A3] (AR v2) Copy OK
Track 19
Filename E:\EAC Rips\2017-05 Mei\Various Artists - De Pre Historie 1965 (1990) [FLAC] {BMG 260.737}\19 - The McCoys - Hang On Sloopy.wav
Pre-gap length 0:00:00.60
Peak level 78.4 % Extraction speed 3.4 X Track quality 100.0 % Test CRC 90D66985 Copy CRC 90D66985 Accurately ripped (confidence 4) [CD95D2BF] (AR v2) Copy OK
Track 20
Filename E:\EAC Rips\2017-05 Mei\Various Artists - De Pre Historie 1965 (1990) [FLAC] {BMG 260.737}\20 - The Yardbirds - For Your Love.wav
Pre-gap length 0:00:01.32
Peak level 68.8 % Extraction speed 3.3 X Track quality 100.0 % Test CRC 85C4A35F Copy CRC 85C4A35F Accurately ripped (confidence 4) [A7C38FC9] (AR v2) Copy OK
All tracks accurately ripped
No errors occurred
End of status report
---- CUETools DB Plugin V2.1.6
[CTDB TOCID: DP3b0DEgeskNMkoc9OlsitXiVT4-] foundSubmit result: DP3b0DEgeskNMkoc9OlsitXiVT4- has been confirmedTrack | CTDB Status 1 | (2/2) Accurately ripped 2 | (2/2) Accurately ripped 3 | (2/2) Accurately ripped 4 | (2/2) Accurately ripped 5 | (2/2) Accurately ripped 6 | (2/2) Accurately ripped 7 | (2/2) Accurately ripped 8 | (2/2) Accurately ripped 9 | (2/2) Accurately ripped 10 | (2/2) Accurately ripped 11 | (2/2) Accurately ripped 12 | (2/2) Accurately ripped 13 | (2/2) Accurately ripped 14 | (2/2) Accurately ripped 15 | (2/2) Accurately ripped 16 | (2/2) Accurately ripped 17 | (2/2) Accurately ripped 18 | (2/2) Accurately ripped 19 | (2/2) Accurately ripped 20 | (2/2) Accurately ripped
==== Log checksum 6EF3FF7F80687463D166EECAC123F7C23AB6D9ADCD7005F00E82019EFBBDD842 ====

Содержание индексной карты (.CUE)

REM DATE 1990REM DISCID 280C3914REM COMMENT "ExactAudioCopy v1.3"PERFORMER "Various Artists"TITLE "De Pre Historie 1965"REM COMPOSER ""FILE "01 - Tom Jones - It's Not Unusual.wav" WAVE  TRACK 01 AUDIO    TITLE "It's Not Unusual"    PERFORMER "Tom Jones"    REM COMPOSER ""    PREGAP 00:00:33    INDEX 01 00:00:00  TRACK 02 AUDIO    TITLE "Goldfinger"    PERFORMER "Shirley Bassey"    REM COMPOSER ""    INDEX 00 02:00:37FILE "02 - Shirley Bassey - Goldfinger.wav" WAVE    INDEX 01 00:00:00  TRACK 03 AUDIO    TITLE "Letkiss"    PERFORMER "Gudrun Jenkins"    REM COMPOSER ""    INDEX 00 02:47:48FILE "03 - Gudrun Jenkins - Letkiss.wav" WAVE    INDEX 01 00:00:00  TRACK 04 AUDIO    TITLE "Dolce Paola"    PERFORMER "Adamo"    REM COMPOSER ""    INDEX 00 02:11:25FILE "04 - Adamo - Dolce Paola.wav" WAVE    INDEX 01 00:00:00  TRACK 05 AUDIO    TITLE "Yesterday Man"    PERFORMER "Chris Andrews"    REM COMPOSER ""    INDEX 00 02:01:45FILE "05 - Chris Andrews - Yesterday Man.wav" WAVE    INDEX 01 00:00:00  TRACK 06 AUDIO    TITLE "Don't Let Me Be Misunderstood"    PERFORMER "The Animals"    REM COMPOSER ""    INDEX 00 02:29:10FILE "06 - The Animals - Don't Let Me Be Misunderstood.wav" WAVE    INDEX 01 00:00:00  TRACK 07 AUDIO    TITLE "You've Lost That Lovin' Feeling"    PERFORMER "Cilla Black"    REM COMPOSER ""    INDEX 00 02:16:23FILE "07 - Cilla Black - You've Lost That Lovin' Feeling.wav" WAVE    INDEX 01 00:00:00  TRACK 08 AUDIO    TITLE "Unchained Melody"    PERFORMER "The Righteous Brothers"    REM COMPOSER ""    INDEX 00 03:08:53FILE "08 - The Righteous Brothers - Unchained Melody.wav" WAVE    INDEX 01 00:00:00  TRACK 09 AUDIO    TITLE "This Strange Effect"    PERFORMER "Dave Berry"    REM COMPOSER ""    INDEX 00 03:36:25FILE "09 - Dave Berry - This Strange Effect.wav" WAVE    INDEX 01 00:00:00  TRACK 10 AUDIO    TITLE "Mr. Tambourine Man"    PERFORMER "The Byrds"    REM COMPOSER ""    INDEX 00 02:26:13FILE "10 - The Byrds - Mr. Tambourine Man.wav" WAVE    INDEX 01 00:00:00  TRACK 11 AUDIO    TITLE "I Got You Babe"    PERFORMER "Sonny & Cher"    REM COMPOSER ""    INDEX 00 02:17:55FILE "11 - Sonny & Cher - I Got You Babe.wav" WAVE    INDEX 01 00:00:00  TRACK 12 AUDIO    TITLE "Here Comes The Night"    PERFORMER "Them"    REM COMPOSER ""    INDEX 00 03:05:00FILE "12 - Them - Here Comes The Night.wav" WAVE    INDEX 01 00:00:00  TRACK 13 AUDIO    TITLE "I Hear A Symphony"    PERFORMER "The Supremes"    REM COMPOSER ""    INDEX 00 02:44:53FILE "13 - The Supremes - I Hear A Symphony.wav" WAVE    INDEX 01 00:00:00  TRACK 14 AUDIO    TITLE "If You Gotta Go, Go Now"    PERFORMER "Manfred Mann"    REM COMPOSER ""    INDEX 00 02:43:02FILE "14 - Manfred Mann - If You Gotta Go, Go Now.wav" WAVE    INDEX 01 00:00:00  TRACK 15 AUDIO    TITLE "The Birds And The Bees"    PERFORMER "Jewel Akens"    REM COMPOSER ""    INDEX 00 02:29:23FILE "15 - Jewel Akens - The Birds And The Bees.wav" WAVE    INDEX 01 00:00:00  TRACK 16 AUDIO    TITLE "Mit 17 Hat Man Noch Traume"    PERFORMER "Peggy March"    REM COMPOSER ""    INDEX 00 02:07:12FILE "16 - Peggy March - Mit 17 Hat Man Noch Traume.wav" WAVE    INDEX 01 00:00:00  TRACK 17 AUDIO    TITLE "It's The Same Old Song"    PERFORMER "Four Tops"    REM COMPOSER ""    INDEX 00 02:43:70FILE "17 - Four Tops - It's The Same Old Song.wav" WAVE    INDEX 01 00:00:00  TRACK 18 AUDIO    TITLE "Cara Mia"    PERFORMER "Jay & The Americans"    REM COMPOSER ""    INDEX 00 02:46:50FILE "18 - Jay & The Americans - Cara Mia.wav" WAVE    INDEX 01 00:00:00  TRACK 19 AUDIO    TITLE "Hang On Sloopy"    PERFORMER "The McCoys"    REM COMPOSER ""    INDEX 00 02:31:58FILE "19 - The McCoys - Hang On Sloopy.wav" WAVE    INDEX 01 00:00:00  TRACK 20 AUDIO    TITLE "For Your Love"    PERFORMER "The Yardbirds"    REM COMPOSER ""    INDEX 00 03:03:05FILE "20 - The Yardbirds - For Your Love.wav" WAVE    INDEX 01 00:00:00

AccurateRip

[CUETools log; Date: 17.10.2018 17:25:48; Version: 2.1.5]Pregap length 00:00:33.[CTDB TOCID: DP3b0DEgeskNMkoc9OlsitXiVT4-] found.Track | CTDB Status  1   | (7/7) Accurately ripped  2   | (7/7) Accurately ripped  3   | (6/7) Accurately ripped  4   | (7/7) Accurately ripped  5   | (7/7) Accurately ripped  6   | (7/7) Accurately ripped  7   | (7/7) Accurately ripped  8   | (7/7) Accurately ripped  9   | (7/7) Accurately ripped 10   | (7/7) Accurately ripped 11   | (7/7) Accurately ripped 12   | (7/7) Accurately ripped 13   | (7/7) Accurately ripped 14   | (7/7) Accurately ripped 15   | (7/7) Accurately ripped 16   | (7/7) Accurately ripped 17   | (7/7) Accurately ripped 18   | (7/7) Accurately ripped 19   | (7/7) Accurately ripped 20   | (6/7) Accurately ripped[AccurateRip ID: 0024fcf3-02234749-280c3914] found.Track   [  CRC   |   V2   ] Status 01     [fe46d5ff|c247bbdf] (04+06/10) Accurately ripped 02     [737ab610|ea6f8fbf] (04+06/10) Accurately ripped 03     [fad6fbab|b8877311] (04+06/10) Accurately ripped 04     [4d16deb9|a4eb26cf] (04+06/10) Accurately ripped 05     [2cd8a30c|047a1001] (04+06/10) Accurately ripped 06     [c9ea3b30|98287656] (04+06/10) Accurately ripped 07     [7dcf0b3d|1bb7a6e4] (04+06/10) Accurately ripped 08     [f7f970ca|8243d4f2] (04+06/10) Accurately ripped 09     [713e8a60|2ec33acf] (04+06/10) Accurately ripped 10     [a6e6cbc4|e5854952] (04+06/10) Accurately ripped 11     [9b923a5e|17536133] (04+06/10) Accurately ripped 12     [93fc7a0a|f4965c3b] (04+06/10) Accurately ripped 13     [8e3aaed3|2283642e] (04+06/10) Accurately ripped 14     [7f7f26e8|62da4a2a] (04+06/10) Accurately ripped 15     [b05f596d|577cb988] (04+06/10) Accurately ripped 16     [f68cd1ab|4ee3a32c] (04+06/10) Accurately ripped 17     [c0eaeb02|16741e19] (04+06/10) Accurately ripped 18     [297dbb71|557ce2a3] (04+06/10) Accurately ripped 19     [30720702|cd95d2bf] (04+06/10) Accurately ripped 20     [4986223d|a7c38fc9] (04+06/10) Accurately ripped
Track Peak [ CRC32 ] [W/O NULL] [ LOG ] -- 99,2 [4C446393] [A091757E] 01 81,5 [A225A481] [5046A9C2] CRC32 02 91,3 [3558AA6B] [D5205D1A] CRC32 03 84,0 [B25BE0A3] [FDE7EBC7] CRC32 04 89,0 [41800229] [731BFF43] CRC32 05 75,7 [0F363EEC] [852F4392] CRC32 06 75,3 [6570DFC3] [581A27E6] CRC32 07 69,7 [949F224A] [D4749421] CRC32 08 99,2 [878E53FB] [B0363C0C] CRC32 09 71,5 [3FF4D313] [42D8BCC1] CRC32 10 81,4 [9CD2DBEC] [19F11B01] CRC32 11 97,9 [32C4A027] [46A65067] CRC32 12 81,8 [EF78295D] [D0D78393] CRC32 13 92,3 [63262A8B] [A0D38F92] CRC32 14 74,9 [B61B71EB] [922DB7B9] CRC32 15 77,1 [D6DBA04C] [A8097FA8] CRC32 16 61,5 [6625F8D9] [9C66753F] CRC32 17 99,2 [64342026] [771982C4] CRC32 18 84,0 [438E379C] [E5318444] CRC32 19 78,4 [90D66985] [18D376A8] CRC32 20 68,8 [85C4A35F] [6703CB36] CRC32
Вы не можете начинать темы
Вы не можете отвечать на сообщения
Вы не можете редактировать свои сообщения
Вы не можете удалять свои сообщения
Вы не можете голосовать в опросах
Вы не можете прикреплять файлы к сообщениям
Вы можете скачивать файлы
!ВНИМАНИЕ!

Сайт не предоставляет электронные версии произведений, а занимается лишь коллекционированием и каталогизацией ссылок, присылаемых и публикуемых на форуме нашими читателями. Если вы являетесь правообладателем какого-либо представленного материала и не желаете, чтобы ссылка на него находилась в нашем каталоге, свяжитесь с нами, и мы незамедлительно удалим ее. Файлы для обмена на трекере предоставлены пользователями сайта, и администрация не несет ответственности за их содержание. Просьба не заливать файлы, защищенные авторскими правами, а также файлы нелегального содержания!

Искали программы, игры, дополнения, музыка mp3, аниме, аудио книги, журналы? Добро пожаловать на свободный торрент трекер Torrents, у нас можно скачать бесплатно, без смс и регистрации и прочих ограничений лучшие, отборные сборки программ, игр. Скачать торрентом не составит труда даже не опытному пользователю. Раздачи ежедневно обновляются, только лучшие и качественные раздачи, подробные описания и скриншоты. Огромная коллекция программ для работы со звуком, графикой, дизайном, а так же множество плагинов и инструментов к ним с подробной инструкцией и рекомендациями. Прошивки для навигаторов, карты. Разнообразные игры, для Windows, Linux. В коллекцие есть и старые игры любых жанров, Rpg, Action, Shooter, strategy Множество дополнений, модификаций, сценариев для популярных игр в жанре экш, рпг, гонки, стратегии, логические игры. Множество аддонов и сценариев для Microsoft Flight Simulator Большая коллекция книг, учебников. Если нет возможности купить печатное издание - смело скачивайте цифровую версию книги или, быть может, журнала. Не любите читать - можно загрузить бесплатно аудикнигу. Для веб дизайнеров и программистов так же найдется множество специализированного софта, таких как: редакторы с подсветкой, среды программирования, компоненты, системы управления базами данных, разнообразные скрипты и шаблоны. Не так давно у нас появился материал для автолюбителей и владельцев мото - оригинальные и неоригинальные каталоги запчастей, книги и журналы по ремонту и обслуживанию, видеоуроки, статьи по чип тюнингу, прошивкам. Процедура получения контента элементарная, достаточно просто скачать торрент файл и добавить его в загрузку в вашем торрент клиенте. Если у вас нет специального торрент клиента, вы можете его скачать у нас.

Barbie: Superheroína del Videojuego (2017) 6.3/10 | 战争技术战士 | 최고의 요리비결.E3833.181211.720p-NEXT - 토렌트 한국시사/교양