(Various) [CD] VA - De Pre Historie 1972 [EMI/Virgin, 260.744, Belgium] - 1991, FLAC (tracks+.cue), lossless 

Цитировать
De Pre Historie 1972
Жанр: Various
Носитель: CD
Страна-производитель диска (релиза): Belgium
Год издания: 1991
Издатель (лейбл): EMI/Virgin
Номер по каталогу: 260.744
Аудиокодек: FLAC (*.flac)
Тип рипа: tracks+.cue
Битрейт аудио: lossless
Продолжительность: 01:13:08
Источник (релизер): From RED
Наличие сканов в содержимом раздачи: нет

Треклист:
01. Middle Of The Road – Sacramento
02. Chicory Tip – Son Of My Father
03. Mardi Gras – Too Busy Thinking About My Baby
04. Sweet – Poppa Joe
05. Vicky Leandros – Après-Toi
06. Johnny Nash – I Can See Clearly Now
07. Al Green – Let's Stay Together
08. Albert Hammond – It Never Rains In Southern California
09. Peter Skellern – You're A Lady
10. Don McLean – American Pie
11. Nilsson – Without You
12. Dr. Hook – Sylvia's Mother
13. The O'Jays – Back Stabbers
14. Bill Withers – Lean On Me
15. Michael Jackson – Ben
16. Louis Neefs – Margrietje
17. Looking Glass – Brandy
18. Partridge Family – I Think I Love You
19. Hurricane Smith – Oh Babe What Would You Say
20. Deep Purple – Child In Time

Лог создания рипа

Exact Audio Copy V1.3 from 2. September 2016
EAC extraction logfile from 19. May 2017, 11:58
Various Artists / De Pre Historie 1972
Used drive : ATAPI iHAS124 F Adapter: 1 ID: 0
Read mode : SecureUtilize accurate stream : YesDefeat audio cache : YesMake use of C2 pointers : No
Read offset correction : 6Overread into Lead-In and Lead-Out : NoFill up missing offset samples with silence : YesDelete leading and trailing silent blocks : NoNull samples used in CRC calculations : YesUsed interface : Native Win32 interface for Win NT & 2000Gap handling : Appended to previous track
Used output format : User Defined EncoderSelected bitrate : 1024 kBit/sQuality : HighAdd ID3 tag : NoCommand line compressor : C:\cmd.exeAdditional command line options : /c ""C:\F\CUETools.FLACCL.cmd.exe" -8 --verify %source% -o %dest% & "C:\M\metaflac.exe" --set-tag="ARTIST=%artist%" --set-tag="TITLE=%title%" --set-tag="ALBUM=%albumtitle%" --set-tag="DATE=%year%" --set-tag="TRACKNUMBER=%tracknr%" --set-tag="GENRE=%genre%" --set-tag="COMPOSER=%composer%" --set-tag="ALBUMARTIST=%albumartist%" %dest%"
TOC of the extracted CD
Track | Start | Length | Start sector | End sector --------------------------------------------------------- 1 | 0:00.33 | 2:55.72 | 33 | 13229 2 | 2:56.30 | 3:07.28 | 13230 | 27282 3 | 6:03.58 | 4:12.62 | 27283 | 46244 4 | 10:16.45 | 3:09.20 | 46245 | 60439 5 | 13:25.65 | 3:32.53 | 60440 | 76392 6 | 16:58.43 | 2:41.32 | 76393 | 88499 7 | 19:40.00 | 4:43.73 | 88500 | 109797 8 | 24:23.73 | 3:52.45 | 109798 | 127242 9 | 28:16.43 | 4:19.72 | 127243 | 146739 10 | 32:36.40 | 4:08.10 | 146740 | 165349 11 | 36:44.50 | 3:15.15 | 165350 | 179989 12 | 39:59.65 | 3:47.28 | 179990 | 197042 13 | 43:47.18 | 3:05.60 | 197043 | 210977 14 | 46:53.03 | 4:18.70 | 210978 | 230397 15 | 51:11.73 | 2:45.57 | 230398 | 242829 16 | 53:57.55 | 3:59.45 | 242830 | 260799 17 | 57:57.25 | 3:08.53 | 260800 | 274952 18 | 61:06.03 | 2:47.40 | 274953 | 287517 19 | 63:53.43 | 3:27.10 | 287518 | 303052 20 | 67:20.53 | 6:09.55 | 303053 | 330782
Track 1
Filename E:\EAC Rips\2017-05 Mei\Various Artists - De Pre Historie 1972 (1991) [FLAC] {BMG 260.744}\01 - Middle Of The Road - Sacramento.wav
Pre-gap length 0:00:02.33
Peak level 94.3 % Extraction speed 3.6 X Track quality 99.9 % Test CRC 6155F047 Copy CRC 6155F047 Accurately ripped (confidence 5) [351DE5F1] (AR v2) Copy OK
Track 2
Filename E:\EAC Rips\2017-05 Mei\Various Artists - De Pre Historie 1972 (1991) [FLAC] {BMG 260.744}\02 - Chicory Tip - Son Of My Father.wav
Pre-gap length 0:00:01.55
Peak level 84.7 % Extraction speed 4.8 X Track quality 100.0 % Test CRC E8B524CB Copy CRC E8B524CB Accurately ripped (confidence 5) [D9C2B872] (AR v2) Copy OK
Track 3
Filename E:\EAC Rips\2017-05 Mei\Various Artists - De Pre Historie 1972 (1991) [FLAC] {BMG 260.744}\03 - Mardi Gras - Too Busy Thinking About My Baby.wav
Pre-gap length 0:00:02.30
Peak level 84.4 % Extraction speed 5.4 X Track quality 100.0 % Test CRC 696E4318 Copy CRC 696E4318 Accurately ripped (confidence 5) [DC23F181] (AR v2) Copy OK
Track 4
Filename E:\EAC Rips\2017-05 Mei\Various Artists - De Pre Historie 1972 (1991) [FLAC] {BMG 260.744}\04 - The Sweet - Poppa Joe.wav
Peak level 84.9 % Extraction speed 5.6 X Track quality 100.0 % Test CRC 0EAD8164 Copy CRC 0EAD8164 Accurately ripped (confidence 5) [C838D5B5] (AR v2) Copy OK
Track 5
Filename E:\EAC Rips\2017-05 Mei\Various Artists - De Pre Historie 1972 (1991) [FLAC] {BMG 260.744}\05 - Vicky Leandros - Après-Toi.wav
Peak level 83.5 % Extraction speed 6.0 X Track quality 100.0 % Test CRC 5DC21A45 Copy CRC 5DC21A45 Accurately ripped (confidence 5) [B8AA2A14] (AR v2) Copy OK
Track 6
Filename E:\EAC Rips\2017-05 Mei\Various Artists - De Pre Historie 1972 (1991) [FLAC] {BMG 260.744}\06 - Johnny Nash - I Can See Clearly Now.wav
Pre-gap length 0:00:01.45
Peak level 88.9 % Extraction speed 5.9 X Track quality 100.0 % Test CRC 40B92BCB Copy CRC 40B92BCB Accurately ripped (confidence 5) [39469BA1] (AR v2) Copy OK
Track 7
Filename E:\EAC Rips\2017-05 Mei\Various Artists - De Pre Historie 1972 (1991) [FLAC] {BMG 260.744}\07 - Al Green - Let’S Stay Together.wav
Pre-gap length 0:00:01.00
Peak level 83.6 % Extraction speed 6.8 X Track quality 100.0 % Test CRC 65C0D16A Copy CRC 65C0D16A Accurately ripped (confidence 5) [81325E82] (AR v2) Copy OK
Track 8
Filename E:\EAC Rips\2017-05 Mei\Various Artists - De Pre Historie 1972 (1991) [FLAC] {BMG 260.744}\08 - Albert Hammond - It Never Rains In Southern California.wav
Pre-gap length 0:00:00.68
Peak level 93.0 % Extraction speed 6.9 X Track quality 100.0 % Test CRC C02D79FB Copy CRC C02D79FB Accurately ripped (confidence 5) [710D80E8] (AR v2) Copy OK
Track 9
Filename E:\EAC Rips\2017-05 Mei\Various Artists - De Pre Historie 1972 (1991) [FLAC] {BMG 260.744}\09 - Peter Skellern - You’Re A Lady.wav
Pre-gap length 0:00:01.25
Peak level 93.8 % Extraction speed 6.1 X Track quality 99.9 % Test CRC 846589F2 Copy CRC 846589F2 Accurately ripped (confidence 5) [909E24EF] (AR v2) Copy OK
Track 10
Filename E:\EAC Rips\2017-05 Mei\Various Artists - De Pre Historie 1972 (1991) [FLAC] {BMG 260.744}\10 - Don Mclean - American Pie.wav
Pre-gap length 0:00:01.55
Peak level 77.9 % Extraction speed 7.5 X Track quality 100.0 % Test CRC ABA30EA1 Copy CRC ABA30EA1 Accurately ripped (confidence 5) [4531F720] (AR v2) Copy OK
Track 11
Filename E:\EAC Rips\2017-05 Mei\Various Artists - De Pre Historie 1972 (1991) [FLAC] {BMG 260.744}\11 - Nilsson - Without You.wav
Pre-gap length 0:00:01.12
Peak level 99.2 % Extraction speed 6.0 X Track quality 99.9 % Test CRC D2548B4D Copy CRC D2548B4D Accurately ripped (confidence 5) [39522B3A] (AR v2) Copy OK
Track 12
Filename E:\EAC Rips\2017-05 Mei\Various Artists - De Pre Historie 1972 (1991) [FLAC] {BMG 260.744}\12 - Dr. Hook - Sylvia’S Mother.wav
Pre-gap length 0:00:00.55
Peak level 67.7 % Extraction speed 6.4 X Track quality 99.9 % Test CRC 33A1190A Copy CRC 33A1190A Accurately ripped (confidence 5) [E65E8F43] (AR v2) Copy OK
Track 13
Filename E:\EAC Rips\2017-05 Mei\Various Artists - De Pre Historie 1972 (1991) [FLAC] {BMG 260.744}\13 - The O’Jays - Back Stabbers.wav
Peak level 82.5 % Extraction speed 7.9 X Track quality 100.0 % Test CRC A814A58C Copy CRC A814A58C Accurately ripped (confidence 5) [A22FEFC4] (AR v2) Copy OK
Track 14
Filename E:\EAC Rips\2017-05 Mei\Various Artists - De Pre Historie 1972 (1991) [FLAC] {BMG 260.744}\14 - Bill Withers - Lean On Me.wav
Pre-gap length 0:00:01.00
Peak level 93.6 % Extraction speed 7.1 X Track quality 99.9 % Test CRC 242E9F78 Copy CRC 242E9F78 Accurately ripped (confidence 5) [96311261] (AR v2) Copy OK
Track 15
Filename E:\EAC Rips\2017-05 Mei\Various Artists - De Pre Historie 1972 (1991) [FLAC] {BMG 260.744}\15 - Michael Jackson - Ben.wav
Pre-gap length 0:00:02.05
Peak level 61.2 % Extraction speed 7.9 X Track quality 100.0 % Test CRC ABBBCC73 Copy CRC ABBBCC73 Accurately ripped (confidence 5) [53008F41] (AR v2) Copy OK
Track 16
Filename E:\EAC Rips\2017-05 Mei\Various Artists - De Pre Historie 1972 (1991) [FLAC] {BMG 260.744}\16 - Louis Neefs - Margrietje.wav
Pre-gap length 0:00:01.17
Peak level 76.2 % Extraction speed 8.8 X Track quality 100.0 % Test CRC 32AFEDED Copy CRC 32AFEDED Accurately ripped (confidence 5) [E3B42D14] (AR v2) Copy OK
Track 17
Filename E:\EAC Rips\2017-05 Mei\Various Artists - De Pre Historie 1972 (1991) [FLAC] {BMG 260.744}\17 - Looking Glass - Brandy.wav
Peak level 92.2 % Extraction speed 8.7 X Track quality 100.0 % Test CRC 089A95E5 Copy CRC 089A95E5 Accurately ripped (confidence 5) [5B83FCA6] (AR v2) Copy OK
Track 18
Filename E:\EAC Rips\2017-05 Mei\Various Artists - De Pre Historie 1972 (1991) [FLAC] {BMG 260.744}\18 - The Partridge Family - I Think I Love You.wav
Pre-gap length 0:00:01.68
Peak level 99.2 % Extraction speed 8.5 X Track quality 100.0 % Test CRC 403DB6E1 Copy CRC 403DB6E1 Accurately ripped (confidence 5) [253FDB50] (AR v2) Copy OK
Track 19
Filename E:\EAC Rips\2017-05 Mei\Various Artists - De Pre Historie 1972 (1991) [FLAC] {BMG 260.744}\19 - Hurricane Smith - Oh Babe What Would You Say.wav
Pre-gap length 0:00:01.55
Peak level 76.7 % Extraction speed 7.3 X Track quality 99.9 % Test CRC 39C601AE Copy CRC 39C601AE Accurately ripped (confidence 5) [7618DC37] (AR v2) Copy OK
Track 20
Filename E:\EAC Rips\2017-05 Mei\Various Artists - De Pre Historie 1972 (1991) [FLAC] {BMG 260.744}\20 - Deep Purple - Child In Time.wav
Pre-gap length 0:00:01.20
Peak level 87.2 % Extraction speed 9.9 X Track quality 100.0 % Test CRC DDD9CDB6 Copy CRC DDD9CDB6 Accurately ripped (confidence 5) [80839809] (AR v2) Copy OK
All tracks accurately ripped
No errors occurred
End of status report
---- CUETools DB Plugin V2.1.6
[CTDB TOCID: q7xlndxzpnYIf8nDmkm.RyK0cKU-] foundSubmit result: q7xlndxzpnYIf8nDmkm.RyK0cKU- has been confirmedTrack | CTDB Status 1 | (11/11) Accurately ripped 2 | (11/11) Accurately ripped 3 | (11/11) Accurately ripped 4 | (11/11) Accurately ripped 5 | (11/11) Accurately ripped 6 | (11/11) Accurately ripped 7 | (11/11) Accurately ripped 8 | (11/11) Accurately ripped 9 | (11/11) Accurately ripped 10 | (11/11) Accurately ripped 11 | (11/11) Accurately ripped 12 | (11/11) Accurately ripped 13 | (11/11) Accurately ripped 14 | (11/11) Accurately ripped 15 | (11/11) Accurately ripped 16 | (11/11) Accurately ripped 17 | (11/11) Accurately ripped 18 | (11/11) Accurately ripped 19 | (11/11) Accurately ripped 20 | ( 9/11) Accurately ripped
==== Log checksum 2AAFC5E33A35B484BD750F1A7571886919657467526F01EB7366DF138F6639E0 ====

Содержание индексной карты (.CUE)

REM DATE 1991REM DISCID 2A113A14REM COMMENT "ExactAudioCopy v1.3"PERFORMER "Various Artists"TITLE "De Pre Historie 1972"REM COMPOSER ""FILE "01 - Middle Of The Road - Sacramento.wav" WAVE  TRACK 01 AUDIO    TITLE "Sacramento"    PERFORMER "Middle Of The Road"    REM COMPOSER ""    PREGAP 00:00:33    INDEX 01 00:00:00  TRACK 02 AUDIO    TITLE "Son Of My Father"    PERFORMER "Chicory Tip"    REM COMPOSER ""    INDEX 00 02:54:17FILE "02 - Chicory Tip - Son Of My Father.wav" WAVE    INDEX 01 00:00:00  TRACK 03 AUDIO    TITLE "Too Busy Thinking About My Baby"    PERFORMER "Mardi Gras"    REM COMPOSER ""    INDEX 00 03:04:73FILE "03 - Mardi Gras - Too Busy Thinking About My Baby.wav" WAVE    INDEX 01 00:00:00FILE "04 - The Sweet - Poppa Joe.wav" WAVE  TRACK 04 AUDIO    TITLE "Poppa Joe"    PERFORMER "The Sweet"    REM COMPOSER ""    INDEX 01 00:00:00FILE "05 - Vicky Leandros - Apres-Toi.wav" WAVE  TRACK 05 AUDIO    TITLE "Apres-Toi"    PERFORMER "Vicky Leandros"    REM COMPOSER ""    INDEX 01 00:00:00  TRACK 06 AUDIO    TITLE "I Can See Clearly Now"    PERFORMER "Johnny Nash"    REM COMPOSER ""    INDEX 00 03:31:08FILE "06 - Johnny Nash - I Can See Clearly Now.wav" WAVE    INDEX 01 00:00:00  TRACK 07 AUDIO    TITLE "Let’S Stay Together"    PERFORMER "Al Green"    REM COMPOSER ""    INDEX 00 02:40:32FILE "07 - Al Green - Let’S Stay Together.wav" WAVE    INDEX 01 00:00:00  TRACK 08 AUDIO    TITLE "It Never Rains In Southern California"    PERFORMER "Albert Hammond"    REM COMPOSER ""    INDEX 00 04:43:05FILE "08 - Albert Hammond - It Never Rains In Southern California.wav" WAVE    INDEX 01 00:00:00  TRACK 09 AUDIO    TITLE "You’Re A Lady"    PERFORMER "Peter Skellern"    REM COMPOSER ""    INDEX 00 03:51:20FILE "09 - Peter Skellern - You’Re A Lady.wav" WAVE    INDEX 01 00:00:00  TRACK 10 AUDIO    TITLE "American Pie"    PERFORMER "Don Mclean"    REM COMPOSER ""    INDEX 00 04:18:17FILE "10 - Don Mclean - American Pie.wav" WAVE    INDEX 01 00:00:00  TRACK 11 AUDIO    TITLE "Without You"    PERFORMER "Nilsson"    REM COMPOSER ""    INDEX 00 04:06:73FILE "11 - Nilsson - Without You.wav" WAVE    INDEX 01 00:00:00  TRACK 12 AUDIO    TITLE "Sylvia’S Mother"    PERFORMER "Dr. Hook"    REM COMPOSER ""    INDEX 00 03:14:35FILE "12 - Dr. Hook - Sylvia’S Mother.wav" WAVE    INDEX 01 00:00:00FILE "13 - The O’Jays - Back Stabbers.wav" WAVE  TRACK 13 AUDIO    TITLE "Back Stabbers"    PERFORMER "The O’Jays"    REM COMPOSER ""    INDEX 01 00:00:00  TRACK 14 AUDIO    TITLE "Lean On Me"    PERFORMER "Bill Withers"    REM COMPOSER ""    INDEX 00 03:04:60FILE "14 - Bill Withers - Lean On Me.wav" WAVE    INDEX 01 00:00:00  TRACK 15 AUDIO    TITLE "Ben"    PERFORMER "Michael Jackson"    REM COMPOSER ""    INDEX 00 04:16:65FILE "15 - Michael Jackson - Ben.wav" WAVE    INDEX 01 00:00:00  TRACK 16 AUDIO    TITLE "Margrietje"    PERFORMER "Louis Neefs"    REM COMPOSER ""    INDEX 00 02:44:40FILE "16 - Louis Neefs - Margrietje.wav" WAVE    INDEX 01 00:00:00FILE "17 - Looking Glass - Brandy.wav" WAVE  TRACK 17 AUDIO    TITLE "Brandy"    PERFORMER "Looking Glass"    REM COMPOSER ""    INDEX 01 00:00:00  TRACK 18 AUDIO    TITLE "I Think I Love You"    PERFORMER "The Partridge Family"    REM COMPOSER ""    INDEX 00 03:06:60FILE "18 - The Partridge Family - I Think I Love You.wav" WAVE    INDEX 01 00:00:00  TRACK 19 AUDIO    TITLE "Oh Babe What Would You Say"    PERFORMER "Hurricane Smith"    REM COMPOSER ""    INDEX 00 02:45:60FILE "19 - Hurricane Smith - Oh Babe What Would You Say.wav" WAVE    INDEX 01 00:00:00  TRACK 20 AUDIO    TITLE "Child In Time"    PERFORMER "Deep Purple"    REM COMPOSER ""    INDEX 00 03:25:65FILE "20 - Deep Purple - Child In Time.wav" WAVE    INDEX 01 00:00:00

AccurateRip

[CUETools log; Date: 20.10.2018 12:25:52; Version: 2.1.5]Pregap length 00:00:33.[CTDB TOCID: q7xlndxzpnYIf8nDmkm.RyK0cKU-] found.Track | CTDB Status  1   | (22/22) Accurately ripped  2   | (22/22) Accurately ripped  3   | (22/22) Accurately ripped  4   | (22/22) Accurately ripped  5   | (22/22) Accurately ripped  6   | (22/22) Accurately ripped  7   | (22/22) Accurately ripped  8   | (22/22) Accurately ripped  9   | (22/22) Accurately ripped 10   | (22/22) Accurately ripped 11   | (22/22) Accurately ripped 12   | (21/22) Accurately ripped 13   | (22/22) Accurately ripped 14   | (21/22) Accurately ripped 15   | (22/22) Accurately ripped 16   | (22/22) Accurately ripped 17   | (22/22) Accurately ripped 18   | (22/22) Accurately ripped 19   | (22/22) Accurately ripped 20   | (20/22) Accurately ripped[AccurateRip ID: 00339191-02f8b109-2a113a14] found.Track   [  CRC   |   V2   ] Status 01     [112edc85|351de5f1] (05+07/22) Accurately ripped 02     [cc610272|d9c2b872] (05+07/22) Accurately ripped 03     [3a812bd1|dc23f181] (05+07/22) Accurately ripped 04     [4474dfcd|c838d5b5] (05+07/21) Accurately ripped 05     [a06e7ddc|b8aa2a14] (05+07/23) Accurately ripped 06     [da9466c5|39469ba1] (05+07/22) Accurately ripped 07     [8290fd22|81325e82] (05+07/23) Accurately ripped 08     [a25b7bdc|710d80e8] (05+07/23) Accurately ripped 09     [1da40dc3|909e24ef] (04+06/20) Accurately ripped 10     [d9daa089|4531f720] (05+07/21) Accurately ripped 11     [001f6dc0|39522b3a] (05+07/21) Accurately ripped 12     [c06f06f3|e65e8f43] (05+07/21) Accurately ripped 13     [bc3af711|a22fefc4] (05+07/22) Accurately ripped 14     [963f6e02|96311261] (05+06/21) Accurately ripped 15     [9fa744eb|53008f41] (05+06/22) Accurately ripped 16     [ad915fab|e3b42d14] (05+06/21) Accurately ripped 17     [ad0202bd|5b83fca6] (05+06/22) Accurately ripped 18     [ae04daf7|253fdb50] (05+06/21) Accurately ripped 19     [16b50f75|7618dc37] (05+06/20) Accurately ripped 20     [5bf42198|80839809] (04+06/17) Accurately rippedOffsetted by 1949: 01     [9a55ec3c] (03/22) Accurately ripped 02     [c97a47c3] (03/22) Accurately ripped 03     [fdef4071] (03/22) Accurately ripped 04     [86a90b36] (02/21) Accurately ripped 05     [1de6e766] (03/23) Accurately ripped 06     [7b9a9ea1] (02/22) Accurately ripped 07     [7db1202f] (03/23) Accurately ripped 08     [d2f80b8b] (03/23) Accurately ripped 09     [b575cf63] (03/20) Accurately ripped 10     [035a831c] (02/21) Accurately ripped 11     [1cab78ad] (02/21) Accurately ripped 12     [342cd1d0] (02/21) Accurately ripped 13     [6b6eb807] (02/22) Accurately ripped 14     [7b5b5d12] (03/21) Accurately ripped 15     [6a6604e5] (03/22) Accurately ripped 16     [094e98e2] (03/21) Accurately ripped 17     [2709a537] (03/22) Accurately ripped 18     [2f24e76a] (03/21) Accurately ripped 19     [8d47aab2] (02/20) Accurately ripped 20     [f765e1dd] (02/17) Accurately rippedOffsetted by 1285: 01     [6c45cb63] (00/22) No match (V2 was not tested) 02     [a1640e27] (00/22) No match 03     [f7ea8bc3] (00/22) No match (V2 was not tested) 04     [ffb97e04] (00/21) No match (V2 was not tested) 05     [3b3610d2] (00/23) No match 06     [7d3fdfd7] (00/22) No match 07     [9636afe9] (00/23) No match 08     [9cdfee32] (00/23) No match 09     [c9e5fb44] (00/20) No match 10     [55b25ddf] (00/21) No match 11     [26b5bdd6] (00/21) No match (V2 was not tested) 12     [e791bfba] (00/21) No match 13     [7ae01d91] (00/22) No match 14     [4d59fd92] (00/21) No match 15     [002765b5] (00/22) No match (V2 was not tested) 16     [f96a5a30] (00/21) No match 17     [46647af1] (00/22) No match (V2 was not tested) 18     [2f742bd2] (00/21) No match 19     [2da924c8] (00/20) No match 20     [81ef786d] (00/17) No match
Track Peak [ CRC32 ] [W/O NULL] [ LOG ] -- 99,2 [251C8845] [A9C2F298] 01 94,3 [6155F047] [15BD7F55] CRC32 02 84,7 [E8B524CB] [B65D4A53] CRC32 03 84,4 [696E4318] [C9C78893] CRC32 04 84,9 [0EAD8164] [18098CDC] CRC32 05 83,5 [5DC21A45] [5E76A5FA] CRC32 06 88,9 [40B92BCB] [764BB5D1] CRC32 07 83,6 [65C0D16A] [F7E086B6] CRC32 08 93,0 [C02D79FB] [CD554F2B] CRC32 09 93,8 [846589F2] [BF434550] CRC32 10 77,9 [ABA30EA1] [3807273A] CRC32 11 99,2 [D2548B4D] [F7EE4A10] CRC32 12 67,7 [33A1190A] [62148F3B] CRC32 13 82,5 [A814A58C] [13C5823B] CRC32 14 93,6 [242E9F78] [6B7C9084] CRC32 15 61,2 [ABBBCC73] [B99C74CA] CRC32 16 76,2 [32AFEDED] [D17FEA6C] CRC32 17 92,2 [089A95E5] [27747FF5] CRC32 18 99,2 [403DB6E1] [8A2D5196] CRC32 19 76,7 [39C601AE] [572B44B9] CRC32 20 87,2 [DDD9CDB6] [A8C18659] CRC32
Вы не можете начинать темы
Вы не можете отвечать на сообщения
Вы не можете редактировать свои сообщения
Вы не можете удалять свои сообщения
Вы не можете голосовать в опросах
Вы не можете прикреплять файлы к сообщениям
Вы можете скачивать файлы
!ВНИМАНИЕ!

Сайт не предоставляет электронные версии произведений, а занимается лишь коллекционированием и каталогизацией ссылок, присылаемых и публикуемых на форуме нашими читателями. Если вы являетесь правообладателем какого-либо представленного материала и не желаете, чтобы ссылка на него находилась в нашем каталоге, свяжитесь с нами, и мы незамедлительно удалим ее. Файлы для обмена на трекере предоставлены пользователями сайта, и администрация не несет ответственности за их содержание. Просьба не заливать файлы, защищенные авторскими правами, а также файлы нелегального содержания!

Искали программы, игры, дополнения, музыка mp3, аниме, аудио книги, журналы? Добро пожаловать на свободный торрент трекер Torrents, у нас можно скачать бесплатно, без смс и регистрации и прочих ограничений лучшие, отборные сборки программ, игр. Скачать торрентом не составит труда даже не опытному пользователю. Раздачи ежедневно обновляются, только лучшие и качественные раздачи, подробные описания и скриншоты. Огромная коллекция программ для работы со звуком, графикой, дизайном, а так же множество плагинов и инструментов к ним с подробной инструкцией и рекомендациями. Прошивки для навигаторов, карты. Разнообразные игры, для Windows, Linux. В коллекцие есть и старые игры любых жанров, Rpg, Action, Shooter, strategy Множество дополнений, модификаций, сценариев для популярных игр в жанре экш, рпг, гонки, стратегии, логические игры. Множество аддонов и сценариев для Microsoft Flight Simulator Большая коллекция книг, учебников. Если нет возможности купить печатное издание - смело скачивайте цифровую версию книги или, быть может, журнала. Не любите читать - можно загрузить бесплатно аудикнигу. Для веб дизайнеров и программистов так же найдется множество специализированного софта, таких как: редакторы с подсветкой, среды программирования, компоненты, системы управления базами данных, разнообразные скрипты и шаблоны. Не так давно у нас появился материал для автолюбителей и владельцев мото - оригинальные и неоригинальные каталоги запчастей, книги и журналы по ремонту и обслуживанию, видеоуроки, статьи по чип тюнингу, прошивкам. Процедура получения контента элементарная, достаточно просто скачать торрент файл и добавить его в загрузку в вашем торрент клиенте. Если у вас нет специального торрент клиента, вы можете его скачать у нас.

Vedi Prodotto | 1x12 ACCA: 13-Territory Inspection Dept. | Dexter (21)