(Various) [CD] VA - De Pre Historie 1966 Vol. 2 [EVA, 74321 16222 2, Belgium] - 1993, FLAC (tracks+.cue), lossless 

Цитировать
De Pre Historie 1966 Vol. 2
Жанр: Various
Носитель: CD
Страна-производитель диска (релиза): Belgium
Год издания: 1993
Издатель (лейбл): EVA
Номер по каталогу: 74321 16222 2
Аудиокодек: FLAC (*.flac)
Тип рипа: tracks+.cue
Битрейт аудио: lossless
Продолжительность: 01:12:13
Источник (релизер): From RED
Наличие сканов в содержимом раздачи: нет

Треклист:
01. The Beach Boys – Sloop John B.
02. The Spencer Davis Group – Keep On Running
03. The Troggs – With A Girl Like You
04. Chris Farlowe – Out Of Time
05. David Garrick – Dear Mrs. Applebee
06. Dave Dee, Dozy, Beaky, Mick & Tich – Bend It
07. The Kinks – Dedicated Follower Of Fashion
08. The Hollies – Bus Stop
09. Donovan – Sunshine Superman
10. The Capitols – Cool Jerk
11. Billy Stewart – Summertime
12. James & Bobby Purify – I'm Your Puppet
13. The Mamas & The Papas – California Dreamin'
14. The Lovin' Spoonful – Daydream
15. The Vogues – Five O'Clock World
16. Sonny & Cher – What Now My Love
17. The Overlanders – Michelle
18. The Hollies – I Can't Let Go
19. Small Faces – All Or Nothing
20. Tommy James & The Shondells – Hanky Panky
21. Count Five – Psychotic Reaction
22. The Beach Boys – God Only Knows
23. Tommy Roe – Sweat Pea
24. The Bobby Fuller Four – I Fought The Law
25. The Association – Cherish

Лог создания рипа

Exact Audio Copy V1.3 from 2. September 2016
EAC extraction logfile from 18. May 2017, 20:34
Various Artists / De Pre Historie 1966, Volume 2
Used drive : ATAPI iHAS124 F Adapter: 1 ID: 1
Read mode : SecureUtilize accurate stream : YesDefeat audio cache : YesMake use of C2 pointers : No
Read offset correction : 6Overread into Lead-In and Lead-Out : NoFill up missing offset samples with silence : YesDelete leading and trailing silent blocks : NoNull samples used in CRC calculations : YesUsed interface : Native Win32 interface for Win NT & 2000Gap handling : Appended to previous track
Used output format : User Defined EncoderSelected bitrate : 1024 kBit/sQuality : HighAdd ID3 tag : NoCommand line compressor : C:\cmd.exeAdditional command line options : /c ""C:\F\CUETools.FLACCL.cmd.exe" -8 --verify %source% -o %dest% & "C:\M\metaflac.exe" --set-tag="ARTIST=%artist%" --set-tag="TITLE=%title%" --set-tag="ALBUM=%albumtitle%" --set-tag="DATE=%year%" --set-tag="TRACKNUMBER=%tracknr%" --set-tag="GENRE=%genre%" --set-tag="COMPOSER=%composer%" --set-tag="ALBUMARTIST=%albumartist%" %dest%"
TOC of the extracted CD
Track | Start | Length | Start sector | End sector --------------------------------------------------------- 1 | 0:00.33 | 2:57.57 | 33 | 13364 2 | 2:58.15 | 2:44.23 | 13365 | 25687 3 | 5:42.38 | 2:07.42 | 25688 | 35254 4 | 7:50.05 | 3:36.20 | 35255 | 51474 5 | 11:26.25 | 2:15.63 | 51475 | 61662 6 | 13:42.13 | 2:32.37 | 61663 | 73099 7 | 16:14.50 | 3:01.03 | 73100 | 86677 8 | 19:15.53 | 2:55.00 | 86678 | 99802 9 | 22:10.53 | 4:34.20 | 99803 | 120372 10 | 26:44.73 | 2:33.12 | 120373 | 131859 11 | 29:18.10 | 4:56.28 | 131860 | 154087 12 | 34:14.38 | 3:00.27 | 154088 | 167614 13 | 37:14.65 | 2:40.43 | 167615 | 179657 14 | 39:55.33 | 2:20.12 | 179658 | 190169 15 | 42:15.45 | 2:08.13 | 190170 | 199782 16 | 44:23.58 | 3:26.65 | 199783 | 215297 17 | 47:50.48 | 2:21.27 | 215298 | 225899 18 | 50:12.00 | 2:26.55 | 225900 | 236904 19 | 52:38.55 | 3:04.05 | 236905 | 250709 20 | 55:42.60 | 2:54.03 | 250710 | 263762 21 | 58:36.63 | 3:05.25 | 263763 | 277662 22 | 61:42.13 | 2:50.00 | 277663 | 290412 23 | 64:32.13 | 2:09.12 | 290413 | 300099 24 | 66:41.25 | 2:18.15 | 300100 | 310464 25 | 68:59.40 | 3:26.13 | 310465 | 325927
Track 1
Filename E:\EAC Rips\2017-05 Mei\Various Artists - De Pre Historie 1966, Volume 2 (1993) [FLAC] {EVA 74321 162222}\01 - The Beach Boys - Sloop John B..wav
Pre-gap length 0:00:02.33
Peak level 94.3 % Extraction speed 4.4 X Track quality 100.0 % Test CRC 49464978 Copy CRC 49464978 Accurately ripped (confidence 4) [48086DFA] (AR v2) Copy OK
Track 2
Filename E:\EAC Rips\2017-05 Mei\Various Artists - De Pre Historie 1966, Volume 2 (1993) [FLAC] {EVA 74321 162222}\02 - The Spencer Davis Group - Keep On Running.wav
Pre-gap length 0:00:01.25
Peak level 96.4 % Extraction speed 4.0 X Track quality 99.9 % Test CRC 476501BB Copy CRC 476501BB Accurately ripped (confidence 4) [401394AF] (AR v2) Copy OK
Track 3
Filename E:\EAC Rips\2017-05 Mei\Various Artists - De Pre Historie 1966, Volume 2 (1993) [FLAC] {EVA 74321 162222}\03 - The Troggs - With A Girl Like You.wav
Peak level 96.9 % Extraction speed 4.7 X Track quality 100.0 % Test CRC D47B0D81 Copy CRC D47B0D81 Accurately ripped (confidence 4) [1213BA20] (AR v2) Copy OK
Track 4
Filename E:\EAC Rips\2017-05 Mei\Various Artists - De Pre Historie 1966, Volume 2 (1993) [FLAC] {EVA 74321 162222}\04 - Chris Farlowe - Out Of Time.wav
Peak level 91.9 % Extraction speed 5.5 X Track quality 100.0 % Test CRC 00B73CB3 Copy CRC 00B73CB3 Accurately ripped (confidence 4) [12CA27DC] (AR v2) Copy OK
Track 5
Filename E:\EAC Rips\2017-05 Mei\Various Artists - De Pre Historie 1966, Volume 2 (1993) [FLAC] {EVA 74321 162222}\05 - David Garrick - Dear Mrs. Applebee.wav
Peak level 84.7 % Extraction speed 5.3 X Track quality 100.0 % Test CRC B8942F3C Copy CRC B8942F3C Accurately ripped (confidence 4) [FD64FF98] (AR v2) Copy OK
Track 6
Filename E:\EAC Rips\2017-05 Mei\Various Artists - De Pre Historie 1966, Volume 2 (1993) [FLAC] {EVA 74321 162222}\06 - Dave Dee, Dozy, Beaky, Mick & Tich - Bend It.wav
Pre-gap length 0:00:01.00
Peak level 84.3 % Extraction speed 5.6 X Track quality 100.0 % Test CRC 1A34B67A Copy CRC 1A34B67A Accurately ripped (confidence 4) [A02BD337] (AR v2) Copy OK
Track 7
Filename E:\EAC Rips\2017-05 Mei\Various Artists - De Pre Historie 1966, Volume 2 (1993) [FLAC] {EVA 74321 162222}\07 - The Kinks - Dedicated Follower Of Fashion.wav
Pre-gap length 0:00:01.37
Peak level 80.4 % Extraction speed 6.0 X Track quality 100.0 % Test CRC 589DF1AA Copy CRC 589DF1AA Accurately ripped (confidence 4) [8F507AB7] (AR v2) Copy OK
Track 8
Filename E:\EAC Rips\2017-05 Mei\Various Artists - De Pre Historie 1966, Volume 2 (1993) [FLAC] {EVA 74321 162222}\08 - The Hollies - Bus Stop.wav
Peak level 76.7 % Extraction speed 6.2 X Track quality 100.0 % Test CRC 814673E0 Copy CRC 814673E0 Accurately ripped (confidence 4) [C1608A39] (AR v2) Copy OK
Track 9
Filename E:\EAC Rips\2017-05 Mei\Various Artists - De Pre Historie 1966, Volume 2 (1993) [FLAC] {EVA 74321 162222}\09 - Donovan - Sunshine Superman.wav
Peak level 88.8 % Extraction speed 6.9 X Track quality 100.0 % Test CRC B79A9578 Copy CRC B79A9578 Accurately ripped (confidence 4) [897F1F45] (AR v2) Copy OK
Track 10
Filename E:\EAC Rips\2017-05 Mei\Various Artists - De Pre Historie 1966, Volume 2 (1993) [FLAC] {EVA 74321 162222}\10 - The Capitols - Cool Jerk.wav
Peak level 73.9 % Extraction speed 6.5 X Track quality 100.0 % Test CRC BB457A1C Copy CRC BB457A1C Accurately ripped (confidence 4) [2ACDB704] (AR v2) Copy OK
Track 11
Filename E:\EAC Rips\2017-05 Mei\Various Artists - De Pre Historie 1966, Volume 2 (1993) [FLAC] {EVA 74321 162222}\11 - Billy Stewart - Summertime.wav
Peak level 96.6 % Extraction speed 7.5 X Track quality 100.0 % Test CRC 5266ED70 Copy CRC 5266ED70 Accurately ripped (confidence 4) [BF72168B] (AR v2) Copy OK
Track 12
Filename E:\EAC Rips\2017-05 Mei\Various Artists - De Pre Historie 1966, Volume 2 (1993) [FLAC] {EVA 74321 162222}\12 - James & Bobby Purify - I’M Your Puppet.wav
Peak level 99.2 % Extraction speed 7.2 X Track quality 100.0 % Test CRC CE6E4F97 Copy CRC CE6E4F97 Accurately ripped (confidence 4) [0A9B7767] (AR v2) Copy OK
Track 13
Filename E:\EAC Rips\2017-05 Mei\Various Artists - De Pre Historie 1966, Volume 2 (1993) [FLAC] {EVA 74321 162222}\13 - The Mamas & The Papas - California Dreamin’.wav
Peak level 92.8 % Extraction speed 7.3 X Track quality 100.0 % Test CRC E44CE939 Copy CRC E44CE939 Accurately ripped (confidence 4) [4E383783] (AR v2) Copy OK
Track 14
Filename E:\EAC Rips\2017-05 Mei\Various Artists - De Pre Historie 1966, Volume 2 (1993) [FLAC] {EVA 74321 162222}\14 - The Lovin’ Spoonful - Daydream.wav
Pre-gap length 0:00:01.10
Peak level 68.3 % Extraction speed 7.3 X Track quality 100.0 % Test CRC 7445CA98 Copy CRC 7445CA98 Accurately ripped (confidence 4) [25FE189F] (AR v2) Copy OK
Track 15
Filename E:\EAC Rips\2017-05 Mei\Various Artists - De Pre Historie 1966, Volume 2 (1993) [FLAC] {EVA 74321 162222}\15 - The Vogues - Five O’Clock World.wav
Pre-gap length 0:00:01.05
Peak level 99.2 % Extraction speed 7.2 X Track quality 100.0 % Test CRC 8A7B88DC Copy CRC 8A7B88DC Accurately ripped (confidence 4) [9D082EE4] (AR v2) Copy OK
Track 16
Filename E:\EAC Rips\2017-05 Mei\Various Artists - De Pre Historie 1966, Volume 2 (1993) [FLAC] {EVA 74321 162222}\16 - Sonny & Cher - What Now My Love.wav
Pre-gap length 0:00:01.00
Peak level 96.9 % Extraction speed 8.1 X Track quality 100.0 % Test CRC B4BB0C7D Copy CRC B4BB0C7D Accurately ripped (confidence 3) [E8448FA5] (AR v2) Copy OK
Track 17
Filename E:\EAC Rips\2017-05 Mei\Various Artists - De Pre Historie 1966, Volume 2 (1993) [FLAC] {EVA 74321 162222}\17 - The Overlanders - Michelle.wav
Pre-gap length 0:00:01.10
Peak level 88.5 % Extraction speed 7.7 X Track quality 100.0 % Test CRC 9A6EB079 Copy CRC 9A6EB079 Accurately ripped (confidence 4) [99ACD360] (AR v2) Copy OK
Track 18
Filename E:\EAC Rips\2017-05 Mei\Various Artists - De Pre Historie 1966, Volume 2 (1993) [FLAC] {EVA 74321 162222}\18 - The Hollies - I Can’T Let Go.wav
Pre-gap length 0:00:01.17
Peak level 91.7 % Extraction speed 6.6 X Track quality 99.9 % Test CRC A43748C5 Copy CRC A43748C5 Accurately ripped (confidence 4) [AE519E13] (AR v2) Copy OK
Track 19
Filename E:\EAC Rips\2017-05 Mei\Various Artists - De Pre Historie 1966, Volume 2 (1993) [FLAC] {EVA 74321 162222}\19 - Small Faces - All Or Nothing.wav
Peak level 71.2 % Extraction speed 8.4 X Track quality 100.0 % Test CRC 6FAC3C02 Copy CRC 6FAC3C02 Accurately ripped (confidence 4) [816A156B] (AR v2) Copy OK
Track 20
Filename E:\EAC Rips\2017-05 Mei\Various Artists - De Pre Historie 1966, Volume 2 (1993) [FLAC] {EVA 74321 162222}\20 - Tommy James & The Shondells - Hanky Panky.wav
Peak level 89.6 % Extraction speed 8.4 X Track quality 100.0 % Test CRC 9566B315 Copy CRC 9566B315 Accurately ripped (confidence 4) [750271D2] (AR v2) Copy OK
Track 21
Filename E:\EAC Rips\2017-05 Mei\Various Artists - De Pre Historie 1966, Volume 2 (1993) [FLAC] {EVA 74321 162222}\21 - Count Five - Psychotic Reaction.wav
Peak level 92.8 % Extraction speed 8.7 X Track quality 100.0 % Test CRC 25904504 Copy CRC 25904504 Accurately ripped (confidence 3) [69D57837] (AR v2) Copy OK
Track 22
Filename E:\EAC Rips\2017-05 Mei\Various Artists - De Pre Historie 1966, Volume 2 (1993) [FLAC] {EVA 74321 162222}\22 - The Beach Boys - God Only Knows.wav
Pre-gap length 0:00:01.00
Peak level 91.3 % Extraction speed 7.5 X Track quality 99.9 % Test CRC 38CD42CD Copy CRC 38CD42CD Accurately ripped (confidence 4) [5ABF1A72] (AR v2) Copy OK
Track 23
Filename E:\EAC Rips\2017-05 Mei\Various Artists - De Pre Historie 1966, Volume 2 (1993) [FLAC] {EVA 74321 162222}\23 - Tommy Roe - Sweat Pea.wav
Pre-gap length 0:00:01.00
Peak level 99.2 % Extraction speed 7.0 X Track quality 99.9 % Test CRC 115814BE Copy CRC 115814BE Accurately ripped (confidence 4) [F58F9B71] (AR v2) Copy OK
Track 24
Filename E:\EAC Rips\2017-05 Mei\Various Artists - De Pre Historie 1966, Volume 2 (1993) [FLAC] {EVA 74321 162222}\24 - The Bobby Fuller Four - I Fought The Law.wav
Peak level 78.6 % Extraction speed 8.7 X Track quality 100.0 % Test CRC 3C440B40 Copy CRC 3C440B40 Accurately ripped (confidence 4) [0FEA419E] (AR v2) Copy OK
Track 25
Filename E:\EAC Rips\2017-05 Mei\Various Artists - De Pre Historie 1966, Volume 2 (1993) [FLAC] {EVA 74321 162222}\25 - The Association - Cherish.wav
Pre-gap length 0:00:01.00
Peak level 80.4 % Extraction speed 8.2 X Track quality 99.9 % Test CRC D4321CC6 Copy CRC D4321CC6 Accurately ripped (confidence 4) [C5B8935A] (AR v2) Copy OK
All tracks accurately ripped
No errors occurred
End of status report
---- CUETools DB Plugin V2.1.6
[CTDB TOCID: .9c6X.Oa8vnfgBf8smEk7Eac_6g-] foundSubmit result: .9c6X.Oa8vnfgBf8smEk7Eac_6g- has been confirmedTrack | CTDB Status 1 | (4/4) Accurately ripped 2 | (4/4) Accurately ripped 3 | (4/4) Accurately ripped 4 | (4/4) Accurately ripped 5 | (4/4) Accurately ripped 6 | (4/4) Accurately ripped 7 | (4/4) Accurately ripped 8 | (4/4) Accurately ripped 9 | (4/4) Accurately ripped 10 | (4/4) Accurately ripped 11 | (4/4) Accurately ripped 12 | (4/4) Accurately ripped 13 | (4/4) Accurately ripped 14 | (4/4) Accurately ripped 15 | (4/4) Accurately ripped 16 | (4/4) Accurately ripped 17 | (4/4) Accurately ripped 18 | (4/4) Accurately ripped 19 | (4/4) Accurately ripped 20 | (4/4) Accurately ripped 21 | (4/4) Accurately ripped 22 | (4/4) Accurately ripped 23 | (4/4) Accurately ripped 24 | (4/4) Accurately ripped 25 | (4/4) Accurately ripped
==== Log checksum 1DDB81DC8A0BA3778DD58F1850E28C1897945C7BBC6BAC559D74B7109ABF177C ====

Содержание индексной карты (.CUE)

REM DATE 1993REM DISCID 5C10F919REM COMMENT "ExactAudioCopy v1.3"PERFORMER "Various Artists"TITLE "De Pre Historie 1966, Volume 2"REM COMPOSER ""FILE "01 - The Beach Boys - Sloop John B..wav" WAVE  TRACK 01 AUDIO    TITLE "Sloop John B."    PERFORMER "The Beach Boys"    REM COMPOSER ""    PREGAP 00:00:33    INDEX 01 00:00:00  TRACK 02 AUDIO    TITLE "Keep On Running"    PERFORMER "The Spencer Davis Group"    REM COMPOSER ""    INDEX 00 02:56:32FILE "02 - The Spencer Davis Group - Keep On Running.wav" WAVE    INDEX 01 00:00:00FILE "03 - The Troggs - With A Girl Like You.wav" WAVE  TRACK 03 AUDIO    TITLE "With A Girl Like You"    PERFORMER "The Troggs"    REM COMPOSER ""    INDEX 01 00:00:00FILE "04 - Chris Farlowe - Out Of Time.wav" WAVE  TRACK 04 AUDIO    TITLE "Out Of Time"    PERFORMER "Chris Farlowe"    REM COMPOSER ""    INDEX 01 00:00:00FILE "05 - David Garrick - Dear Mrs. Applebee.wav" WAVE  TRACK 05 AUDIO    TITLE "Dear Mrs. Applebee"    PERFORMER "David Garrick"    REM COMPOSER ""    INDEX 01 00:00:00  TRACK 06 AUDIO    TITLE "Bend It"    PERFORMER "Dave Dee, Dozy, Beaky, Mick & Tich"    REM COMPOSER ""    INDEX 00 02:14:63FILE "06 - Dave Dee, Dozy, Beaky, Mick & Tich - Bend It.wav" WAVE    INDEX 01 00:00:00  TRACK 07 AUDIO    TITLE "Dedicated Follower Of Fashion"    PERFORMER "The Kinks"    REM COMPOSER ""    INDEX 00 02:31:00FILE "07 - The Kinks - Dedicated Follower Of Fashion.wav" WAVE    INDEX 01 00:00:00FILE "08 - The Hollies - Bus Stop.wav" WAVE  TRACK 08 AUDIO    TITLE "Bus Stop"    PERFORMER "The Hollies"    REM COMPOSER ""    INDEX 01 00:00:00FILE "09 - Donovan - Sunshine Superman.wav" WAVE  TRACK 09 AUDIO    TITLE "Sunshine Superman"    PERFORMER "Donovan"    REM COMPOSER ""    INDEX 01 00:00:00FILE "10 - The Capitols - Cool Jerk.wav" WAVE  TRACK 10 AUDIO    TITLE "Cool Jerk"    PERFORMER "The Capitols"    REM COMPOSER ""    INDEX 01 00:00:00FILE "11 - Billy Stewart - Summertime.wav" WAVE  TRACK 11 AUDIO    TITLE "Summertime"    PERFORMER "Billy Stewart"    REM COMPOSER ""    INDEX 01 00:00:00FILE "12 - James & Bobby Purify - I’M Your Puppet.wav" WAVE  TRACK 12 AUDIO    TITLE "I’M Your Puppet"    PERFORMER "James & Bobby Purify"    REM COMPOSER ""    INDEX 01 00:00:00FILE "13 - The Mamas & The Papas - California Dreamin’.wav" WAVE  TRACK 13 AUDIO    TITLE "California Dreamin’"    PERFORMER "The Mamas & The Papas"    REM COMPOSER ""    INDEX 01 00:00:00  TRACK 14 AUDIO    TITLE "Daydream"    PERFORMER "The Lovin’ Spoonful"    REM COMPOSER ""    INDEX 00 02:39:33FILE "14 - The Lovin’ Spoonful - Daydream.wav" WAVE    INDEX 01 00:00:00  TRACK 15 AUDIO    TITLE "Five O’Clock World"    PERFORMER "The Vogues"    REM COMPOSER ""    INDEX 00 02:19:07FILE "15 - The Vogues - Five O’Clock World.wav" WAVE    INDEX 01 00:00:00  TRACK 16 AUDIO    TITLE "What Now My Love"    PERFORMER "Sonny & Cher"    REM COMPOSER ""    INDEX 00 02:07:13FILE "16 - Sonny & Cher - What Now My Love.wav" WAVE    INDEX 01 00:00:00  TRACK 17 AUDIO    TITLE "Michelle"    PERFORMER "The Overlanders"    REM COMPOSER ""    INDEX 00 03:25:55FILE "17 - The Overlanders - Michelle.wav" WAVE    INDEX 01 00:00:00  TRACK 18 AUDIO    TITLE "I Can’T Let Go"    PERFORMER "The Hollies"    REM COMPOSER ""    INDEX 00 02:20:10FILE "18 - The Hollies - I Can’T Let Go.wav" WAVE    INDEX 01 00:00:00FILE "19 - Small Faces - All Or Nothing.wav" WAVE  TRACK 19 AUDIO    TITLE "All Or Nothing"    PERFORMER "Small Faces"    REM COMPOSER ""    INDEX 01 00:00:00FILE "20 - Tommy James & The Shondells - Hanky Panky.wav" WAVE  TRACK 20 AUDIO    TITLE "Hanky Panky"    PERFORMER "Tommy James & The Shondells"    REM COMPOSER ""    INDEX 01 00:00:00FILE "21 - Count Five - Psychotic Reaction.wav" WAVE  TRACK 21 AUDIO    TITLE "Psychotic Reaction"    PERFORMER "Count Five"    REM COMPOSER ""    INDEX 01 00:00:00  TRACK 22 AUDIO    TITLE "God Only Knows"    PERFORMER "The Beach Boys"    REM COMPOSER ""    INDEX 00 03:04:25FILE "22 - The Beach Boys - God Only Knows.wav" WAVE    INDEX 01 00:00:00  TRACK 23 AUDIO    TITLE "Sweat Pea"    PERFORMER "Tommy Roe"    REM COMPOSER ""    INDEX 00 02:49:00FILE "23 - Tommy Roe - Sweat Pea.wav" WAVE    INDEX 01 00:00:00FILE "24 - The Bobby Fuller Four - I Fought The Law.wav" WAVE  TRACK 24 AUDIO    TITLE "I Fought The Law"    PERFORMER "The Bobby Fuller Four"    REM COMPOSER ""    INDEX 01 00:00:00  TRACK 25 AUDIO    TITLE "Cherish"    PERFORMER "The Association"    REM COMPOSER ""    INDEX 00 02:17:15FILE "25 - The Association - Cherish.wav" WAVE    INDEX 01 00:00:00

AccurateRip

[CUETools log; Date: 17.10.2018 20:59:05; Version: 2.1.5]Pregap length 00:00:33.[CTDB TOCID: .9c6X.Oa8vnfgBf8smEk7Eac_6g-] found.Track | CTDB Status  1   | (9/9) Accurately ripped  2   | (9/9) Accurately ripped  3   | (9/9) Accurately ripped  4   | (9/9) Accurately ripped  5   | (9/9) Accurately ripped  6   | (9/9) Accurately ripped  7   | (9/9) Accurately ripped  8   | (9/9) Accurately ripped  9   | (9/9) Accurately ripped 10   | (9/9) Accurately ripped 11   | (9/9) Accurately ripped 12   | (9/9) Accurately ripped 13   | (9/9) Accurately ripped 14   | (9/9) Accurately ripped 15   | (9/9) Accurately ripped 16   | (9/9) Accurately ripped 17   | (9/9) Accurately ripped 18   | (9/9) Accurately ripped 19   | (8/9) Accurately ripped 20   | (8/9) Accurately ripped 21   | (8/9) Accurately ripped 22   | (8/9) Accurately ripped 23   | (8/9) Accurately ripped 24   | (8/9) Accurately ripped 25   | (8/9) Accurately ripped[AccurateRip ID: 00416d08-049a6bcc-5c10f919] found.Track   [  CRC   |   V2   ] Status 01     [c04d7565|48086dfa] (05+05/10) Accurately ripped 02     [1e6068c9|401394af] (05+05/10) Accurately ripped 03     [33790822|1213ba20] (05+05/10) Accurately ripped 04     [85ad167f|12ca27dc] (04+05/09) Accurately ripped 05     [56e1c972|fd64ff98] (05+05/10) Accurately ripped 06     [10f28a99|a02bd337] (05+05/10) Accurately ripped 07     [b098a91c|8f507ab7] (05+05/10) Accurately ripped 08     [1d8b3626|c1608a39] (05+05/10) Accurately ripped 09     [d7dff235|897f1f45] (05+05/10) Accurately ripped 10     [9a4d2735|2acdb704] (04+05/09) Accurately ripped 11     [dd960303|bf72168b] (05+05/10) Accurately ripped 12     [b1680ab9|0a9b7767] (05+05/10) Accurately ripped 13     [5c61f7f5|4e383783] (05+05/10) Accurately ripped 14     [6791d239|25fe189f] (05+05/10) Accurately ripped 15     [5be97e34|9d082ee4] (05+05/10) Accurately ripped 16     [b089c407|e8448fa5] (05+04/09) Accurately ripped 17     [3b2b2210|99acd360] (05+05/10) Accurately ripped 18     [c0a9a4a5|ae519e13] (05+05/10) Accurately ripped 19     [87fbe6fc|816a156b] (06+05/11) Accurately ripped 20     [e97dbc34|750271d2] (06+05/11) Accurately ripped 21     [39675517|69d57837] (06+04/10) Accurately ripped 22     [5228d5ac|5abf1a72] (05+05/10) Accurately ripped 23     [eb0f4636|f58f9b71] (06+05/11) Accurately ripped 24     [55c99809|0fea419e] (06+05/11) Accurately ripped 25     [cd373c84|c5b8935a] (04+05/09) Accurately ripped
Track Peak [ CRC32 ] [W/O NULL] [ LOG ] -- 99,2 [21780A24] [69B861FE] 01 94,3 [49464978] [781E49A5] CRC32 02 96,4 [476501BB] [02BD6A41] CRC32 03 96,9 [D47B0D81] [DE80BAB0] CRC32 04 91,9 [00B73CB3] [014AA772] CRC32 05 84,7 [B8942F3C] [19EBC2D6] CRC32 06 84,3 [1A34B67A] [2F267324] CRC32 07 80,4 [589DF1AA] [F8FB1B34] CRC32 08 76,7 [814673E0] [D4A3465D] CRC32 09 88,8 [B79A9578] [C72E379D] CRC32 10 73,9 [BB457A1C] [26BAFEAA] CRC32 11 96,6 [5266ED70] [8990E0A2] CRC32 12 99,2 [CE6E4F97] [BA603CB2] CRC32 13 92,8 [E44CE939] [3A96883C] CRC32 14 68,3 [7445CA98] [DC115DE4] CRC32 15 99,2 [8A7B88DC] [67708D66] CRC32 16 96,9 [B4BB0C7D] [B2224F74] CRC32 17 88,5 [9A6EB079] [12D82B6D] CRC32 18 91,7 [A43748C5] [571648F4] CRC32 19 71,2 [6FAC3C02] [9041F087] CRC32 20 89,6 [9566B315] [0757F709] CRC32 21 92,8 [25904504] [E343D0E7] CRC32 22 91,3 [38CD42CD] [3C9CDB0F] CRC32 23 99,2 [115814BE] [CC1B46AD] CRC32 24 78,6 [3C440B40] [8BF9DB6B] CRC32 25 80,4 [D4321CC6] [90D13408] CRC32
Вы не можете начинать темы
Вы не можете отвечать на сообщения
Вы не можете редактировать свои сообщения
Вы не можете удалять свои сообщения
Вы не можете голосовать в опросах
Вы не можете прикреплять файлы к сообщениям
Вы можете скачивать файлы
!ВНИМАНИЕ!

Сайт не предоставляет электронные версии произведений, а занимается лишь коллекционированием и каталогизацией ссылок, присылаемых и публикуемых на форуме нашими читателями. Если вы являетесь правообладателем какого-либо представленного материала и не желаете, чтобы ссылка на него находилась в нашем каталоге, свяжитесь с нами, и мы незамедлительно удалим ее. Файлы для обмена на трекере предоставлены пользователями сайта, и администрация не несет ответственности за их содержание. Просьба не заливать файлы, защищенные авторскими правами, а также файлы нелегального содержания!

Искали программы, игры, дополнения, музыка mp3, аниме, аудио книги, журналы? Добро пожаловать на свободный торрент трекер Torrents, у нас можно скачать бесплатно, без смс и регистрации и прочих ограничений лучшие, отборные сборки программ, игр. Скачать торрентом не составит труда даже не опытному пользователю. Раздачи ежедневно обновляются, только лучшие и качественные раздачи, подробные описания и скриншоты. Огромная коллекция программ для работы со звуком, графикой, дизайном, а так же множество плагинов и инструментов к ним с подробной инструкцией и рекомендациями. Прошивки для навигаторов, карты. Разнообразные игры, для Windows, Linux. В коллекцие есть и старые игры любых жанров, Rpg, Action, Shooter, strategy Множество дополнений, модификаций, сценариев для популярных игр в жанре экш, рпг, гонки, стратегии, логические игры. Множество аддонов и сценариев для Microsoft Flight Simulator Большая коллекция книг, учебников. Если нет возможности купить печатное издание - смело скачивайте цифровую версию книги или, быть может, журнала. Не любите читать - можно загрузить бесплатно аудикнигу. Для веб дизайнеров и программистов так же найдется множество специализированного софта, таких как: редакторы с подсветкой, среды программирования, компоненты, системы управления базами данных, разнообразные скрипты и шаблоны. Не так давно у нас появился материал для автолюбителей и владельцев мото - оригинальные и неоригинальные каталоги запчастей, книги и журналы по ремонту и обслуживанию, видеоуроки, статьи по чип тюнингу, прошивкам. Процедура получения контента элементарная, достаточно просто скачать торрент файл и добавить его в загрузку в вашем торрент клиенте. Если у вас нет специального торрент клиента, вы можете его скачать у нас.

juliamunhoz.net | Hospital Ship | Scariest Night of Your Life