(Various) [CD] VA - De Pre Historie 1962 [EMI/Virgin, 260.734, Belgium] - 1990, FLAC (tracks+.cue), lossless 

Цитировать
De Pre Historie 1962
Жанр: Various
Носитель: CD
Страна-производитель диска (релиза): Belgium
Год издания: 1990
Издатель (лейбл): EMI/Virgin
Номер по каталогу: 260.734
Аудиокодек: FLAC (*.flac)
Тип рипа: tracks+.cue
Битрейт аудио: lossless
Продолжительность: 00:53:24
Источник (релизер): From RED
Наличие сканов в содержимом раздачи: нет

Треклист:
01. The Tokens – The Lion Sleeps Tonight
02. The Cousins – Peppermint Twist
03. Jack Hammer – Kissin' Twist
04. The Contours – Do You Love Me
05. Frankie Valli & The Four Seasons – Sherry
06. Bobby Vinton – Roses Are Red
07. Roy Orbison – Dream Baby
08. Gilber Becaud – Et Maintenant
09. Ricky Nelson – Teenage Idol
10. The Everly Brothers – Crying In The Rain
11. Ben E King – Don't Play That Song
12. Dion – The Wanderer
13. Neil Sedaka – Breaking Up Is Hard To Do
14. Paul Anka – Eso Beso
15. Jacques Brel – Ne Me Quitte Pas
16. B. Bumble And The Stingers – Nut Rocker
17. Sue Thompson – Norman
18. Connie Francis – High Noon
19. Bobby Vee – Run To Him
20. Cliff Richard – The Young Ones

Лог создания рипа

Exact Audio Copy V1.3 from 2. September 2016
EAC extraction logfile from 12. May 2017, 19:54
Various Artists / De Pre Historie 1962
Used drive : ATAPI iHAS124 F Adapter: 1 ID: 0
Read mode : SecureUtilize accurate stream : YesDefeat audio cache : YesMake use of C2 pointers : No
Read offset correction : 6Overread into Lead-In and Lead-Out : NoFill up missing offset samples with silence : YesDelete leading and trailing silent blocks : NoNull samples used in CRC calculations : YesUsed interface : Native Win32 interface for Win NT & 2000Gap handling : Appended to previous track
Used output format : User Defined EncoderSelected bitrate : 1024 kBit/sQuality : HighAdd ID3 tag : NoCommand line compressor : C:\cmd.exeAdditional command line options : /c ""C:\F\CUETools.FLACCL.cmd.exe" -8 --verify %source% -o %dest% & "C:\M\metaflac.exe" --set-tag="ARTIST=%artist%" --set-tag="TITLE=%title%" --set-tag="ALBUM=%albumtitle%" --set-tag="DATE=%year%" --set-tag="TRACKNUMBER=%tracknr%" --set-tag="GENRE=%genre%" --set-tag="COMPOSER=%composer%" --set-tag="ALBUMARTIST=%albumartist%" %dest%"
TOC of the extracted CD
Track | Start | Length | Start sector | End sector --------------------------------------------------------- 1 | 0:00.33 | 2:41.20 | 33 | 12127 2 | 2:41.53 | 2:59.17 | 12128 | 25569 3 | 5:40.70 | 2:20.68 | 25570 | 36137 4 | 8:01.63 | 2:50.30 | 36138 | 48917 5 | 10:52.18 | 2:31.25 | 48918 | 60267 6 | 13:23.43 | 2:37.47 | 60268 | 72089 7 | 16:01.15 | 2:40.30 | 72090 | 84119 8 | 18:41.45 | 3:38.48 | 84120 | 100517 9 | 22:20.18 | 2:27.27 | 100518 | 111569 10 | 24:47.45 | 1:57.23 | 111570 | 120367 11 | 26:44.68 | 2:50.32 | 120368 | 133149 12 | 29:35.25 | 2:40.23 | 133150 | 145172 13 | 32:15.48 | 2:18.37 | 145173 | 155559 14 | 34:34.10 | 2:12.43 | 155560 | 165502 15 | 36:46.53 | 3:49.25 | 165503 | 182702 16 | 40:36.03 | 1:58.42 | 182703 | 191594 17 | 42:34.45 | 2:17.03 | 191595 | 201872 18 | 44:51.48 | 3:20.12 | 201873 | 216884 19 | 48:11.60 | 2:08.05 | 216885 | 226489 20 | 50:19.65 | 3:05.28 | 226490 | 240392
Track 1
Filename E:\EAC Rips\2017-05 Mei\Various Artists - De Pre Historie 1962 (1990) [FLAC] {BMG 260.734}\01 - The Tokens - The Lion Sleeps Tonight.wav
Pre-gap length 0:00:02.33
Peak level 88.6 % Extraction speed 4.7 X Track quality 100.0 % Test CRC 7AA379C3 Copy CRC 7AA379C3 Accurately ripped (confidence 3) [7C5E7928] (AR v2) Copy OK
Track 2
Filename E:\EAC Rips\2017-05 Mei\Various Artists - De Pre Historie 1962 (1990) [FLAC] {BMG 260.734}\02 - The Cousins - Peppermint Twist.wav
Pre-gap length 0:00:01.00
Peak level 99.2 % Extraction speed 5.3 X Track quality 100.0 % Test CRC ED5049B3 Copy CRC ED5049B3 Accurately ripped (confidence 3) [E38CE0FC] (AR v2) Copy OK
Track 3
Filename E:\EAC Rips\2017-05 Mei\Various Artists - De Pre Historie 1962 (1990) [FLAC] {BMG 260.734}\03 - Jack Hammer - Kissin' Twist.wav
Peak level 88.4 % Extraction speed 5.3 X Track quality 100.0 % Test CRC 9DEAADFE Copy CRC 9DEAADFE Accurately ripped (confidence 2) [0CC5ACD3] (AR v2) Copy OK
Track 4
Filename E:\EAC Rips\2017-05 Mei\Various Artists - De Pre Historie 1962 (1990) [FLAC] {BMG 260.734}\04 - The Contours - Do You Love Me.wav
Peak level 99.2 % Extraction speed 5.8 X Track quality 100.0 % Test CRC 4BF092B6 Copy CRC 4BF092B6 Accurately ripped (confidence 3) [6B0CB4FB] (AR v2) Copy OK
Track 5
Filename E:\EAC Rips\2017-05 Mei\Various Artists - De Pre Historie 1962 (1990) [FLAC] {BMG 260.734}\05 - The Four Seasons - Sherry.wav
Peak level 98.6 % Extraction speed 6.0 X Track quality 100.0 % Test CRC 1F4E4BB4 Copy CRC 1F4E4BB4 Accurately ripped (confidence 3) [F8340D19] (AR v2) Copy OK
Track 6
Filename E:\EAC Rips\2017-05 Mei\Various Artists - De Pre Historie 1962 (1990) [FLAC] {BMG 260.734}\06 - Bobby Vinton - Roses Are Red.wav
Peak level 82.5 % Extraction speed 6.3 X Track quality 100.0 % Test CRC D3425F63 Copy CRC D3425F63 Accurately ripped (confidence 3) [15CF3C8B] (AR v2) Copy OK
Track 7
Filename E:\EAC Rips\2017-05 Mei\Various Artists - De Pre Historie 1962 (1990) [FLAC] {BMG 260.734}\07 - Roy Orbison - Dream Baby.wav
Peak level 95.4 % Extraction speed 6.5 X Track quality 100.0 % Test CRC 8C4676C0 Copy CRC 8C4676C0 Accurately ripped (confidence 3) [434FAFEA] (AR v2) Copy OK
Track 8
Filename E:\EAC Rips\2017-05 Mei\Various Artists - De Pre Historie 1962 (1990) [FLAC] {BMG 260.734}\08 - Gilbert Bécaud - Et Maintenant.wav
Peak level 99.2 % Extraction speed 7.3 X Track quality 100.0 % Test CRC 4AAEF38E Copy CRC 4AAEF38E Accurately ripped (confidence 3) [1645299E] (AR v2) Copy OK
Track 9
Filename E:\EAC Rips\2017-05 Mei\Various Artists - De Pre Historie 1962 (1990) [FLAC] {BMG 260.734}\09 - Ricky Nelson - Teenage Idol.wav
Peak level 99.2 % Extraction speed 5.9 X Track quality 99.9 % Test CRC 711B45C2 Copy CRC 711B45C2 Accurately ripped (confidence 3) [27547C4B] (AR v2) Copy OK
Track 10
Filename E:\EAC Rips\2017-05 Mei\Various Artists - De Pre Historie 1962 (1990) [FLAC] {BMG 260.734}\10 - The Everly Brothers - Crying In The Rain.wav
Peak level 76.5 % Extraction speed 6.9 X Track quality 100.0 % Test CRC CA2AF4ED Copy CRC CA2AF4ED Accurately ripped (confidence 3) [472AD6A0] (AR v2) Copy OK
Track 11
Filename E:\EAC Rips\2017-05 Mei\Various Artists - De Pre Historie 1962 (1990) [FLAC] {BMG 260.734}\11 - Ben E. King - Don't Play That Song.wav
Peak level 98.9 % Extraction speed 7.6 X Track quality 100.0 % Test CRC 43188DD5 Copy CRC 43188DD5 Accurately ripped (confidence 3) [4441B57D] (AR v2) Copy OK
Track 12
Filename E:\EAC Rips\2017-05 Mei\Various Artists - De Pre Historie 1962 (1990) [FLAC] {BMG 260.734}\12 - Dion - The Wanderer.wav
Peak level 99.2 % Extraction speed 6.6 X Track quality 99.9 % Test CRC EFE4F93A Copy CRC EFE4F93A Accurately ripped (confidence 3) [2B72E090] (AR v2) Copy OK
Track 13
Filename E:\EAC Rips\2017-05 Mei\Various Artists - De Pre Historie 1962 (1990) [FLAC] {BMG 260.734}\13 - Neil Sedaka - Breaking Up Is Hard To Do.wav
Peak level 80.2 % Extraction speed 7.7 X Track quality 100.0 % Test CRC 85C5DE12 Copy CRC 85C5DE12 Accurately ripped (confidence 3) [C26EE009] (AR v2) Copy OK
Track 14
Filename E:\EAC Rips\2017-05 Mei\Various Artists - De Pre Historie 1962 (1990) [FLAC] {BMG 260.734}\14 - Paul Anka - Eso Beso.wav
Peak level 72.6 % Extraction speed 7.9 X Track quality 100.0 % Test CRC 336A4CF6 Copy CRC 336A4CF6 Accurately ripped (confidence 3) [3D4D7657] (AR v2) Copy OK
Track 15
Filename E:\EAC Rips\2017-05 Mei\Various Artists - De Pre Historie 1962 (1990) [FLAC] {BMG 260.734}\15 - Jacques Brel - Ne Me Quitte Pas.wav
Peak level 99.6 % Extraction speed 8.9 X Track quality 100.0 % Test CRC 5A89F4EA Copy CRC 5A89F4EA Accurately ripped (confidence 3) [3076FB7D] (AR v2) Copy OK
Track 16
Filename E:\EAC Rips\2017-05 Mei\Various Artists - De Pre Historie 1962 (1990) [FLAC] {BMG 260.734}\16 - B. Bumble & The Stingers - Nut Rocker.wav
Peak level 71.6 % Extraction speed 8.0 X Track quality 100.0 % Test CRC 24551288 Copy CRC 24551288 Accurately ripped (confidence 3) [E95564F0] (AR v2) Copy OK
Track 17
Filename E:\EAC Rips\2017-05 Mei\Various Artists - De Pre Historie 1962 (1990) [FLAC] {BMG 260.734}\17 - Sue Thompson - Norman.wav
Peak level 94.9 % Extraction speed 8.5 X Track quality 100.0 % Test CRC 89FC0FE8 Copy CRC 89FC0FE8 Accurately ripped (confidence 3) [DD374760] (AR v2) Copy OK
Track 18
Filename E:\EAC Rips\2017-05 Mei\Various Artists - De Pre Historie 1962 (1990) [FLAC] {BMG 260.734}\18 - Connie Francis - High Noon.wav
Peak level 89.8 % Extraction speed 8.0 X Track quality 99.9 % Test CRC E6DFCBD3 Copy CRC E6DFCBD3 Accurately ripped (confidence 3) [A36869B0] (AR v2) Copy OK
Track 19
Filename E:\EAC Rips\2017-05 Mei\Various Artists - De Pre Historie 1962 (1990) [FLAC] {BMG 260.734}\19 - Bobby Vee - Run To Him.wav
Peak level 88.1 % Extraction speed 8.5 X Track quality 100.0 % Test CRC 46A14A33 Copy CRC 46A14A33 Accurately ripped (confidence 3) [ED5D4793] (AR v2) Copy OK
Track 20
Filename E:\EAC Rips\2017-05 Mei\Various Artists - De Pre Historie 1962 (1990) [FLAC] {BMG 260.734}\20 - Cliff Richard - The Young Ones.wav
Peak level 91.0 % Extraction speed 1.7 X Track quality 99.4 % Test CRC E68FDB5D Copy CRC E68FDB5D Accurately ripped (confidence 3) [EF2F8A26] (AR v2) Copy OK
All tracks accurately ripped
No errors occurred
End of status report
---- CUETools DB Plugin V2.1.6
[CTDB TOCID: 94LVtsbJ.L2HpKf2Csr8cuuzPg8-] foundSubmit result: 94LVtsbJ.L2HpKf2Csr8cuuzPg8- has been confirmedTrack | CTDB Status 1 | (12/12) Accurately ripped 2 | (12/12) Accurately ripped 3 | (12/12) Accurately ripped 4 | (12/12) Accurately ripped 5 | (12/12) Accurately ripped 6 | (12/12) Accurately ripped 7 | (12/12) Accurately ripped 8 | (12/12) Accurately ripped 9 | (12/12) Accurately ripped 10 | (12/12) Accurately ripped 11 | (12/12) Accurately ripped 12 | (12/12) Accurately ripped 13 | (12/12) Accurately ripped 14 | (12/12) Accurately ripped 15 | (12/12) Accurately ripped 16 | (12/12) Accurately ripped 17 | (12/12) Accurately ripped 18 | (12/12) Accurately ripped 19 | (12/12) Accurately ripped 20 | (12/12) Accurately ripped
==== Log checksum 43E42F06A7622646A307CE006FCBB82846FBBCB31C2802A162C9A282A9F18E5C ====

Содержание индексной карты (.CUE)

REM DATE 1990REM DISCID 1F0C8514REM COMMENT "ExactAudioCopy v1.3"PERFORMER "Various Artists"TITLE "De Pre Historie 1962"REM COMPOSER ""FILE "01 - The Tokens - The Lion Sleeps Tonight.wav" WAVE  TRACK 01 AUDIO    TITLE "The Lion Sleeps Tonight"    PERFORMER "The Tokens"    REM COMPOSER ""    PREGAP 00:00:33    INDEX 01 00:00:00  TRACK 02 AUDIO    TITLE "Peppermint Twist"    PERFORMER "The Cousins"    REM COMPOSER ""    INDEX 00 02:40:20FILE "02 - The Cousins - Peppermint Twist.wav" WAVE    INDEX 01 00:00:00FILE "03 - Jack Hammer - Kissin' Twist.wav" WAVE  TRACK 03 AUDIO    TITLE "Kissin' Twist"    PERFORMER "Jack Hammer"    REM COMPOSER ""    INDEX 01 00:00:00FILE "04 - The Contours - Do You Love Me.wav" WAVE  TRACK 04 AUDIO    TITLE "Do You Love Me"    PERFORMER "The Contours"    REM COMPOSER ""    INDEX 01 00:00:00FILE "05 - The Four Seasons - Sherry.wav" WAVE  TRACK 05 AUDIO    TITLE "Sherry"    PERFORMER "The Four Seasons"    REM COMPOSER ""    INDEX 01 00:00:00FILE "06 - Bobby Vinton - Roses Are Red.wav" WAVE  TRACK 06 AUDIO    TITLE "Roses Are Red"    PERFORMER "Bobby Vinton"    REM COMPOSER ""    INDEX 01 00:00:00FILE "07 - Roy Orbison - Dream Baby.wav" WAVE  TRACK 07 AUDIO    TITLE "Dream Baby"    PERFORMER "Roy Orbison"    REM COMPOSER ""    INDEX 01 00:00:00FILE "08 - Gilbert Becaud - Et Maintenant.wav" WAVE  TRACK 08 AUDIO    TITLE "Et Maintenant"    PERFORMER "Gilbert Becaud"    REM COMPOSER ""    INDEX 01 00:00:00FILE "09 - Ricky Nelson - Teenage Idol.wav" WAVE  TRACK 09 AUDIO    TITLE "Teenage Idol"    PERFORMER "Ricky Nelson"    REM COMPOSER ""    INDEX 01 00:00:00FILE "10 - The Everly Brothers - Crying In The Rain.wav" WAVE  TRACK 10 AUDIO    TITLE "Crying In The Rain"    PERFORMER "The Everly Brothers"    REM COMPOSER ""    INDEX 01 00:00:00FILE "11 - Ben E. King - Don't Play That Song.wav" WAVE  TRACK 11 AUDIO    TITLE "Don't Play That Song"    PERFORMER "Ben E. King"    REM COMPOSER ""    INDEX 01 00:00:00FILE "12 - Dion - The Wanderer.wav" WAVE  TRACK 12 AUDIO    TITLE "The Wanderer"    PERFORMER "Dion"    REM COMPOSER ""    INDEX 01 00:00:00FILE "13 - Neil Sedaka - Breaking Up Is Hard To Do.wav" WAVE  TRACK 13 AUDIO    TITLE "Breaking Up Is Hard To Do"    PERFORMER "Neil Sedaka"    REM COMPOSER ""    INDEX 01 00:00:00FILE "14 - Paul Anka - Eso Beso.wav" WAVE  TRACK 14 AUDIO    TITLE "Eso Beso"    PERFORMER "Paul Anka"    REM COMPOSER ""    INDEX 01 00:00:00FILE "15 - Jacques Brel - Ne Me Quitte Pas.wav" WAVE  TRACK 15 AUDIO    TITLE "Ne Me Quitte Pas"    PERFORMER "Jacques Brel"    REM COMPOSER ""    INDEX 01 00:00:00FILE "16 - B. Bumble & The Stingers - Nut Rocker.wav" WAVE  TRACK 16 AUDIO    TITLE "Nut Rocker"    PERFORMER "B. Bumble & The Stingers"    REM COMPOSER ""    INDEX 01 00:00:00FILE "17 - Sue Thompson - Norman.wav" WAVE  TRACK 17 AUDIO    TITLE "Norman"    PERFORMER "Sue Thompson"    REM COMPOSER ""    INDEX 01 00:00:00FILE "18 - Connie Francis - High Noon.wav" WAVE  TRACK 18 AUDIO    TITLE "High Noon"    PERFORMER "Connie Francis"    REM COMPOSER ""    INDEX 01 00:00:00FILE "19 - Bobby Vee - Run To Him.wav" WAVE  TRACK 19 AUDIO    TITLE "Run To Him"    PERFORMER "Bobby Vee"    REM COMPOSER ""    INDEX 01 00:00:00FILE "20 - Cliff Richard - The Young Ones.wav" WAVE  TRACK 20 AUDIO    TITLE "The Young Ones"    PERFORMER "Cliff Richard"    REM COMPOSER ""    INDEX 01 00:00:00

AccurateRip

[CUETools log; Date: 15.10.2018 18:34:02; Version: 2.1.5]Pregap length 00:00:33.[CTDB TOCID: 94LVtsbJ.L2HpKf2Csr8cuuzPg8-] found.Track | CTDB Status  1   | (24/24) Accurately ripped  2   | (24/24) Accurately ripped  3   | (24/24) Accurately ripped  4   | (24/24) Accurately ripped  5   | (24/24) Accurately ripped  6   | (24/24) Accurately ripped  7   | (24/24) Accurately ripped  8   | (24/24) Accurately ripped  9   | (24/24) Accurately ripped 10   | (24/24) Accurately ripped 11   | (24/24) Accurately ripped 12   | (24/24) Accurately ripped 13   | (24/24) Accurately ripped 14   | (24/24) Accurately ripped 15   | (23/24) Accurately ripped 16   | (23/24) Accurately ripped 17   | (24/24) Accurately ripped 18   | (24/24) Accurately ripped 19   | (24/24) Accurately ripped 20   | (24/24) Accurately ripped[AccurateRip ID: 00269ee6-023510c0-1f0c8514] found.Track   [  CRC   |   V2   ] Status 01     [ed1006f2|7c5e7928] (06+04/26) Accurately ripped 02     [57654435|e38ce0fc] (06+04/26) Accurately ripped 03     [c387509f|0cc5acd3] (06+03/25) Accurately ripped 04     [d5cda850|6b0cb4fb] (06+04/26) Accurately ripped 05     [190f0c62|f8340d19] (06+04/26) Accurately ripped 06     [263b0b17|15cf3c8b] (06+04/26) Accurately ripped 07     [407509c7|434fafea] (06+04/26) Accurately ripped 08     [7eda90c7|1645299e] (06+04/26) Accurately ripped 09     [77c06c63|27547c4b] (06+04/26) Accurately ripped 10     [443221cf|472ad6a0] (06+04/26) Accurately ripped 11     [f02fa5ea|4441b57d] (06+04/26) Accurately ripped 12     [176d4c8c|2b72e090] (06+04/26) Accurately ripped 13     [a22d3e57|c26ee009] (06+04/26) Accurately ripped 14     [e7e194b3|3d4d7657] (06+04/25) Accurately ripped 15     [63b2ac81|3076fb7d] (06+04/26) Accurately ripped 16     [a040416f|e95564f0] (06+04/26) Accurately ripped 17     [1a6c6e9b|dd374760] (06+04/25) Accurately ripped 18     [7d8b6aea|a36869b0] (06+04/25) Accurately ripped 19     [b7a2fe1b|ed5d4793] (06+04/25) Accurately ripped 20     [e1d97a4b|ef2f8a26] (06+04/26) Accurately rippedOffsetted by -1011: 01     [e49e85e4] (05/26) Accurately ripped 02     [f816cc8f] (05/26) Accurately ripped 03     [031ba86b] (05/25) Accurately ripped 04     [2c12ba15] (05/26) Accurately ripped 05     [0ff40777] (05/26) Accurately ripped 06     [1713f398] (05/26) Accurately ripped 07     [985d73e1] (05/26) Accurately ripped 08     [b6eb5d19] (05/26) Accurately ripped 09     [9ccca3ff] (05/26) Accurately ripped 10     [a042d46e] (05/26) Accurately ripped 11     [2c97a1e6] (05/26) Accurately ripped 12     [226ea210] (05/26) Accurately ripped 13     [1aeeb42b] (05/26) Accurately ripped 14     [d961d23c] (05/25) Accurately ripped 15     [af8bdf9e] (05/26) Accurately ripped 16     [0d6dda34] (05/26) Accurately ripped 17     [9431f1e2] (05/25) Accurately ripped 18     [4ca8b826] (05/25) Accurately ripped 19     [da78e8fb] (05/25) Accurately ripped 20     [8088136f] (05/26) Accurately ripped
Track Peak [ CRC32 ] [W/O NULL] [ LOG ] -- 99,6 [E3794CBB] [1CD1E4F7] 01 88,6 [7AA379C3] [F9AB5326] CRC32 02 99,2 [ED5049B3] [6FB65AE5] CRC32 03 88,4 [9DEAADFE] [08746A5B] CRC32 04 99,2 [4BF092B6] [03F674B0] CRC32 05 98,6 [1F4E4BB4] [F9ED3E12] CRC32 06 82,5 [D3425F63] [F086CD10] CRC32 07 95,3 [8C4676C0] [174F89EA] CRC32 08 99,2 [4AAEF38E] [4A3F92BD] CRC32 09 99,2 [711B45C2] [B9B33CB8] CRC32 10 76,5 [CA2AF4ED] [6B0906DE] CRC32 11 98,9 [43188DD5] [093B0AAC] CRC32 12 99,2 [EFE4F93A] [F519A4FF] CRC32 13 80,2 [85C5DE12] [18A20DA2] CRC32 14 72,6 [336A4CF6] [159A87CC] CRC32 15 99,6 [5A89F4EA] [1ABDF941] CRC32 16 71,6 [24551288] [F7CB32FA] CRC32 17 94,9 [89FC0FE8] [BA725125] CRC32 18 89,8 [E6DFCBD3] [4A03A31F] CRC32 19 88,1 [46A14A33] [A5C30268] CRC32 20 91,0 [E68FDB5D] [458BAEAE] CRC32
Вы не можете начинать темы
Вы не можете отвечать на сообщения
Вы не можете редактировать свои сообщения
Вы не можете удалять свои сообщения
Вы не можете голосовать в опросах
Вы не можете прикреплять файлы к сообщениям
Вы можете скачивать файлы
!ВНИМАНИЕ!

Сайт не предоставляет электронные версии произведений, а занимается лишь коллекционированием и каталогизацией ссылок, присылаемых и публикуемых на форуме нашими читателями. Если вы являетесь правообладателем какого-либо представленного материала и не желаете, чтобы ссылка на него находилась в нашем каталоге, свяжитесь с нами, и мы незамедлительно удалим ее. Файлы для обмена на трекере предоставлены пользователями сайта, и администрация не несет ответственности за их содержание. Просьба не заливать файлы, защищенные авторскими правами, а также файлы нелегального содержания!

Искали программы, игры, дополнения, музыка mp3, аниме, аудио книги, журналы? Добро пожаловать на свободный торрент трекер Torrents, у нас можно скачать бесплатно, без смс и регистрации и прочих ограничений лучшие, отборные сборки программ, игр. Скачать торрентом не составит труда даже не опытному пользователю. Раздачи ежедневно обновляются, только лучшие и качественные раздачи, подробные описания и скриншоты. Огромная коллекция программ для работы со звуком, графикой, дизайном, а так же множество плагинов и инструментов к ним с подробной инструкцией и рекомендациями. Прошивки для навигаторов, карты. Разнообразные игры, для Windows, Linux. В коллекцие есть и старые игры любых жанров, Rpg, Action, Shooter, strategy Множество дополнений, модификаций, сценариев для популярных игр в жанре экш, рпг, гонки, стратегии, логические игры. Множество аддонов и сценариев для Microsoft Flight Simulator Большая коллекция книг, учебников. Если нет возможности купить печатное издание - смело скачивайте цифровую версию книги или, быть может, журнала. Не любите читать - можно загрузить бесплатно аудикнигу. Для веб дизайнеров и программистов так же найдется множество специализированного софта, таких как: редакторы с подсветкой, среды программирования, компоненты, системы управления базами данных, разнообразные скрипты и шаблоны. Не так давно у нас появился материал для автолюбителей и владельцев мото - оригинальные и неоригинальные каталоги запчастей, книги и журналы по ремонту и обслуживанию, видеоуроки, статьи по чип тюнингу, прошивкам. Процедура получения контента элементарная, достаточно просто скачать торрент файл и добавить его в загрузку в вашем торрент клиенте. Если у вас нет специального торрент клиента, вы можете его скачать у нас.

The Fifth Estate 20132013 6.2 | تحميل | Californication