(Various) [CD] VA - De Pre Historie 1963 [EMI/Virgin, 260.735, Belgium] - 1990, FLAC (tracks+.cue), lossless 

Цитировать
De Pre Historie 1963
Жанр: Various
Носитель: CD
Страна-производитель диска (релиза): Belgium
Год издания: 1990
Издатель (лейбл): EMI/Virgin
Номер по каталогу: 260.735
Аудиокодек: FLAC (*.flac)
Тип рипа: tracks+.cue
Битрейт аудио: lossless
Продолжительность: 00:51:49
Источник (релизер): From RED
Наличие сканов в содержимом раздачи: нет

Треклист:
01. The Chiffons - He's So Fine
02. The Exciters - Tell Him
03. Martha Reeves & The Vandellas - Heat Wave
04. Little Stevie Wonder - Fingertips - Part II
05. The Beach Boys - Surfin' USA
06. Bobby Vee - The Night Has A Thousand Eyes
07. Peggy March - I Will Follow Him
08. Bobby Vinton - Blue Velvet
09. Adamo - Sans Toi Ma Mie
10. Soeur Sourire - Dominique
11. Trini Lopez - If I Had A Hammer
12. Lesley Gore - It's My Party
13. Cliff Richard - Lucky Lips
14. Billy J. Kramer & The Dakotas - Do You Want To Know A Secret?
15. Gerry & The Pacemakers How Do You Do It
16. The Drifters - Up On The Roof
17. Skeeter Davis - The End Of The World
18. Will Tura - Eenzaam Zonder Jou
19. Rocco Granata - Buona Notte Bambino
20. Los Indios Tabajaras - Maria Elena

Лог создания рипа

Exact Audio Copy V1.3 from 2. September 2016
EAC extraction logfile from 12. May 2017, 19:54
Various Artists / De Pre Historie 1963
Used drive : ATAPI iHAS124 F Adapter: 1 ID: 1
Read mode : SecureUtilize accurate stream : YesDefeat audio cache : YesMake use of C2 pointers : No
Read offset correction : 6Overread into Lead-In and Lead-Out : NoFill up missing offset samples with silence : YesDelete leading and trailing silent blocks : NoNull samples used in CRC calculations : YesUsed interface : Native Win32 interface for Win NT & 2000Gap handling : Appended to previous track
Used output format : User Defined EncoderSelected bitrate : 1024 kBit/sQuality : HighAdd ID3 tag : NoCommand line compressor : C:\cmd.exeAdditional command line options : /c ""C:\F\CUETools.FLACCL.cmd.exe" -8 --verify %source% -o %dest% & "C:\M\metaflac.exe" --set-tag="ARTIST=%artist%" --set-tag="TITLE=%title%" --set-tag="ALBUM=%albumtitle%" --set-tag="DATE=%year%" --set-tag="TRACKNUMBER=%tracknr%" --set-tag="GENRE=%genre%" --set-tag="COMPOSER=%composer%" --set-tag="ALBUMARTIST=%albumartist%" %dest%"
TOC of the extracted CD
Track | Start | Length | Start sector | End sector --------------------------------------------------------- 1 | 0:00.33 | 1:54.00 | 33 | 8582 2 | 1:54.33 | 2:22.17 | 8583 | 19249 3 | 4:16.50 | 2:43.43 | 19250 | 31517 4 | 7:00.18 | 3:11.32 | 31518 | 45874 5 | 10:11.50 | 2:24.30 | 45875 | 56704 6 | 12:36.05 | 2:33.30 | 56705 | 68209 7 | 15:09.35 | 2:25.58 | 68210 | 79142 8 | 17:35.18 | 2:47.55 | 79143 | 91722 9 | 20:22.73 | 2:46.67 | 91723 | 104239 10 | 23:09.65 | 2:52.70 | 104240 | 117209 11 | 26:02.60 | 2:58.30 | 117210 | 130589 12 | 29:01.15 | 2:17.70 | 130590 | 140934 13 | 31:19.10 | 2:41.25 | 140935 | 153034 14 | 34:00.35 | 2:01.65 | 153035 | 162174 15 | 36:02.25 | 1:54.13 | 162175 | 170737 16 | 37:56.38 | 2:33.45 | 170738 | 182257 17 | 40:30.08 | 2:37.15 | 182258 | 194047 18 | 43:07.23 | 2:28.15 | 194048 | 205162 19 | 45:35.38 | 3:03.72 | 205163 | 218959 20 | 48:39.35 | 3:09.53 | 218960 | 233187
Track 1
Filename E:\EAC Rips\2017-05 Mei\Various Artists - De Pre Historie 1963 (1990) [FLAC] {BMG 260.735}\01 - The Chiffons - He's So Fine.wav
Pre-gap length 0:00:02.33
Peak level 88.8 % Extraction speed 4.4 X Track quality 100.0 % Test CRC 5CB84002 Copy CRC 5CB84002 Accurately ripped (confidence 4) [DB3BBAFF] (AR v2) Copy OK
Track 2
Filename E:\EAC Rips\2017-05 Mei\Various Artists - De Pre Historie 1963 (1990) [FLAC] {BMG 260.735}\02 - The Exciters - Tell Him.wav
Peak level 99.5 % Extraction speed 4.9 X Track quality 100.0 % Test CRC 91363455 Copy CRC 91363455 Accurately ripped (confidence 4) [BE1534DB] (AR v2) Copy OK
Track 3
Filename E:\EAC Rips\2017-05 Mei\Various Artists - De Pre Historie 1963 (1990) [FLAC] {BMG 260.735}\03 - Martha And The Vandellas - (Love Is Like A) Heat Wave.wav
Peak level 93.4 % Extraction speed 5.4 X Track quality 100.0 % Test CRC 6488C804 Copy CRC 6488C804 Accurately ripped (confidence 4) [5FDEEE61] (AR v2) Copy OK
Track 4
Filename E:\EAC Rips\2017-05 Mei\Various Artists - De Pre Historie 1963 (1990) [FLAC] {BMG 260.735}\04 - Little Stevie Wonder & Clarence Paul - Fingertips, Part II.wav
Peak level 59.8 % Extraction speed 5.9 X Track quality 100.0 % Test CRC 57DA3E0F Copy CRC 57DA3E0F Accurately ripped (confidence 4) [847E82CD] (AR v2) Copy OK
Track 5
Filename E:\EAC Rips\2017-05 Mei\Various Artists - De Pre Historie 1963 (1990) [FLAC] {BMG 260.735}\05 - The Beach Boys - Surfin' USA.wav
Peak level 70.2 % Extraction speed 4.5 X Track quality 99.9 % Test CRC 35E83848 Copy CRC 35E83848 Accurately ripped (confidence 4) [7E61ED88] (AR v2) Copy OK
Track 6
Filename E:\EAC Rips\2017-05 Mei\Various Artists - De Pre Historie 1963 (1990) [FLAC] {BMG 260.735}\06 - Bobby Vee - The Night Has A Thousand Eyes.wav
Peak level 96.5 % Extraction speed 6.1 X Track quality 100.0 % Test CRC 484D2E3F Copy CRC 484D2E3F Accurately ripped (confidence 4) [C0C4A1AF] (AR v2) Copy OK
Track 7
Filename E:\EAC Rips\2017-05 Mei\Various Artists - De Pre Historie 1963 (1990) [FLAC] {BMG 260.735}\07 - Peggy March - I Will Follow Him.wav
Peak level 80.2 % Extraction speed 4.9 X Track quality 99.9 % Test CRC 2D8EEB83 Copy CRC 2D8EEB83 Accurately ripped (confidence 4) [179AA6C0] (AR v2) Copy OK
Track 8
Filename E:\EAC Rips\2017-05 Mei\Various Artists - De Pre Historie 1963 (1990) [FLAC] {BMG 260.735}\08 - Bobby Vinton - Blue Velvet.wav
Peak level 98.0 % Extraction speed 6.8 X Track quality 100.0 % Test CRC D9A39D94 Copy CRC D9A39D94 Accurately ripped (confidence 4) [A41512B2] (AR v2) Copy OK
Track 9
Filename E:\EAC Rips\2017-05 Mei\Various Artists - De Pre Historie 1963 (1990) [FLAC] {BMG 260.735}\09 - Adamo - Sans Toi, Ma Mie.wav
Peak level 79.3 % Extraction speed 7.0 X Track quality 100.0 % Test CRC E250591B Copy CRC E250591B Accurately ripped (confidence 4) [D8579211] (AR v2) Copy OK
Track 10
Filename E:\EAC Rips\2017-05 Mei\Various Artists - De Pre Historie 1963 (1990) [FLAC] {BMG 260.735}\10 - Sœur Sourire - Dominique.wav
Peak level 79.2 % Extraction speed 7.4 X Track quality 100.0 % Test CRC 37E77DAA Copy CRC 37E77DAA Accurately ripped (confidence 4) [424A3196] (AR v2) Copy OK
Track 11
Filename E:\EAC Rips\2017-05 Mei\Various Artists - De Pre Historie 1963 (1990) [FLAC] {BMG 260.735}\11 - Trini Lopez - If I Had A Hammer.wav
Peak level 75.2 % Extraction speed 7.7 X Track quality 100.0 % Test CRC DDD72F81 Copy CRC DDD72F81 Accurately ripped (confidence 4) [211F248E] (AR v2) Copy OK
Track 12
Filename E:\EAC Rips\2017-05 Mei\Various Artists - De Pre Historie 1963 (1990) [FLAC] {BMG 260.735}\12 - Lesley Gore - It's My Party.wav
Peak level 70.1 % Extraction speed 7.5 X Track quality 100.0 % Test CRC 48B9DFFB Copy CRC 48B9DFFB Accurately ripped (confidence 4) [7485B5D2] (AR v2) Copy OK
Track 13
Filename E:\EAC Rips\2017-05 Mei\Various Artists - De Pre Historie 1963 (1990) [FLAC] {BMG 260.735}\13 - Cliff Richard - Lucky Lips.wav
Peak level 86.2 % Extraction speed 6.2 X Track quality 99.9 % Test CRC 52207FCB Copy CRC 52207FCB Accurately ripped (confidence 4) [F80F7477] (AR v2) Copy OK
Track 14
Filename E:\EAC Rips\2017-05 Mei\Various Artists - De Pre Historie 1963 (1990) [FLAC] {BMG 260.735}\14 - Billy J. Kramer & The Dakotas - Do You Want To Know A Secret.wav
Peak level 99.1 % Extraction speed 7.5 X Track quality 100.0 % Test CRC AFE237A0 Copy CRC AFE237A0 Accurately ripped (confidence 4) [D7112ACF] (AR v2) Copy OK
Track 15
Filename E:\EAC Rips\2017-05 Mei\Various Artists - De Pre Historie 1963 (1990) [FLAC] {BMG 260.735}\15 - Gerry & The Pacemakers - How Do You Do It.wav
Peak level 97.0 % Extraction speed 5.6 X Track quality 99.9 % Test CRC D737EE8E Copy CRC D737EE8E Accurately ripped (confidence 4) [620E9824] (AR v2) Copy OK
Track 16
Filename E:\EAC Rips\2017-05 Mei\Various Artists - De Pre Historie 1963 (1990) [FLAC] {BMG 260.735}\16 - The Drifters - Up On The Roof.wav
Peak level 82.7 % Extraction speed 8.3 X Track quality 100.0 % Test CRC 1CC6E21B Copy CRC 1CC6E21B Accurately ripped (confidence 4) [B2E6C4C6] (AR v2) Copy OK
Track 17
Filename E:\EAC Rips\2017-05 Mei\Various Artists - De Pre Historie 1963 (1990) [FLAC] {BMG 260.735}\17 - Skeeter Davis - The End Of The World.wav
Peak level 79.1 % Extraction speed 8.6 X Track quality 100.0 % Test CRC 24C69007 Copy CRC 24C69007 Accurately ripped (confidence 4) [757F23FA] (AR v2) Copy OK
Track 18
Filename E:\EAC Rips\2017-05 Mei\Various Artists - De Pre Historie 1963 (1990) [FLAC] {BMG 260.735}\18 - Will Tura - Eenzaam Zonder Jou.wav
Peak level 86.1 % Extraction speed 8.6 X Track quality 100.0 % Test CRC 3B12246C Copy CRC 3B12246C Accurately ripped (confidence 4) [C42F0306] (AR v2) Copy OK
Track 19
Filename E:\EAC Rips\2017-05 Mei\Various Artists - De Pre Historie 1963 (1990) [FLAC] {BMG 260.735}\19 - Rocco Granata - Buona Notte Bambino.wav
Peak level 70.5 % Extraction speed 9.1 X Track quality 100.0 % Test CRC 9FC577DA Copy CRC 9FC577DA Accurately ripped (confidence 4) [9614F829] (AR v2) Copy OK
Track 20
Filename E:\EAC Rips\2017-05 Mei\Various Artists - De Pre Historie 1963 (1990) [FLAC] {BMG 260.735}\20 - Los Índios Tabajaras - Maria Elena.wav
Peak level 83.8 % Extraction speed 9.5 X Track quality 100.0 % Test CRC 1F1FC996 Copy CRC 1F1FC996 Accurately ripped (confidence 4) [FDBF6A67] (AR v2) Copy OK
All tracks accurately ripped
No errors occurred
End of status report
---- CUETools DB Plugin V2.1.6
[CTDB TOCID: KtBZkBp.AwIwxc56AP2X8GoZKWE-] foundSubmit result: KtBZkBp.AwIwxc56AP2X8GoZKWE- has been confirmedTrack | CTDB Status 1 | (12/12) Accurately ripped 2 | (12/12) Accurately ripped 3 | (12/12) Accurately ripped 4 | (12/12) Accurately ripped 5 | (12/12) Accurately ripped 6 | (12/12) Accurately ripped 7 | (12/12) Accurately ripped 8 | (12/12) Accurately ripped 9 | (12/12) Accurately ripped 10 | (12/12) Accurately ripped 11 | (12/12) Accurately ripped 12 | (12/12) Accurately ripped 13 | (12/12) Accurately ripped 14 | (12/12) Accurately ripped 15 | (12/12) Accurately ripped 16 | (12/12) Accurately ripped 17 | (12/12) Accurately ripped 18 | (12/12) Accurately ripped 19 | (12/12) Accurately ripped 20 | (12/12) Accurately ripped
==== Log checksum 8FFD50ED7F41188F98E33574093D0FA1ED0289DCBA8344261813ED41A6C7F354 ====

Содержание индексной карты (.CUE)

REM DATE 1990REM DISCID 0C0C2514REM COMMENT "ExactAudioCopy v1.3"PERFORMER "Various Artists"TITLE "De Pre Historie 1963"REM COMPOSER ""FILE "01 - The Chiffons - He's So Fine.wav" WAVE  TRACK 01 AUDIO    TITLE "He's So Fine"    PERFORMER "The Chiffons"    REM COMPOSER ""    PREGAP 00:00:33    INDEX 01 00:00:00FILE "02 - The Exciters - Tell Him.wav" WAVE  TRACK 02 AUDIO    TITLE "Tell Him"    PERFORMER "The Exciters"    REM COMPOSER ""    INDEX 01 00:00:00FILE "03 - Martha And The Vandellas - (Love Is Like A) Heat Wave.wav" WAVE  TRACK 03 AUDIO    TITLE "(Love Is Like A) Heat Wave"    PERFORMER "Martha And The Vandellas"    REM COMPOSER ""    INDEX 01 00:00:00FILE "04 - Little Stevie Wonder & Clarence Paul - Fingertips, Part II.wav" WAVE  TRACK 04 AUDIO    TITLE "Fingertips, Part II"    PERFORMER "Little Stevie Wonder & Clarence Paul"    REM COMPOSER ""    INDEX 01 00:00:00FILE "05 - The Beach Boys - Surfin' USA.wav" WAVE  TRACK 05 AUDIO    TITLE "Surfin' USA"    PERFORMER "The Beach Boys"    REM COMPOSER ""    INDEX 01 00:00:00FILE "06 - Bobby Vee - The Night Has A Thousand Eyes.wav" WAVE  TRACK 06 AUDIO    TITLE "The Night Has A Thousand Eyes"    PERFORMER "Bobby Vee"    REM COMPOSER ""    INDEX 01 00:00:00FILE "07 - Peggy March - I Will Follow Him.wav" WAVE  TRACK 07 AUDIO    TITLE "I Will Follow Him"    PERFORMER "Peggy March"    REM COMPOSER ""    INDEX 01 00:00:00FILE "08 - Bobby Vinton - Blue Velvet.wav" WAVE  TRACK 08 AUDIO    TITLE "Blue Velvet"    PERFORMER "Bobby Vinton"    REM COMPOSER ""    INDEX 01 00:00:00FILE "09 - Adamo - Sans Toi, Ma Mie.wav" WAVE  TRACK 09 AUDIO    TITLE "Sans Toi, Ma Mie"    PERFORMER "Adamo"    REM COMPOSER ""    INDEX 01 00:00:00FILE "10 - Soeur Sourire - Dominique.wav" WAVE  TRACK 10 AUDIO    TITLE "Dominique"    PERFORMER "Soeur Sourire"    REM COMPOSER ""    INDEX 01 00:00:00FILE "11 - Trini Lopez - If I Had A Hammer.wav" WAVE  TRACK 11 AUDIO    TITLE "If I Had A Hammer"    PERFORMER "Trini Lopez"    REM COMPOSER ""    INDEX 01 00:00:00FILE "12 - Lesley Gore - It's My Party.wav" WAVE  TRACK 12 AUDIO    TITLE "It's My Party"    PERFORMER "Lesley Gore"    REM COMPOSER ""    INDEX 01 00:00:00FILE "13 - Cliff Richard - Lucky Lips.wav" WAVE  TRACK 13 AUDIO    TITLE "Lucky Lips"    PERFORMER "Cliff Richard"    REM COMPOSER ""    INDEX 01 00:00:00FILE "14 - Billy J. Kramer & The Dakotas - Do You Want To Know A Secret.wav" WAVE  TRACK 14 AUDIO    TITLE "Do You Want To Know A Secret?"    PERFORMER "Billy J. Kramer & The Dakotas"    REM COMPOSER ""    INDEX 01 00:00:00FILE "15 - Gerry & The Pacemakers - How Do You Do It.wav" WAVE  TRACK 15 AUDIO    TITLE "How Do You Do It"    PERFORMER "Gerry & The Pacemakers"    REM COMPOSER ""    INDEX 01 00:00:00FILE "16 - The Drifters - Up On The Roof.wav" WAVE  TRACK 16 AUDIO    TITLE "Up On The Roof"    PERFORMER "The Drifters"    REM COMPOSER ""    INDEX 01 00:00:00FILE "17 - Skeeter Davis - The End Of The World.wav" WAVE  TRACK 17 AUDIO    TITLE "The End Of The World"    PERFORMER "Skeeter Davis"    REM COMPOSER ""    INDEX 01 00:00:00FILE "18 - Will Tura - Eenzaam Zonder Jou.wav" WAVE  TRACK 18 AUDIO    TITLE "Eenzaam Zonder Jou"    PERFORMER "Will Tura"    REM COMPOSER ""    INDEX 01 00:00:00FILE "19 - Rocco Granata - Buona Notte Bambino.wav" WAVE  TRACK 19 AUDIO    TITLE "Buona Notte Bambino"    PERFORMER "Rocco Granata"    REM COMPOSER ""    INDEX 01 00:00:00FILE "20 - Los Indios Tabajaras - Maria Elena.wav" WAVE  TRACK 20 AUDIO    TITLE "Maria Elena"    PERFORMER "Los Indios Tabajaras"    REM COMPOSER ""    INDEX 01 00:00:00

AccurateRip

[CUETools log; Date: 16.10.2018 18:49:39; Version: 2.1.5]Pregap length 00:00:33.[CTDB TOCID: KtBZkBp.AwIwxc56AP2X8GoZKWE-] found.Track | CTDB Status  1   | (23/23) Accurately ripped  2   | (23/23) Accurately ripped  3   | (23/23) Accurately ripped  4   | (23/23) Accurately ripped  5   | (23/23) Accurately ripped  6   | (23/23) Accurately ripped  7   | (23/23) Accurately ripped  8   | (23/23) Accurately ripped  9   | (23/23) Accurately ripped 10   | (23/23) Accurately ripped 11   | (23/23) Accurately ripped 12   | (23/23) Accurately ripped 13   | (23/23) Accurately ripped 14   | (23/23) Accurately ripped 15   | (23/23) Accurately ripped 16   | (23/23) Accurately ripped 17   | (23/23) Accurately ripped 18   | (23/23) Accurately ripped 19   | (23/23) Accurately ripped 20   | (23/23) Accurately ripped[AccurateRip ID: 0024d40c-021dd75e-0c0c2514] found.Track   [  CRC   |   V2   ] Status 01     [fa08feac|db3bbaff] (04+04/24) Accurately ripped 02     [3612e981|be1534db] (04+04/24) Accurately ripped 03     [1a8e975f|5fdeee61] (04+04/24) Accurately ripped 04     [e26dafe3|847e82cd] (04+04/24) Accurately ripped 05     [4d0f9553|7e61ed88] (04+04/24) Accurately ripped 06     [0e3a6cb6|c0c4a1af] (04+04/24) Accurately ripped 07     [3331b4a3|179aa6c0] (04+04/24) Accurately ripped 08     [7ea57455|a41512b2] (04+04/24) Accurately ripped 09     [d371f2c3|d8579211] (04+04/24) Accurately ripped 10     [e8f830ba|424a3196] (04+04/24) Accurately ripped 11     [3b7883db|211f248e] (04+04/24) Accurately ripped 12     [acc40835|7485b5d2] (04+04/24) Accurately ripped 13     [004e76a0|f80f7477] (04+04/24) Accurately ripped 14     [f6d34694|d7112acf] (04+04/24) Accurately ripped 15     [c0d73f6d|620e9824] (04+04/24) Accurately ripped 16     [0e88bff0|b2e6c4c6] (03+04/22) Accurately ripped 17     [340a5b93|757f23fa] (04+04/24) Accurately ripped 18     [9c535254|c42f0306] (04+04/24) Accurately ripped 19     [76897620|9614f829] (03+04/23) Accurately ripped 20     [5ac01204|fdbf6a67] (03+04/22) Accurately rippedOffsetted by -2741: 01     [bfe7b0d1] (06/24) Accurately ripped 02     [20b145d7] (06/24) Accurately ripped 03     [fb0523cb] (06/24) Accurately ripped 04     [1c4298a1] (06/24) Accurately ripped 05     [10ea7983] (06/24) Accurately ripped 06     [4b2911e4] (06/24) Accurately ripped 07     [d3914b78] (06/24) Accurately ripped 08     [c3fe29e3] (06/24) Accurately ripped 09     [98dcbf2b] (06/24) Accurately ripped 10     [51a5b898] (06/24) Accurately ripped 11     [ad957f02] (06/24) Accurately ripped 12     [b251b5ba] (06/24) Accurately ripped 13     [de08e3a7] (06/24) Accurately ripped 14     [faa4febd] (06/24) Accurately ripped 15     [f39834f6] (06/24) Accurately ripped 16     [aca70291] (05/22) Accurately ripped 17     [d16adcb1] (06/24) Accurately ripped 18     [b01dbfe3] (06/24) Accurately ripped 19     [cf430894] (06/23) Accurately ripped 20     [1a5c2163] (05/22) Accurately ripped
Track Peak [ CRC32 ] [W/O NULL] [ LOG ] -- 99,5 [2663220E] [FDE1B5AB] 01 88,8 [5CB84002] [AC52A086] CRC32 02 99,5 [91363455] [8E736431] CRC32 03 93,4 [6488C804] [35F9C4C7] CRC32 04 59,8 [57DA3E0F] [CAC05BF7] CRC32 05 70,2 [35E83848] [CFCCB71A] CRC32 06 96,5 [484D2E3F] [55DBFFFC] CRC32 07 80,2 [2D8EEB83] [AAF954F0] CRC32 08 98,0 [D9A39D94] [90BD3667] CRC32 09 79,3 [E250591B] [96ABD901] CRC32 10 79,2 [37E77DAA] [AD11E571] CRC32 11 75,2 [DDD72F81] [7CFC92F9] CRC32 12 70,1 [48B9DFFB] [D9734E42] CRC32 13 86,2 [52207FCB] [33710D66] CRC32 14 99,1 [AFE237A0] [C574A73C] CRC32 15 97,0 [D737EE8E] [595DDE7B] CRC32 16 82,7 [1CC6E21B] [67A9D373] CRC32 17 79,1 [24C69007] [70500578] CRC32 18 86,1 [3B12246C] [5659B4EE] CRC32 19 70,5 [9FC577DA] [67351697] CRC32 20 83,8 [1F1FC996] [B6AEE5E2] CRC32
Вы не можете начинать темы
Вы не можете отвечать на сообщения
Вы не можете редактировать свои сообщения
Вы не можете удалять свои сообщения
Вы не можете голосовать в опросах
Вы не можете прикреплять файлы к сообщениям
Вы можете скачивать файлы
!ВНИМАНИЕ!

Сайт не предоставляет электронные версии произведений, а занимается лишь коллекционированием и каталогизацией ссылок, присылаемых и публикуемых на форуме нашими читателями. Если вы являетесь правообладателем какого-либо представленного материала и не желаете, чтобы ссылка на него находилась в нашем каталоге, свяжитесь с нами, и мы незамедлительно удалим ее. Файлы для обмена на трекере предоставлены пользователями сайта, и администрация не несет ответственности за их содержание. Просьба не заливать файлы, защищенные авторскими правами, а также файлы нелегального содержания!

Искали программы, игры, дополнения, музыка mp3, аниме, аудио книги, журналы? Добро пожаловать на свободный торрент трекер Torrents, у нас можно скачать бесплатно, без смс и регистрации и прочих ограничений лучшие, отборные сборки программ, игр. Скачать торрентом не составит труда даже не опытному пользователю. Раздачи ежедневно обновляются, только лучшие и качественные раздачи, подробные описания и скриншоты. Огромная коллекция программ для работы со звуком, графикой, дизайном, а так же множество плагинов и инструментов к ним с подробной инструкцией и рекомендациями. Прошивки для навигаторов, карты. Разнообразные игры, для Windows, Linux. В коллекцие есть и старые игры любых жанров, Rpg, Action, Shooter, strategy Множество дополнений, модификаций, сценариев для популярных игр в жанре экш, рпг, гонки, стратегии, логические игры. Множество аддонов и сценариев для Microsoft Flight Simulator Большая коллекция книг, учебников. Если нет возможности купить печатное издание - смело скачивайте цифровую версию книги или, быть может, журнала. Не любите читать - можно загрузить бесплатно аудикнигу. Для веб дизайнеров и программистов так же найдется множество специализированного софта, таких как: редакторы с подсветкой, среды программирования, компоненты, системы управления базами данных, разнообразные скрипты и шаблоны. Не так давно у нас появился материал для автолюбителей и владельцев мото - оригинальные и неоригинальные каталоги запчастей, книги и журналы по ремонту и обслуживанию, видеоуроки, статьи по чип тюнингу, прошивкам. Процедура получения контента элементарная, достаточно просто скачать торрент файл и добавить его в загрузку в вашем торрент клиенте. Если у вас нет специального торрент клиента, вы можете его скачать у нас.

Automatik Schweißhelm + Solarzellen inkl.2 Vorsatzscheiben Schweißschirm | Captulo 64 : ¿Un pueblo de amantes de los piratas? Llegada a Whiskey Peak | Benne vagyok a bandában