(Various) [CD] VA - De Pre Historie 1961 [EMI/Virgin, 260.733, Belgium] - 1990, FLAC (tracks+.cue), lossless 

Цитировать
De Pre Historie 1961
Жанр: Various
Носитель: CD
Страна-производитель диска (релиза): Belgium
Год издания: 1990
Издатель (лейбл): EMI/Virgin/BMG/PolyGram
Номер по каталогу: 260.733
Аудиокодек: FLAC (*.flac)
Тип рипа: tracks+.cue
Битрейт аудио: lossless
Продолжительность: 00:48:12
Источник (релизер): From RED
Наличие сканов в содержимом раздачи: нет

Треклист:
01. Helen Shapiro – Walking Back To Happiness
02. Cliff Richard – Theme From A Dream
03. Neil Sedaka – Calendar Girl
04. Ricky Nelson – Hello Mary Lou
05. Bobby Vee – Take Good Care Of My Baby
06. The Marcels – Blue Moon
07. Paul Anka – Tonight My Love Tonight
08. Elvis Presley – Are You Lonesome Tonight
09. Fats Domino – My Girl Josephine
10. Smokey Robinson & The Miracles – Shop Around
11. The Allisons – Are You Sure
12. Highwaymen – Michael (Row The Boat Ashore)
13. Del Shannon – Runaway
14. The Cousins – Dang Dang
15. Ben E King – Stand By Me
16. Dion – Runaround Sue
17. The Marvelettes – Please Mr. Postman
18. The Shadows – F.B.I.
19. Edith Piaf – Non Je Ne Regrette Rien
20. Sandy Nelson – Let There Be Drums

Лог создания рипа

X Lossless Decoder version 20170729 (150.3)
XLD extraction logfile from 2018-03-17 18:12:55 +0000
Various Artists / De Pre Historie 1961
Used drive : HL-DT-ST DVDRAM GP57EW40 (revision PF00)Media type : Pressed CD
Ripper mode : XLD Secure RipperDisable audio cache : OK for the drive with a cache less than 1375KiBMake use of C2 pointers : NORead offset correction : 6Max retry count : 100Gap status : Analyzed, Appended (except HTOA)
TOC of the extracted CD Track | Start | Length | Start sector | End sector --------------------------------------------------------- 1 | 00:00:32 | 02:29:60 | 32 | 11266 2 | 02:30:17 | 02:04:50 | 11267 | 20616 3 | 04:34:67 | 02:40:28 | 20617 | 32644 4 | 07:15:20 | 02:18:12 | 32645 | 43006 5 | 09:33:32 | 02:23:73 | 43007 | 53804 6 | 11:57:30 | 02:14:55 | 53805 | 63909 7 | 14:12:10 | 02:03:55 | 63910 | 73189 8 | 16:15:65 | 03:06:42 | 73190 | 87181 9 | 19:22:32 | 02:00:33 | 87182 | 96214 10 | 21:22:65 | 02:44:17 | 96215 | 108531 11 | 24:07:07 | 02:06:28 | 108532 | 118009 12 | 26:13:35 | 02:44:27 | 118010 | 130336 13 | 28:57:62 | 02:17:40 | 130337 | 140651 14 | 31:15:27 | 02:03:70 | 140652 | 149946 15 | 33:19:22 | 02:50:53 | 149947 | 162749 16 | 36:10:00 | 02:38:50 | 162750 | 174649 17 | 38:48:50 | 02:25:32 | 174650 | 185556 18 | 41:14:07 | 02:18:45 | 185557 | 195951 19 | 43:32:52 | 02:21:73 | 195952 | 206599 20 | 45:54:50 | 02:17:47 | 206600 | 216921
List of alternate offset correction values # | Absolute | Relative | Confidence ------------------------------------------ 1 | 1883 | 1877 | 7
AccurateRip Summary (DiscID: 0022aa23-01fd51c0-270b4c14) Track 01 : OK (v1+v2, confidence 14/21) Track 02 : OK (v1+v2, confidence 14/21) Track 03 : OK (v1+v2, confidence 14/21) Track 04 : OK (v1+v2, confidence 15/22) Track 05 : OK (v1+v2, confidence 14/21) Track 06 : OK (v1+v2, confidence 14/21) Track 07 : OK (v1+v2, confidence 14/21) Track 08 : OK (v1+v2, confidence 14/21) Track 09 : OK (v1+v2, confidence 14/21) Track 10 : OK (v1+v2, confidence 14/21) Track 11 : OK (v1+v2, confidence 13/20) Track 12 : OK (v1+v2, confidence 13/20) Track 13 : OK (v1+v2, confidence 13/20) Track 14 : OK (v1+v2, confidence 13/20) Track 15 : OK (v1+v2, confidence 13/20) Track 16 : OK (v1+v2, confidence 13/20) Track 17 : OK (v1+v2, confidence 13/20) Track 18 : OK (v1+v2, confidence 12/19) Track 19 : OK (v1+v2, confidence 13/20) Track 20 : OK (v1+v2, confidence 13/20) ->All tracks accurately ripped.
All Tracks Album gain : -5.57 dB Peak : 0.992188 Statistics Read error : 0 Jitter error (maybe fixed) : 0 Retry sector count : 0 Damaged sector count : 0
Track 01 Filename : /rips/Compilations - De Pre Historie 1961 (1961) [FLAC]/01 - Helen Shapiro - Walking Back To Happiness.flac Pre-gap length : 00:02:32
Track gain : -3.88 dB Peak : 0.954163 CRC32 hash (test run) : 0CF8A696 CRC32 hash : 0CF8A696 CRC32 hash (skip zero) : 30E2399B AccurateRip v1 signature : BA74B407 AccurateRip v2 signature : 8544C828 ->Accurately ripped (v1+v2, confidence 4+10/21) Statistics Read error : 0 Jitter error (maybe fixed) : 0 Retry sector count : 0 Damaged sector count : 0
Track 02 Filename : /rips/Compilations - De Pre Historie 1961 (1961) [FLAC]/02 - Cliff Richard - Theme From A Dream.flac
Track gain : -3.85 dB Peak : 0.702393 CRC32 hash (test run) : C5183EC1 CRC32 hash : C5183EC1 CRC32 hash (skip zero) : 081D635F AccurateRip v1 signature : C2A77B0B AccurateRip v2 signature : 6DCABAD9 ->Accurately ripped (v1+v2, confidence 4+10/21) Statistics Read error : 0 Jitter error (maybe fixed) : 0 Retry sector count : 0 Damaged sector count : 0
Track 03 Filename : /rips/Compilations - De Pre Historie 1961 (1961) [FLAC]/03 - Neil Sedaka - Calendar Girl.flac
Track gain : -6.88 dB Peak : 0.992157 CRC32 hash (test run) : 3DB66B2F CRC32 hash : 3DB66B2F CRC32 hash (skip zero) : CD677EA8 AccurateRip v1 signature : 095F6958 AccurateRip v2 signature : BD897480 ->Accurately ripped (v1+v2, confidence 4+10/21) Statistics Read error : 0 Jitter error (maybe fixed) : 0 Retry sector count : 0 Damaged sector count : 0
Track 04 Filename : /rips/Compilations - De Pre Historie 1961 (1961) [FLAC]/04 - Ricky Nelson - Hello Mary Lou.flac
Track gain : -4.08 dB Peak : 0.982941 CRC32 hash (test run) : ADC31286 CRC32 hash : ADC31286 CRC32 hash (skip zero) : B50A058A AccurateRip v1 signature : 93F6136E AccurateRip v2 signature : 672773D1 ->Accurately ripped (v1+v2, confidence 4+11/22) Statistics Read error : 0 Jitter error (maybe fixed) : 0 Retry sector count : 0 Damaged sector count : 0
Track 05 Filename : /rips/Compilations - De Pre Historie 1961 (1961) [FLAC]/05 - Bobby Vee - Take Good Care Of My Baby.flac
Track gain : -4.57 dB Peak : 0.958649 CRC32 hash (test run) : 26F1DA67 CRC32 hash : 26F1DA67 CRC32 hash (skip zero) : F602C104 AccurateRip v1 signature : C5977B11 AccurateRip v2 signature : 6D86852F ->Accurately ripped (v1+v2, confidence 4+10/21) Statistics Read error : 0 Jitter error (maybe fixed) : 0 Retry sector count : 0 Damaged sector count : 0
Track 06 Filename : /rips/Compilations - De Pre Historie 1961 (1961) [FLAC]/06 - The Marcels - Blue Moon.flac
Track gain : -3.69 dB Peak : 0.992157 CRC32 hash (test run) : DE07F72E CRC32 hash : DE07F72E CRC32 hash (skip zero) : 7D43DD73 AccurateRip v1 signature : 0E3C5246 AccurateRip v2 signature : 4E0B3000 ->Accurately ripped (v1+v2, confidence 4+10/21) Statistics Read error : 0 Jitter error (maybe fixed) : 0 Retry sector count : 0 Damaged sector count : 0
Track 07 Filename : /rips/Compilations - De Pre Historie 1961 (1961) [FLAC]/07 - Paul Anka - Tonight My Love Tonight.flac
Track gain : -4.27 dB Peak : 0.764008 CRC32 hash (test run) : BAC460DB CRC32 hash : BAC460DB CRC32 hash (skip zero) : 26A1E389 AccurateRip v1 signature : 20559A7C AccurateRip v2 signature : 2C6FB2E1 ->Accurately ripped (v1+v2, confidence 4+10/21) Statistics Read error : 0 Jitter error (maybe fixed) : 0 Retry sector count : 0 Damaged sector count : 0
Track 08 Filename : /rips/Compilations - De Pre Historie 1961 (1961) [FLAC]/08 - Elvis Presley - Are You Lonesome Tonight.flac
Track gain : -2.34 dB Peak : 0.764984 CRC32 hash (test run) : E3183665 CRC32 hash : E3183665 CRC32 hash (skip zero) : BDCC49D7 AccurateRip v1 signature : 30C2C4A7 AccurateRip v2 signature : 441E2040 ->Accurately ripped (v1+v2, confidence 4+10/21) Statistics Read error : 0 Jitter error (maybe fixed) : 0 Retry sector count : 0 Damaged sector count : 0
Track 09 Filename : /rips/Compilations - De Pre Historie 1961 (1961) [FLAC]/09 - Fats Domino - My girl Josephine.flac
Track gain : -7.07 dB Peak : 0.992157 CRC32 hash (test run) : 1CEC94BF CRC32 hash : 1CEC94BF CRC32 hash (skip zero) : 2B67F3C3 AccurateRip v1 signature : B0060155 AccurateRip v2 signature : 219ACD7E ->Accurately ripped (v1+v2, confidence 4+10/21) Statistics Read error : 0 Jitter error (maybe fixed) : 0 Retry sector count : 0 Damaged sector count : 0
Track 10 Filename : /rips/Compilations - De Pre Historie 1961 (1961) [FLAC]/10 - Smokey Robinson & The Miracles - Shop Around.flac
Track gain : -7.91 dB Peak : 0.970123 CRC32 hash (test run) : 26B6C5BF CRC32 hash : 26B6C5BF CRC32 hash (skip zero) : 0839329C AccurateRip v1 signature : CDBEC8F4 AccurateRip v2 signature : F167FD6C ->Accurately ripped (v1+v2, confidence 4+10/21) Statistics Read error : 0 Jitter error (maybe fixed) : 0 Retry sector count : 0 Damaged sector count : 0
Track 11 Filename : /rips/Compilations - De Pre Historie 1961 (1961) [FLAC]/11 - The Allisons - Are You Sure.flac
Track gain : -4.51 dB Peak : 0.777283 CRC32 hash (test run) : 7C898B37 CRC32 hash : 7C898B37 CRC32 hash (skip zero) : CD156783 AccurateRip v1 signature : 39AC343D AccurateRip v2 signature : 94D6C276 ->Accurately ripped (v1+v2, confidence 4+9/20) Statistics Read error : 0 Jitter error (maybe fixed) : 0 Retry sector count : 0 Damaged sector count : 0
Track 12 Filename : /rips/Compilations - De Pre Historie 1961 (1961) [FLAC]/12 - Highwaymen - Michael (Row The Boat Ashore).flac
Track gain : -1.00 dB Peak : 0.742126 CRC32 hash (test run) : 42D01883 CRC32 hash : 42D01883 CRC32 hash (skip zero) : 71C53822 AccurateRip v1 signature : 56B2EC79 AccurateRip v2 signature : 6835930B ->Accurately ripped (v1+v2, confidence 4+9/20) Statistics Read error : 0 Jitter error (maybe fixed) : 0 Retry sector count : 0 Damaged sector count : 0
Track 13 Filename : /rips/Compilations - De Pre Historie 1961 (1961) [FLAC]/13 - Del Shannon - Runaway.flac
Track gain : -4.86 dB Peak : 0.767609 CRC32 hash (test run) : 440130EB CRC32 hash : 440130EB CRC32 hash (skip zero) : 0F78DFF4 AccurateRip v1 signature : 721A05EF AccurateRip v2 signature : 086DB612 ->Accurately ripped (v1+v2, confidence 4+9/20) Statistics Read error : 0 Jitter error (maybe fixed) : 0 Retry sector count : 0 Damaged sector count : 0
Track 14 Filename : /rips/Compilations - De Pre Historie 1961 (1961) [FLAC]/14 - The Cousins - Dang Dang.flac
Track gain : -2.33 dB Peak : 0.992157 CRC32 hash (test run) : 694B18BF CRC32 hash : 694B18BF CRC32 hash (skip zero) : AC3AEBF6 AccurateRip v1 signature : B77C0989 AccurateRip v2 signature : B864209B ->Accurately ripped (v1+v2, confidence 4+9/20) Statistics Read error : 0 Jitter error (maybe fixed) : 0 Retry sector count : 0 Damaged sector count : 0
Track 15 Filename : /rips/Compilations - De Pre Historie 1961 (1961) [FLAC]/15 - Ben E King - Stand By Me.flac
Track gain : -6.47 dB Peak : 0.948303 CRC32 hash (test run) : FEFA46FD CRC32 hash : FEFA46FD CRC32 hash (skip zero) : D6492999 AccurateRip v1 signature : 1F235246 AccurateRip v2 signature : CC834596 ->Accurately ripped (v1+v2, confidence 4+9/20) Statistics Read error : 0 Jitter error (maybe fixed) : 0 Retry sector count : 0 Damaged sector count : 0
Track 16 Filename : /rips/Compilations - De Pre Historie 1961 (1961) [FLAC]/16 - Dion - Runaround Sue.flac
Track gain : -6.18 dB Peak : 0.992157 CRC32 hash (test run) : 7A42D36F CRC32 hash : 7A42D36F CRC32 hash (skip zero) : 2A328C81 AccurateRip v1 signature : 31A92920 AccurateRip v2 signature : 6565B82B ->Accurately ripped (v1+v2, confidence 4+9/20) Statistics Read error : 0 Jitter error (maybe fixed) : 0 Retry sector count : 0 Damaged sector count : 0
Track 17 Filename : /rips/Compilations - De Pre Historie 1961 (1961) [FLAC]/17 - The Marvelettes - Please Mr. Postman.flac
Track gain : -5.87 dB Peak : 0.992188 CRC32 hash (test run) : 450BEB31 CRC32 hash : 450BEB31 CRC32 hash (skip zero) : E7499493 AccurateRip v1 signature : 796640E4 AccurateRip v2 signature : 1535C980 ->Accurately ripped (v1+v2, confidence 4+9/20) Statistics Read error : 0 Jitter error (maybe fixed) : 0 Retry sector count : 0 Damaged sector count : 0
Track 18 Filename : /rips/Compilations - De Pre Historie 1961 (1961) [FLAC]/18 - The Shadows - FBI.flac
Track gain : -4.53 dB Peak : 0.675537 CRC32 hash (test run) : 72FDBC2D CRC32 hash : 72FDBC2D CRC32 hash (skip zero) : 2F50174E AccurateRip v1 signature : 8AF0779B AccurateRip v2 signature : D8638C28 ->Accurately ripped (v1+v2, confidence 3+9/19) Statistics Read error : 0 Jitter error (maybe fixed) : 0 Retry sector count : 0 Damaged sector count : 0
Track 19 Filename : /rips/Compilations - De Pre Historie 1961 (1961) [FLAC]/19 - Edith Piaf - Non Je Ne Regrette Rien.flac
Track gain : -6.31 dB Peak : 0.991272 CRC32 hash (test run) : C1C68BF8 CRC32 hash : C1C68BF8 CRC32 hash (skip zero) : B643F039 AccurateRip v1 signature : D92F1479 AccurateRip v2 signature : 108CCB68 ->Accurately ripped (v1+v2, confidence 4+9/20) Statistics Read error : 0 Jitter error (maybe fixed) : 0 Retry sector count : 0 Damaged sector count : 0
Track 20 Filename : /rips/Compilations - De Pre Historie 1961 (1961) [FLAC]/20 - Sandy Nelson - Let There Be Drums.flac
Track gain : -3.61 dB Peak : 0.992157 CRC32 hash (test run) : 68FBDEF8 CRC32 hash : 68FBDEF8 CRC32 hash (skip zero) : B7A57BF4 AccurateRip v1 signature : 4E09A35D AccurateRip v2 signature : 161B5444 ->Accurately ripped (v1+v2, confidence 4+9/20) Statistics Read error : 0 Jitter error (maybe fixed) : 0 Retry sector count : 0 Damaged sector count : 0
No errors occurred
End of status report
-----BEGIN XLD SIGNATURE-----l4yMkEov5OOSEN_2Y12xOkOajklKysnMAV2ZkHCdfuRF.i5zjnyQUcLblpe2PkJ6bE0g9E7r94HS1.1IWcA9CMOIoQU0HCGu6hrC0tq-----END XLD SIGNATURE-----

Содержание индексной карты (.CUE)

TITLE "De Pre Historie 1961"REM GENRE "Oldies"REM DATE "1990"REM DISCNUMBER 1REM TOTALDISCS 1REM DISCID 270B4C14REM REPLAYGAIN_ALBUM_GAIN -5.57 dBREM REPLAYGAIN_ALBUM_PEAK 0.992188FILE "01 - Helen Shapiro - Walking Back To Happiness.flac" WAVE  TRACK 01 AUDIO    TITLE "Walking Back To Happiness"    PERFORMER "Helen Shapiro"    REM REPLAYGAIN_TRACK_GAIN -3.88 dB    REM REPLAYGAIN_TRACK_PEAK 0.954163    PREGAP 00:00:32    INDEX 01 00:00:00FILE "02 - Cliff Richard - Theme From A Dream.flac" WAVE  TRACK 02 AUDIO    TITLE "Theme From A Dream"    PERFORMER "Cliff Richard"    REM REPLAYGAIN_TRACK_GAIN -3.85 dB    REM REPLAYGAIN_TRACK_PEAK 0.702393    INDEX 01 00:00:00FILE "03 - Neil Sedaka - Calendar Girl.flac" WAVE  TRACK 03 AUDIO    TITLE "Calendar Girl"    PERFORMER "Neil Sedaka"    REM REPLAYGAIN_TRACK_GAIN -6.88 dB    REM REPLAYGAIN_TRACK_PEAK 0.992157    INDEX 01 00:00:00FILE "04 - Ricky Nelson - Hello Mary Lou.flac" WAVE  TRACK 04 AUDIO    TITLE "Hello Mary Lou"    PERFORMER "Ricky Nelson"    REM REPLAYGAIN_TRACK_GAIN -4.08 dB    REM REPLAYGAIN_TRACK_PEAK 0.982941    INDEX 01 00:00:00FILE "05 - Bobby Vee - Take Good Care Of My Baby.flac" WAVE  TRACK 05 AUDIO    TITLE "Take Good Care Of My Baby"    PERFORMER "Bobby Vee"    REM REPLAYGAIN_TRACK_GAIN -4.57 dB    REM REPLAYGAIN_TRACK_PEAK 0.958649    INDEX 01 00:00:00FILE "06 - The Marcels - Blue Moon.flac" WAVE  TRACK 06 AUDIO    TITLE "Blue Moon"    PERFORMER "The Marcels"    REM REPLAYGAIN_TRACK_GAIN -3.69 dB    REM REPLAYGAIN_TRACK_PEAK 0.992157    INDEX 01 00:00:00FILE "07 - Paul Anka - Tonight My Love Tonight.flac" WAVE  TRACK 07 AUDIO    TITLE "Tonight My Love Tonight"    PERFORMER "Paul Anka"    REM REPLAYGAIN_TRACK_GAIN -4.27 dB    REM REPLAYGAIN_TRACK_PEAK 0.764008    INDEX 01 00:00:00FILE "08 - Elvis Presley - Are You Lonesome Tonight.flac" WAVE  TRACK 08 AUDIO    TITLE "Are You Lonesome Tonight"    PERFORMER "Elvis Presley"    REM REPLAYGAIN_TRACK_GAIN -2.34 dB    REM REPLAYGAIN_TRACK_PEAK 0.764984    INDEX 01 00:00:00FILE "09 - Fats Domino - My Girl Josephine.flac" WAVE  TRACK 09 AUDIO    TITLE "My Girl Josephine"    PERFORMER "Fats Domino"    REM REPLAYGAIN_TRACK_GAIN -7.07 dB    REM REPLAYGAIN_TRACK_PEAK 0.992157    INDEX 01 00:00:00FILE "10 - Smokey Robinson & The Miracles - Shop Around.flac" WAVE  TRACK 10 AUDIO    TITLE "Shop Around"    PERFORMER "Smokey Robinson & The Miracles"    REM REPLAYGAIN_TRACK_GAIN -7.91 dB    REM REPLAYGAIN_TRACK_PEAK 0.970123    INDEX 01 00:00:00FILE "11 - The Allisons - Are You Sure.flac" WAVE  TRACK 11 AUDIO    TITLE "Are You Sure"    PERFORMER "The Allisons"    REM REPLAYGAIN_TRACK_GAIN -4.51 dB    REM REPLAYGAIN_TRACK_PEAK 0.777283    INDEX 01 00:00:00FILE "12 - Highwaymen - Michael (Row The Boat Ashore).flac" WAVE  TRACK 12 AUDIO    TITLE "Michael (Row The Boat Ashore)"    PERFORMER "Highwaymen"    REM REPLAYGAIN_TRACK_GAIN -1.00 dB    REM REPLAYGAIN_TRACK_PEAK 0.742126    INDEX 01 00:00:00FILE "13 - Del Shannon - Runaway.flac" WAVE  TRACK 13 AUDIO    TITLE "Runaway"    PERFORMER "Del Shannon"    REM REPLAYGAIN_TRACK_GAIN -4.86 dB    REM REPLAYGAIN_TRACK_PEAK 0.767609    INDEX 01 00:00:00FILE "14 - The Cousins - Dang Dang.flac" WAVE  TRACK 14 AUDIO    TITLE "Dang Dang"    PERFORMER "The Cousins"    REM REPLAYGAIN_TRACK_GAIN -2.33 dB    REM REPLAYGAIN_TRACK_PEAK 0.992157    INDEX 01 00:00:00FILE "15 - Ben E King - Stand By Me.flac" WAVE  TRACK 15 AUDIO    TITLE "Stand By Me"    PERFORMER "Ben E King"    REM REPLAYGAIN_TRACK_GAIN -6.47 dB    REM REPLAYGAIN_TRACK_PEAK 0.948303    INDEX 01 00:00:00FILE "16 - Dion - Runaround Sue.flac" WAVE  TRACK 16 AUDIO    TITLE "Runaround Sue"    PERFORMER "Dion"    REM REPLAYGAIN_TRACK_GAIN -6.18 dB    REM REPLAYGAIN_TRACK_PEAK 0.992157    INDEX 01 00:00:00FILE "17 - The Marvelettes - Please Mr. Postman.flac" WAVE  TRACK 17 AUDIO    TITLE "Please Mr. Postman"    PERFORMER "The Marvelettes"    REM REPLAYGAIN_TRACK_GAIN -5.87 dB    REM REPLAYGAIN_TRACK_PEAK 0.992188    INDEX 01 00:00:00FILE "18 - The Shadows - FBI.flac" WAVE  TRACK 18 AUDIO    TITLE "FBI"    PERFORMER "The Shadows"    REM REPLAYGAIN_TRACK_GAIN -4.53 dB    REM REPLAYGAIN_TRACK_PEAK 0.675537    INDEX 01 00:00:00FILE "19 - Edith Piaf - Non Je Ne Regrette Rien.flac" WAVE  TRACK 19 AUDIO    TITLE "Non Je Ne Regrette Rien"    PERFORMER "Edith Piaf"    REM REPLAYGAIN_TRACK_GAIN -6.31 dB    REM REPLAYGAIN_TRACK_PEAK 0.991272    INDEX 01 00:00:00FILE "20 - Sandy Nelson - Let There Be Drums.flac" WAVE  TRACK 20 AUDIO    TITLE "Let There Be Drums"    PERFORMER "Sandy Nelson"    REM REPLAYGAIN_TRACK_GAIN -3.61 dB    REM REPLAYGAIN_TRACK_PEAK 0.992157    INDEX 01 00:00:00

AccurateRip

[CUETools log; Date: 14.10.2018 21:47:57; Version: 2.1.5]Pregap length 00:00:32.[CTDB TOCID: YIJtK9JabETXDM5tnNwZF.NiNpg-] found.Track | CTDB Status  1   | (23/23) Accurately ripped  2   | (23/23) Accurately ripped  3   | (23/23) Accurately ripped  4   | (23/23) Accurately ripped  5   | (23/23) Accurately ripped  6   | (23/23) Accurately ripped  7   | (23/23) Accurately ripped  8   | (23/23) Accurately ripped  9   | (23/23) Accurately ripped 10   | (23/23) Accurately ripped 11   | (23/23) Accurately ripped 12   | (23/23) Accurately ripped 13   | (23/23) Accurately ripped 14   | (23/23) Accurately ripped 15   | (23/23) Accurately ripped 16   | (23/23) Accurately ripped 17   | (23/23) Accurately ripped 18   | (23/23) Accurately ripped 19   | (23/23) Accurately ripped 20   | (23/23) Accurately ripped[AccurateRip ID: 0022aa23-01fd51c0-270b4c14] found.Track   [  CRC   |   V2   ] Status 01     [ba74b407|8544c828] (04+11/22) Accurately ripped 02     [c2a77b0b|6dcabad9] (04+11/22) Accurately ripped 03     [095f6958|bd897480] (04+11/22) Accurately ripped 04     [93f6136e|672773d1] (04+12/23) Accurately ripped 05     [c5977b11|6d86852f] (04+11/22) Accurately ripped 06     [0e3c5246|4e0b3000] (04+11/22) Accurately ripped 07     [20559a7c|2c6fb2e1] (04+11/22) Accurately ripped 08     [30c2c4a7|441e2040] (04+11/22) Accurately ripped 09     [b0060155|219acd7e] (04+11/22) Accurately ripped 10     [cdbec8f4|f167fd6c] (04+11/22) Accurately ripped 11     [39ac343d|94d6c276] (04+10/21) Accurately ripped 12     [56b2ec79|6835930b] (04+10/21) Accurately ripped 13     [721a05ef|086db612] (04+10/21) Accurately ripped 14     [b77c0989|b864209b] (04+10/21) Accurately ripped 15     [1f235246|cc834596] (04+10/21) Accurately ripped 16     [31a92920|6565b82b] (04+10/21) Accurately ripped 17     [796640e4|1535c980] (04+10/21) Accurately ripped 18     [8af0779b|d8638c28] (03+10/20) Accurately ripped 19     [d92f1479|108ccb68] (04+10/21) Accurately ripped 20     [4e09a35d|161b5444] (04+10/21) Accurately rippedOffsetted by 1877: 01     [f462fc7c] (05/22) Accurately ripped 02     [7c348c13] (05/22) Accurately ripped 03     [592f8350] (05/22) Accurately ripped 04     [c1220cfc] (05/23) Accurately ripped 05     [4079e762] (05/22) Accurately ripped 06     [ee5096fe] (05/22) Accurately ripped 07     [7d314b1a] (05/22) Accurately ripped 08     [7baaee04] (05/22) Accurately ripped 09     [5c9937dc] (05/22) Accurately ripped 10     [e716a8ae] (05/22) Accurately ripped 11     [773c5b49] (05/21) Accurately ripped 12     [3c5a47c0] (05/21) Accurately ripped 13     [94615db6] (05/21) Accurately ripped 14     [9767d592] (05/21) Accurately ripped 15     [8a42fac4] (05/21) Accurately ripped 16     [834206a7] (05/21) Accurately ripped 17     [46deb2dd] (05/21) Accurately ripped 18     [70dc1bc7] (05/20) Accurately ripped 19     [ef883820] (05/21) Accurately ripped 20     [176d0adb] (05/21) Accurately ripped
Track Peak [ CRC32 ] [W/O NULL] -- 99,2 [B9E851FB] [9D623D18] 01 95,4 [0CF8A696] [30E2399B] 02 70,2 [C5183EC1] [081D635F] 03 99,2 [3DB66B2F] [CD677EA8] 04 98,2 [ADC31286] [B50A058A] 05 95,8 [26F1DA67] [F602C104] 06 99,2 [DE07F72E] [7D43DD73] 07 76,4 [BAC460DB] [26A1E389] 08 76,5 [E3183665] [BDCC49D7] 09 99,2 [1CEC94BF] [2B67F3C3] 10 97,0 [26B6C5BF] [0839329C] 11 77,7 [7C898B37] [CD156783] 12 74,2 [42D01883] [71C53822] 13 76,7 [440130EB] [0F78DFF4] 14 99,2 [694B18BF] [AC3AEBF6] 15 94,8 [FEFA46FD] [D6492999] 16 99,2 [7A42D36F] [2A328C81] 17 99,2 [450BEB31] [E7499493] 18 67,5 [72FDBC2D] [2F50174E] 19 99,1 [C1C68BF8] [B643F039] 20 99,2 [68FBDEF8] [B7A57BF4]
Вы не можете начинать темы
Вы не можете отвечать на сообщения
Вы не можете редактировать свои сообщения
Вы не можете удалять свои сообщения
Вы не можете голосовать в опросах
Вы не можете прикреплять файлы к сообщениям
Вы можете скачивать файлы
!ВНИМАНИЕ!

Сайт не предоставляет электронные версии произведений, а занимается лишь коллекционированием и каталогизацией ссылок, присылаемых и публикуемых на форуме нашими читателями. Если вы являетесь правообладателем какого-либо представленного материала и не желаете, чтобы ссылка на него находилась в нашем каталоге, свяжитесь с нами, и мы незамедлительно удалим ее. Файлы для обмена на трекере предоставлены пользователями сайта, и администрация не несет ответственности за их содержание. Просьба не заливать файлы, защищенные авторскими правами, а также файлы нелегального содержания!

Искали программы, игры, дополнения, музыка mp3, аниме, аудио книги, журналы? Добро пожаловать на свободный торрент трекер Torrents, у нас можно скачать бесплатно, без смс и регистрации и прочих ограничений лучшие, отборные сборки программ, игр. Скачать торрентом не составит труда даже не опытному пользователю. Раздачи ежедневно обновляются, только лучшие и качественные раздачи, подробные описания и скриншоты. Огромная коллекция программ для работы со звуком, графикой, дизайном, а так же множество плагинов и инструментов к ним с подробной инструкцией и рекомендациями. Прошивки для навигаторов, карты. Разнообразные игры, для Windows, Linux. В коллекцие есть и старые игры любых жанров, Rpg, Action, Shooter, strategy Множество дополнений, модификаций, сценариев для популярных игр в жанре экш, рпг, гонки, стратегии, логические игры. Множество аддонов и сценариев для Microsoft Flight Simulator Большая коллекция книг, учебников. Если нет возможности купить печатное издание - смело скачивайте цифровую версию книги или, быть может, журнала. Не любите читать - можно загрузить бесплатно аудикнигу. Для веб дизайнеров и программистов так же найдется множество специализированного софта, таких как: редакторы с подсветкой, среды программирования, компоненты, системы управления базами данных, разнообразные скрипты и шаблоны. Не так давно у нас появился материал для автолюбителей и владельцев мото - оригинальные и неоригинальные каталоги запчастей, книги и журналы по ремонту и обслуживанию, видеоуроки, статьи по чип тюнингу, прошивкам. Процедура получения контента элементарная, достаточно просто скачать торрент файл и добавить его в загрузку в вашем торрент клиенте. Если у вас нет специального торрент клиента, вы можете его скачать у нас.

So-Ra-No-Wo-To | Formosa Betrayed | Ziemia: Ostatnie starcie / Earth: Final Conflict