(Various) [CD] VA - De Pre Historie 1979 [EMI/Virgin, 260.751, Belgium] - 1991, FLAC (tracks+.cue), lossless 

Цитировать
De Pre Historie 1979
Жанр: Various
Носитель: CD
Страна-производитель диска (релиза): Belgium
Год издания: 1991
Издатель (лейбл): EMI/Virgin
Номер по каталогу: 260.751
Аудиокодек: FLAC (*.flac)
Тип рипа: tracks+.cue
Битрейт аудио: lossless
Продолжительность: 01:13:39
Источник (релизер): From RED
Наличие сканов в содержимом раздачи: нет

Треклист:
01. Gloria Gaynor – I Will Survive
02. Eruption – One Way Ticket
03. Viola Wills – Gonna Get Along Without You Now
04. The Buggles – Video Killed The Radio Star
05. Patrick Hernandez – Born To Be Alive
06. The Shadows – Theme From ''The Deer Hunter''
07. Shirley Bassey – This Is My Life
08. Umberto Tozzi – Gloria
09. Pointer Sisters – Fire
10. ABBA – Chiquitita
11. Cliff Richard – We Don't Talk Anymore
12. Bee Gees – How Can You Mend A Broken Heart
13. Ottawan – D.I.S.C.O.
14. Blondie – Heart Of Glass
15. XTC – Making Plans For Nigel
16. The Knack – My Sharona
17. Madness – One Step Beyond
18. Toto – Hold The Line
19. Ellen Foley – We Belong To The Night

Лог создания рипа

Exact Audio Copy V1.3 from 2. September 2016
EAC extraction logfile from 20. May 2017, 14:32
Various Artists / De Pre Historie 1979
Used drive : ATAPI iHAS124 F Adapter: 1 ID: 0
Read mode : SecureUtilize accurate stream : YesDefeat audio cache : YesMake use of C2 pointers : No
Read offset correction : 6Overread into Lead-In and Lead-Out : NoFill up missing offset samples with silence : YesDelete leading and trailing silent blocks : NoNull samples used in CRC calculations : YesUsed interface : Native Win32 interface for Win NT & 2000Gap handling : Appended to previous track
Used output format : User Defined EncoderSelected bitrate : 1024 kBit/sQuality : HighAdd ID3 tag : NoCommand line compressor : C:\cmd.exeAdditional command line options : /c ""C:\F\CUETools.FLACCL.cmd.exe" -8 --verify %source% -o %dest% & "C:\M\metaflac.exe" --set-tag="ARTIST=%artist%" --set-tag="TITLE=%title%" --set-tag="ALBUM=%albumtitle%" --set-tag="DATE=%year%" --set-tag="TRACKNUMBER=%tracknr%" --set-tag="GENRE=%genre%" --set-tag="COMPOSER=%composer%" --set-tag="ALBUMARTIST=%albumartist%" %dest%"
TOC of the extracted CD
Track | Start | Length | Start sector | End sector --------------------------------------------------------- 1 | 0:00.33 | 3:12.45 | 33 | 14477 2 | 3:13.03 | 3:34.02 | 14478 | 30529 3 | 6:47.05 | 3:15.68 | 30530 | 45222 4 | 10:02.73 | 3:18.10 | 45223 | 60082 5 | 13:21.08 | 3:42.40 | 60083 | 76772 6 | 17:03.48 | 3:26.12 | 76773 | 92234 7 | 20:29.60 | 3:14.45 | 92235 | 106829 8 | 23:44.30 | 4:21.08 | 106830 | 126412 9 | 28:05.38 | 3:19.02 | 126413 | 141339 10 | 31:24.40 | 5:21.20 | 141340 | 165434 11 | 36:45.60 | 4:10.70 | 165435 | 184254 12 | 40:56.55 | 3:56.48 | 184255 | 202002 13 | 44:53.28 | 3:46.37 | 202003 | 218989 14 | 48:39.65 | 4:26.58 | 218990 | 238997 15 | 53:06.48 | 4:08.25 | 238998 | 257622 16 | 57:14.73 | 4:53.60 | 257623 | 279657 17 | 62:08.58 | 2:18.60 | 279658 | 290067 18 | 64:27.43 | 3:56.45 | 290068 | 307812 19 | 68:24.13 | 5:15.20 | 307813 | 331457
Track 1
Filename E:\EAC Rips\2017-05 Mei\Various Artists - De Pre Historie 1979 (1991) [FLAC] {BMG 260.751}\01 - Gloria Gaynor - I Will Survive.wav
Pre-gap length 0:00:02.33
Peak level 99.1 % Extraction speed 5.5 X Track quality 100.0 % Test CRC DCFDFD97 Copy CRC DCFDFD97 Accurately ripped (confidence 5) [2C3BCCE9] (AR v2) Copy OK
Track 2
Filename E:\EAC Rips\2017-05 Mei\Various Artists - De Pre Historie 1979 (1991) [FLAC] {BMG 260.751}\02 - Eruption - One Way Ticket.wav
Peak level 72.0 % Extraction speed 6.0 X Track quality 100.0 % Test CRC 00AFE50F Copy CRC 00AFE50F Accurately ripped (confidence 5) [4233825F] (AR v2) Copy OK
Track 3
Filename E:\EAC Rips\2017-05 Mei\Various Artists - De Pre Historie 1979 (1991) [FLAC] {BMG 260.751}\03 - Viola Wills - Gonna Get Along Without You Now.wav
Peak level 79.1 % Extraction speed 6.2 X Track quality 100.0 % Test CRC 5EACF66D Copy CRC 5EACF66D Accurately ripped (confidence 5) [64F1B41A] (AR v2) Copy OK
Track 4
Filename E:\EAC Rips\2017-05 Mei\Various Artists - De Pre Historie 1979 (1991) [FLAC] {BMG 260.751}\04 - Buggles - Video Killed The Radio Star.wav
Peak level 83.7 % Extraction speed 6.7 X Track quality 100.0 % Test CRC 3CEE8924 Copy CRC 3CEE8924 Accurately ripped (confidence 5) [B61653F2] (AR v2) Copy OK
Track 5
Filename E:\EAC Rips\2017-05 Mei\Various Artists - De Pre Historie 1979 (1991) [FLAC] {BMG 260.751}\05 - Patrick Hernandez - Born To Be Alive.wav
Peak level 71.6 % Extraction speed 7.1 X Track quality 100.0 % Test CRC 0A775034 Copy CRC 0A775034 Accurately ripped (confidence 5) [01930350] (AR v2) Copy OK
Track 6
Filename E:\EAC Rips\2017-05 Mei\Various Artists - De Pre Historie 1979 (1991) [FLAC] {BMG 260.751}\06 - The Shadows - Theme From 'The Deerhunter' (Cavatina).wav
Peak level 74.9 % Extraction speed 6.5 X Track quality 99.9 % Test CRC CABE8B7C Copy CRC CABE8B7C Accurately ripped (confidence 5) [EAE646A8] (AR v2) Copy OK
Track 7
Filename E:\EAC Rips\2017-05 Mei\Various Artists - De Pre Historie 1979 (1991) [FLAC] {BMG 260.751}\07 - Shirley Bassey - This Is My Life.wav
Peak level 71.6 % Extraction speed 7.6 X Track quality 100.0 % Test CRC 17D764A0 Copy CRC 17D764A0 Accurately ripped (confidence 5) [1AF19D31] (AR v2) Copy OK
Track 8
Filename E:\EAC Rips\2017-05 Mei\Various Artists - De Pre Historie 1979 (1991) [FLAC] {BMG 260.751}\08 - Umberto Tozzi - Gloria.wav
Peak level 66.3 % Extraction speed 8.2 X Track quality 100.0 % Test CRC 17B8D8A4 Copy CRC 17B8D8A4 Accurately ripped (confidence 5) [16A5A60B] (AR v2) Copy OK
Track 9
Filename E:\EAC Rips\2017-05 Mei\Various Artists - De Pre Historie 1979 (1991) [FLAC] {BMG 260.751}\09 - The Pointer Sisters - Fire.wav
Peak level 86.6 % Extraction speed 8.2 X Track quality 100.0 % Test CRC 823240A9 Copy CRC 823240A9 Accurately ripped (confidence 5) [E89E4998] (AR v2) Copy OK
Track 10
Filename E:\EAC Rips\2017-05 Mei\Various Artists - De Pre Historie 1979 (1991) [FLAC] {BMG 260.751}\10 - ABBA - Chiquitita.wav
Peak level 95.3 % Extraction speed 9.1 X Track quality 100.0 % Test CRC 5F78DEE6 Copy CRC 5F78DEE6 Accurately ripped (confidence 5) [EA5F1837] (AR v2) Copy OK
Track 11
Filename E:\EAC Rips\2017-05 Mei\Various Artists - De Pre Historie 1979 (1991) [FLAC] {BMG 260.751}\11 - Cliff Richard - We Don't Talk Anymore.wav
Peak level 74.8 % Extraction speed 9.3 X Track quality 100.0 % Test CRC 84F4287A Copy CRC 84F4287A Accurately ripped (confidence 5) [0E07A278] (AR v2) Copy OK
Track 12
Filename E:\EAC Rips\2017-05 Mei\Various Artists - De Pre Historie 1979 (1991) [FLAC] {BMG 260.751}\12 - Bee Gees - How Can You Mend A Broken Heart.wav
Peak level 78.7 % Extraction speed 9.4 X Track quality 100.0 % Test CRC CCD29E6B Copy CRC CCD29E6B Accurately ripped (confidence 5) [A4EC819A] (AR v2) Copy OK
Track 13
Filename E:\EAC Rips\2017-05 Mei\Various Artists - De Pre Historie 1979 (1991) [FLAC] {BMG 260.751}\13 - Ottawan - D.I.S.C.O..wav
Peak level 74.3 % Extraction speed 9.9 X Track quality 100.0 % Test CRC 1D38BBEB Copy CRC 1D38BBEB Accurately ripped (confidence 5) [1A4FFFE1] (AR v2) Copy OK
Track 14
Filename E:\EAC Rips\2017-05 Mei\Various Artists - De Pre Historie 1979 (1991) [FLAC] {BMG 260.751}\14 - Blondie - Heart Of Glass.wav
Peak level 90.5 % Extraction speed 10.5 X Track quality 100.0 % Test CRC 0AD886CF Copy CRC 0AD886CF Accurately ripped (confidence 5) [B1C56C9A] (AR v2) Copy OK
Track 15
Filename E:\EAC Rips\2017-05 Mei\Various Artists - De Pre Historie 1979 (1991) [FLAC] {BMG 260.751}\15 - XTC - Making Plans For Nigel.wav
Peak level 96.2 % Extraction speed 9.4 X Track quality 99.9 % Test CRC 7AAB03E9 Copy CRC 7AAB03E9 Accurately ripped (confidence 5) [8B8C9BB0] (AR v2) Copy OK
Track 16
Filename E:\EAC Rips\2017-05 Mei\Various Artists - De Pre Historie 1979 (1991) [FLAC] {BMG 260.751}\16 - The Knack - My Sharona.wav
Peak level 81.8 % Extraction speed 9.8 X Track quality 99.9 % Test CRC FD771B62 Copy CRC FD771B62 Accurately ripped (confidence 4) [FA7563F8] (AR v2) Copy OK
Track 17
Filename E:\EAC Rips\2017-05 Mei\Various Artists - De Pre Historie 1979 (1991) [FLAC] {BMG 260.751}\17 - Madness - One Step Beyond.wav
Peak level 82.9 % Extraction speed 7.9 X Track quality 99.9 % Test CRC 91FCF7A9 Copy CRC 91FCF7A9 Accurately ripped (confidence 4) [3D43965F] (AR v2) Copy OK
Track 18
Filename E:\EAC Rips\2017-05 Mei\Various Artists - De Pre Historie 1979 (1991) [FLAC] {BMG 260.751}\18 - Toto - Hold The Line.wav
Peak level 95.8 % Extraction speed 4.4 X Track quality 99.8 % Test CRC 8C753A62 Copy CRC 8C753A62 Accurately ripped (confidence 5) [A8FC61EB] (AR v2) Copy OK
Track 19
Filename E:\EAC Rips\2017-05 Mei\Various Artists - De Pre Historie 1979 (1991) [FLAC] {BMG 260.751}\19 - Ellen Foley - We Belong To The Night.wav
Peak level 83.4 % Extraction speed 5.5 X Track quality 99.9 % Test CRC 05ECAF14 Copy CRC 05ECAF14 Accurately ripped (confidence 5) [A36225D3] (AR v2) Copy OK
All tracks accurately ripped
No errors occurred
End of status report
---- CUETools DB Plugin V2.1.6
[CTDB TOCID: Y6wmRxhfGnY_lIR3IdUUFqPRxhQ-] foundSubmit result: Y6wmRxhfGnY_lIR3IdUUFqPRxhQ- has been confirmedTrack | CTDB Status 1 | (15/15) Accurately ripped 2 | (15/15) Accurately ripped 3 | (15/15) Accurately ripped 4 | (15/15) Accurately ripped 5 | (15/15) Accurately ripped 6 | (15/15) Accurately ripped 7 | (15/15) Accurately ripped 8 | (15/15) Accurately ripped 9 | (14/15) Accurately ripped 10 | (14/15) Accurately ripped 11 | ( 6/15) Accurately ripped, or (7/15) differs in 21 samples @01:42:62 12 | (15/15) Accurately ripped 13 | (14/15) Accurately ripped 14 | (15/15) Accurately ripped 15 | ( 6/15) Accurately ripped, or (7/15) differs in 29 samples @00:06:32,00:08:62-00:08:67 16 | (14/15) Accurately ripped 17 | (15/15) Accurately ripped 18 | (15/15) Accurately ripped 19 | (14/15) Accurately rippedIf you are sure that your rip contains errors, you can use CUETools to repair it.
==== Log checksum D7BDA9F36EE50A0593269E6A31D96B001A32D8FA74D44DF59E1163AC7034D987 ====

Содержание индексной карты (.CUE)

REM DATE 1991REM DISCID 15114313REM COMMENT "ExactAudioCopy v1.3"PERFORMER "Various Artists"TITLE "De Pre Historie 1979"REM COMPOSER ""FILE "01 - Gloria Gaynor - I Will Survive.wav" WAVE  TRACK 01 AUDIO    TITLE "I Will Survive"    PERFORMER "Gloria Gaynor"    REM COMPOSER ""    PREGAP 00:00:33    INDEX 01 00:00:00FILE "02 - Eruption - One Way Ticket.wav" WAVE  TRACK 02 AUDIO    TITLE "One Way Ticket"    PERFORMER "Eruption"    REM COMPOSER ""    INDEX 01 00:00:00FILE "03 - Viola Wills - Gonna Get Along Without You Now.wav" WAVE  TRACK 03 AUDIO    TITLE "Gonna Get Along Without You Now"    PERFORMER "Viola Wills"    REM COMPOSER ""    INDEX 01 00:00:00FILE "04 - Buggles - Video Killed The Radio Star.wav" WAVE  TRACK 04 AUDIO    TITLE "Video Killed The Radio Star"    PERFORMER "Buggles"    REM COMPOSER ""    INDEX 01 00:00:00FILE "05 - Patrick Hernandez - Born To Be Alive.wav" WAVE  TRACK 05 AUDIO    TITLE "Born To Be Alive"    PERFORMER "Patrick Hernandez"    REM COMPOSER ""    INDEX 01 00:00:00FILE "06 - The Shadows - Theme From 'The Deerhunter' (Cavatina).wav" WAVE  TRACK 06 AUDIO    TITLE "Theme From 'The Deerhunter' (Cavatina)"    PERFORMER "The Shadows"    REM COMPOSER ""    INDEX 01 00:00:00FILE "07 - Shirley Bassey - This Is My Life.wav" WAVE  TRACK 07 AUDIO    TITLE "This Is My Life"    PERFORMER "Shirley Bassey"    REM COMPOSER ""    INDEX 01 00:00:00FILE "08 - Umberto Tozzi - Gloria.wav" WAVE  TRACK 08 AUDIO    TITLE "Gloria"    PERFORMER "Umberto Tozzi"    REM COMPOSER ""    INDEX 01 00:00:00FILE "09 - The Pointer Sisters - Fire.wav" WAVE  TRACK 09 AUDIO    TITLE "Fire"    PERFORMER "The Pointer Sisters"    REM COMPOSER ""    INDEX 01 00:00:00FILE "10 - ABBA - Chiquitita.wav" WAVE  TRACK 10 AUDIO    TITLE "Chiquitita"    PERFORMER "ABBA"    REM COMPOSER ""    INDEX 01 00:00:00FILE "11 - Cliff Richard - We Don't Talk Anymore.wav" WAVE  TRACK 11 AUDIO    TITLE "We Don't Talk Anymore"    PERFORMER "Cliff Richard"    REM COMPOSER ""    INDEX 01 00:00:00FILE "12 - Bee Gees - How Can You Mend A Broken Heart.wav" WAVE  TRACK 12 AUDIO    TITLE "How Can You Mend A Broken Heart"    PERFORMER "Bee Gees"    REM COMPOSER ""    INDEX 01 00:00:00FILE "13 - Ottawan - D.I.S.C.O..wav" WAVE  TRACK 13 AUDIO    TITLE "D.I.S.C.O."    PERFORMER "Ottawan"    REM COMPOSER ""    INDEX 01 00:00:00FILE "14 - Blondie - Heart Of Glass.wav" WAVE  TRACK 14 AUDIO    TITLE "Heart Of Glass"    PERFORMER "Blondie"    REM COMPOSER ""    INDEX 01 00:00:00FILE "15 - XTC - Making Plans For Nigel.wav" WAVE  TRACK 15 AUDIO    TITLE "Making Plans For Nigel"    PERFORMER "XTC"    REM COMPOSER ""    INDEX 01 00:00:00FILE "16 - The Knack - My Sharona.wav" WAVE  TRACK 16 AUDIO    TITLE "My Sharona"    PERFORMER "The Knack"    REM COMPOSER ""    INDEX 01 00:00:00FILE "17 - Madness - One Step Beyond.wav" WAVE  TRACK 17 AUDIO    TITLE "One Step Beyond"    PERFORMER "Madness"    REM COMPOSER ""    INDEX 01 00:00:00FILE "18 - Toto - Hold The Line.wav" WAVE  TRACK 18 AUDIO    TITLE "Hold The Line"    PERFORMER "Toto"    REM COMPOSER ""    INDEX 01 00:00:00FILE "19 - Ellen Foley - We Belong To The Night.wav" WAVE  TRACK 19 AUDIO    TITLE "We Belong To The Night"    PERFORMER "Ellen Foley"    REM COMPOSER ""    INDEX 01 00:00:00

AccurateRip

[CUETools log; Date: 20.10.2018 18:58:36; Version: 2.1.5]Pregap length 00:00:33.[CTDB TOCID: Y6wmRxhfGnY_lIR3IdUUFqPRxhQ-] found.Track | CTDB Status  1   | (25/26) Accurately ripped  2   | (25/26) Accurately ripped  3   | (26/26) Accurately ripped  4   | (26/26) Accurately ripped  5   | (26/26) Accurately ripped  6   | (25/26) Accurately ripped  7   | (25/26) Accurately ripped  8   | (26/26) Accurately ripped  9   | (25/26) Accurately ripped 10   | (25/26) Accurately ripped 11   | (14/26) Accurately ripped, or (10/26) differs in 21 samples @01:42:62 12   | (26/26) Accurately ripped 13   | (25/26) Accurately ripped 14   | (26/26) Accurately ripped 15   | (14/26) Accurately ripped, or (10/26) differs in 29 samples @00:06:32,00:08:62-00:08:67 16   | (25/26) Accurately ripped 17   | (25/26) Accurately ripped 18   | (25/26) Accurately ripped 19   | (24/26) Accurately ripped[AccurateRip ID: 00305fbf-02ae9811-15114313] found.Track   [  CRC   |   V2   ] Status 01     [e72c5e1d|2c3bcce9] (02+07/21) Accurately ripped 02     [4544e56c|4233825f] (02+07/22) Accurately ripped 03     [96f831a7|64f1b41a] (02+07/22) Accurately ripped 04     [cd30e91d|b61653f2] (02+07/22) Accurately ripped 05     [7893745a|01930350] (02+07/22) Accurately ripped 06     [be7966d0|eae646a8] (02+07/22) Accurately ripped 07     [d4d6b416|1af19d31] (02+07/21) Accurately ripped 08     [2f89a5ec|16a5a60b] (02+07/22) Accurately ripped 09     [f72b0f53|e89e4998] (02+07/22) Accurately ripped 10     [b344f2e7|ea5f1837] (02+07/21) Accurately ripped 11     [d0b3a85f|0e07a278] (02+07/21) Accurately ripped 12     [dc2c28f3|a4ec819a] (02+07/22) Accurately ripped 13     [5e241e00|1a4fffe1] (02+07/21) Accurately ripped 14     [0e48c88d|b1c56c9a] (00+07/21) Accurately ripped 15     [83062432|8b8c9bb0] (00+07/20) Accurately ripped 16     [f24331f9|fa7563f8] (02+06/19) Accurately ripped 17     [70d4c5a1|3d43965f] (02+06/20) Accurately ripped 18     [1cacf80f|a8fc61eb] (02+07/21) Accurately ripped 19     [596a08a8|a36225d3] (02+07/20) Accurately rippedOffsetted by -1277: 01     [e6f0e228] (04/21) Accurately ripped 02     [2f87c545] (05/22) Accurately ripped 03     [48f8cae0] (05/22) Accurately ripped 04     [9603813a] (05/22) Accurately ripped 05     [7c8e025b] (05/22) Accurately ripped 06     [d841e0c2] (05/22) Accurately ripped 07     [1e4a7da5] (04/21) Accurately ripped 08     [2d5f6504] (05/22) Accurately ripped 09     [21dba08e] (05/22) Accurately ripped 10     [295c1e82] (04/21) Accurately ripped 11     [8f3ad9c3] (00/21) No match (V2 was not tested) 12     [89cc7959] (05/22) Accurately ripped 13     [770fc50e] (04/21) Accurately ripped 14     [c017887c] (06/21) Accurately ripped 15     [0882642e] (00/20) No match (V2 was not tested) 16     [519d07c2] (04/19) Accurately ripped 17     [bc719991] (04/20) Accurately ripped 18     [3fbdf7ea] (04/21) Accurately ripped 19     [5f2cdedc] (04/20) Accurately ripped
Track Peak [ CRC32 ] [W/O NULL] [ LOG ] -- 99,1 [3E12DE15] [B45D8B44] 01 99,1 [DCFDFD97] [37C01C70] CRC32 02 72,0 [00AFE50F] [A29689DD] CRC32 03 79,1 [5EACF66D] [DB506225] CRC32 04 83,7 [3CEE8924] [9B4DE7F1] CRC32 05 71,6 [0A775034] [7F345F62] CRC32 06 74,9 [CABE8B7C] [0F732876] CRC32 07 71,6 [17D764A0] [F9921255] CRC32 08 66,3 [17B8D8A4] [D98807B2] CRC32 09 86,6 [823240A9] [99C14707] CRC32 10 95,3 [5F78DEE6] [A2A16442] CRC32 11 74,8 [84F4287A] [5C709B16] CRC32 12 78,7 [CCD29E6B] [61F55CDD] CRC32 13 74,3 [1D38BBEB] [76EECE87] CRC32 14 90,5 [0AD886CF] [5AFAC143] CRC32 15 96,2 [7AAB03E9] [741A9035] CRC32 16 81,8 [FD771B62] [AEE573D6] CRC32 17 82,9 [91FCF7A9] [9277D2D6] CRC32 18 95,8 [8C753A62] [65A4E0BA] CRC32 19 83,4 [05ECAF14] [9393024B] CRC32
Вы не можете начинать темы
Вы не можете отвечать на сообщения
Вы не можете редактировать свои сообщения
Вы не можете удалять свои сообщения
Вы не можете голосовать в опросах
Вы не можете прикреплять файлы к сообщениям
Вы можете скачивать файлы
!ВНИМАНИЕ!

Сайт не предоставляет электронные версии произведений, а занимается лишь коллекционированием и каталогизацией ссылок, присылаемых и публикуемых на форуме нашими читателями. Если вы являетесь правообладателем какого-либо представленного материала и не желаете, чтобы ссылка на него находилась в нашем каталоге, свяжитесь с нами, и мы незамедлительно удалим ее. Файлы для обмена на трекере предоставлены пользователями сайта, и администрация не несет ответственности за их содержание. Просьба не заливать файлы, защищенные авторскими правами, а также файлы нелегального содержания!

Искали программы, игры, дополнения, музыка mp3, аниме, аудио книги, журналы? Добро пожаловать на свободный торрент трекер Torrents, у нас можно скачать бесплатно, без смс и регистрации и прочих ограничений лучшие, отборные сборки программ, игр. Скачать торрентом не составит труда даже не опытному пользователю. Раздачи ежедневно обновляются, только лучшие и качественные раздачи, подробные описания и скриншоты. Огромная коллекция программ для работы со звуком, графикой, дизайном, а так же множество плагинов и инструментов к ним с подробной инструкцией и рекомендациями. Прошивки для навигаторов, карты. Разнообразные игры, для Windows, Linux. В коллекцие есть и старые игры любых жанров, Rpg, Action, Shooter, strategy Множество дополнений, модификаций, сценариев для популярных игр в жанре экш, рпг, гонки, стратегии, логические игры. Множество аддонов и сценариев для Microsoft Flight Simulator Большая коллекция книг, учебников. Если нет возможности купить печатное издание - смело скачивайте цифровую версию книги или, быть может, журнала. Не любите читать - можно загрузить бесплатно аудикнигу. Для веб дизайнеров и программистов так же найдется множество специализированного софта, таких как: редакторы с подсветкой, среды программирования, компоненты, системы управления базами данных, разнообразные скрипты и шаблоны. Не так давно у нас появился материал для автолюбителей и владельцев мото - оригинальные и неоригинальные каталоги запчастей, книги и журналы по ремонту и обслуживанию, видеоуроки, статьи по чип тюнингу, прошивкам. Процедура получения контента элементарная, достаточно просто скачать торрент файл и добавить его в загрузку в вашем торрент клиенте. Если у вас нет специального торрент клиента, вы можете его скачать у нас.

The.Walking.Dead.S08.E11.GERMAN.AC3D.5.1.DL.720p.WEB-DL.x264-PRETAiL | April 2013 (1646) | Hotel Artemis 2018 2160p UHD BluRay REMUX SDR HEVC DTS-HD MA 5 1-EPSiLON