(Various) [CD] VA - De Pre Historie 1983 [EMI/Virgin, 261.783, Belgium] - 1992, FLAC (tracks+.cue), lossless 

Цитировать
De Pre Historie 1983
Жанр: Various
Носитель: CD
Страна-производитель диска (релиза): Belgium
Год издания: 1992
Издатель (лейбл): EMI/Virgin
Номер по каталогу: 261.783
Аудиокодек: FLAC (*.flac)
Тип рипа: tracks+.cue
Битрейт аудио: lossless
Продолжительность: 01:13:44
Источник (релизер): From RED
Наличие сканов в содержимом раздачи: нет

Треклист:
01. Kajagoogoo – Too Shy
02. Spandau Ballet – Gold
03. Bonnie Tyler – Total Eclipse Of The Heart
04. Alan Parsons Project – Eye In The Sky
05. Dolly Parton – You Are
06. Malcolm McLaren – Buffalo Gals
07. UB40 – Red Red Wine
08. Bandolero – Paris Latino
09. Righeira – Vamos A La Playa
10. Rock Steady Crew – Hey You (Rock Steady Crew)
11. Taco – Puttin' On The Ritz
12. Jimmy Cliff – Reggae Nights
13. Freeez – I.O.U.
14. V.O.F. De Kunst – Suzanne
15. Nena – 99 Luftballons
16. Elton John – I Guess That's Why They Call It The Blues
17. Agnetha Faltskog – Wrap Your Arms Around Me
18. Mike Oldfield & Maggie Reilly – Moonlight Shadow

Лог создания рипа

Exact Audio Copy V1.3 from 2. September 2016
EAC extraction logfile from 21. May 2017, 0:14
Various Artists / De Pre Historie 1983
Used drive : ATAPI iHAS124 F Adapter: 1 ID: 1
Read mode : SecureUtilize accurate stream : YesDefeat audio cache : YesMake use of C2 pointers : No
Read offset correction : 6Overread into Lead-In and Lead-Out : NoFill up missing offset samples with silence : YesDelete leading and trailing silent blocks : NoNull samples used in CRC calculations : YesUsed interface : Native Win32 interface for Win NT & 2000Gap handling : Appended to previous track
Used output format : User Defined EncoderSelected bitrate : 1024 kBit/sQuality : HighAdd ID3 tag : NoCommand line compressor : C:\cmd.exeAdditional command line options : /c ""C:\F\CUETools.FLACCL.cmd.exe" -8 --verify %source% -o %dest% & "C:\M\metaflac.exe" --set-tag="ARTIST=%artist%" --set-tag="TITLE=%title%" --set-tag="ALBUM=%albumtitle%" --set-tag="DATE=%year%" --set-tag="TRACKNUMBER=%tracknr%" --set-tag="GENRE=%genre%" --set-tag="COMPOSER=%composer%" --set-tag="ALBUMARTIST=%albumartist%" %dest%"
TOC of the extracted CD
Track | Start | Length | Start sector | End sector --------------------------------------------------------- 1 | 0:00.33 | 3:40.50 | 33 | 16582 2 | 3:41.08 | 3:50.60 | 16583 | 33892 3 | 7:31.68 | 4:29.17 | 33893 | 54084 4 | 12:01.10 | 4:33.35 | 54085 | 74594 5 | 16:34.45 | 5:13.50 | 74595 | 98119 6 | 21:48.20 | 3:41.30 | 98120 | 114724 7 | 25:29.50 | 3:01.10 | 114725 | 128309 8 | 28:30.60 | 4:31.33 | 128310 | 148667 9 | 33:02.18 | 3:38.12 | 148668 | 165029 10 | 36:40.30 | 3:45.10 | 165030 | 181914 11 | 40:25.40 | 4:35.38 | 181915 | 202577 12 | 45:01.03 | 4:11.57 | 202578 | 221459 13 | 49:12.60 | 3:48.33 | 221460 | 238592 14 | 53:01.18 | 4:46.40 | 238593 | 260082 15 | 57:47.58 | 3:51.10 | 260083 | 277417 16 | 61:38.68 | 4:42.42 | 277418 | 298609 17 | 66:21.35 | 3:50.50 | 298610 | 315909 18 | 70:12.10 | 3:32.23 | 315910 | 331832
Track 1
Filename E:\EAC Rips\2017-05 Mei\Various Artists - De Pre Historie 1983 (1992) [FLAC] {BMG 261.783}\01 - Kajagoogoo - Too Shy.wav
Pre-gap length 0:00:02.33
Peak level 99.2 % Extraction speed 5.6 X Track quality 100.0 % Test CRC BDE00EFA Copy CRC BDE00EFA Accurately ripped (confidence 7) [BBC2492A] (AR v2) Copy OK
Track 2
Filename E:\EAC Rips\2017-05 Mei\Various Artists - De Pre Historie 1983 (1992) [FLAC] {BMG 261.783}\02 - Spandau Ballet - Gold.wav
Peak level 99.2 % Extraction speed 6.2 X Track quality 100.0 % Test CRC C3793A75 Copy CRC C3793A75 Accurately ripped (confidence 7) [82F3B1C7] (AR v2) Copy OK
Track 3
Filename E:\EAC Rips\2017-05 Mei\Various Artists - De Pre Historie 1983 (1992) [FLAC] {BMG 261.783}\03 - Bonnie Tyler - Total Eclipse Of The Heart.wav
Peak level 93.7 % Extraction speed 6.2 X Track quality 99.9 % Test CRC 2077D5AB Copy CRC 2077D5AB Accurately ripped (confidence 7) [32C4B316] (AR v2) Copy OK
Track 4
Filename E:\EAC Rips\2017-05 Mei\Various Artists - De Pre Historie 1983 (1992) [FLAC] {BMG 261.783}\04 - The Alan Parsons Project - Eye In The Sky.wav
Peak level 90.9 % Extraction speed 7.3 X Track quality 100.0 % Test CRC C38EC2F8 Copy CRC C38EC2F8 Accurately ripped (confidence 7) [DDBE332D] (AR v2) Copy OK
Track 5
Filename E:\EAC Rips\2017-05 Mei\Various Artists - De Pre Historie 1983 (1992) [FLAC] {BMG 261.783}\05 - Dolly Parton - You Are.wav
Peak level 95.4 % Extraction speed 7.9 X Track quality 100.0 % Test CRC 540416A1 Copy CRC 540416A1 Accurately ripped (confidence 6) [CA131D7E] (AR v2) Copy OK
Track 6
Filename E:\EAC Rips\2017-05 Mei\Various Artists - De Pre Historie 1983 (1992) [FLAC] {BMG 261.783}\06 - Malcolm McLaren - Buffalo Gals.wav
Peak level 99.2 % Extraction speed 7.0 X Track quality 99.9 % Test CRC 07FE0746 Copy CRC 07FE0746 Accurately ripped (confidence 6) [6BFE22E1] (AR v2) Copy OK
Track 7
Filename E:\EAC Rips\2017-05 Mei\Various Artists - De Pre Historie 1983 (1992) [FLAC] {BMG 261.783}\07 - UB40 - Red Red Wine.wav
Peak level 96.6 % Extraction speed 8.1 X Track quality 100.0 % Test CRC 7FEFB211 Copy CRC 7FEFB211 Accurately ripped (confidence 7) [5F36D45D] (AR v2) Copy OK
Track 8
Filename E:\EAC Rips\2017-05 Mei\Various Artists - De Pre Historie 1983 (1992) [FLAC] {BMG 261.783}\08 - Bandolero - Paris Latino.wav
Peak level 88.5 % Extraction speed 8.9 X Track quality 100.0 % Test CRC 14C8A8B2 Copy CRC 14C8A8B2 Accurately ripped (confidence 7) [EEE56EE8] (AR v2) Copy OK
Track 9
Filename E:\EAC Rips\2017-05 Mei\Various Artists - De Pre Historie 1983 (1992) [FLAC] {BMG 261.783}\09 - Righeira - Vamos A La Playa.wav
Peak level 90.0 % Extraction speed 8.9 X Track quality 100.0 % Test CRC 093046EC Copy CRC 093046EC Accurately ripped (confidence 7) [8E25A035] (AR v2) Copy OK
Track 10
Filename E:\EAC Rips\2017-05 Mei\Various Artists - De Pre Historie 1983 (1992) [FLAC] {BMG 261.783}\10 - The Rock Steady Crew - Hey You (Rock Steady Crew).wav
Peak level 99.2 % Extraction speed 9.1 X Track quality 100.0 % Test CRC DF1BD916 Copy CRC DF1BD916 Accurately ripped (confidence 7) [FC505DA0] (AR v2) Copy OK
Track 11
Filename E:\EAC Rips\2017-05 Mei\Various Artists - De Pre Historie 1983 (1992) [FLAC] {BMG 261.783}\11 - Taco - Puttin' On The Ritz.wav
Peak level 91.4 % Extraction speed 9.6 X Track quality 100.0 % Test CRC 46728997 Copy CRC 46728997 Accurately ripped (confidence 7) [19591978] (AR v2) Copy OK
Track 12
Filename E:\EAC Rips\2017-05 Mei\Various Artists - De Pre Historie 1983 (1992) [FLAC] {BMG 261.783}\12 - Jimmy Cliff - Reaggae Nights.wav
Peak level 99.1 % Extraction speed 9.8 X Track quality 100.0 % Test CRC 7A87D0C7 Copy CRC 7A87D0C7 Accurately ripped (confidence 7) [29C180B5] (AR v2) Copy OK
Track 13
Filename E:\EAC Rips\2017-05 Mei\Various Artists - De Pre Historie 1983 (1992) [FLAC] {BMG 261.783}\13 - Freeez - I.O.U..wav
Peak level 99.2 % Extraction speed 10.0 X Track quality 100.0 % Test CRC EAA19FCA Copy CRC EAA19FCA Accurately ripped (confidence 7) [4607737F] (AR v2) Copy OK
Track 14
Filename E:\EAC Rips\2017-05 Mei\Various Artists - De Pre Historie 1983 (1992) [FLAC] {BMG 261.783}\14 - VOF De Kunst - Suzanne.wav
Peak level 97.1 % Extraction speed 10.4 X Track quality 100.0 % Test CRC E5CF58FC Copy CRC E5CF58FC Accurately ripped (confidence 7) [46BC21AF] (AR v2) Copy OK
Track 15
Filename E:\EAC Rips\2017-05 Mei\Various Artists - De Pre Historie 1983 (1992) [FLAC] {BMG 261.783}\15 - Nena - 99 Luftballons.wav
Peak level 84.7 % Extraction speed 10.1 X Track quality 100.0 % Test CRC CFDB09C0 Copy CRC CFDB09C0 Accurately ripped (confidence 7) [2CCF54D1] (AR v2) Copy OK
Track 16
Filename E:\EAC Rips\2017-05 Mei\Various Artists - De Pre Historie 1983 (1992) [FLAC] {BMG 261.783}\16 - Elton John - I Guess That's Why They Call It The Blues.wav
Peak level 96.0 % Extraction speed 4.0 X Track quality 99.8 % Test CRC 49A89404 Copy CRC 49A89404 Accurately ripped (confidence 6) [FC89613F] (AR v2) Copy OK
Track 17
Filename E:\EAC Rips\2017-05 Mei\Various Artists - De Pre Historie 1983 (1992) [FLAC] {BMG 261.783}\17 - Agnetha Fältskog - Wrap Your Arms Around Me.wav
Peak level 95.0 % Extraction speed 4.3 X Track quality 100.0 % Test CRC 4C987972 Copy CRC 4C987972 Accurately ripped (confidence 6) [D5C0C209] (AR v2) Copy OK
Track 18
Filename E:\EAC Rips\2017-05 Mei\Various Artists - De Pre Historie 1983 (1992) [FLAC] {BMG 261.783}\18 - Mike Oldfield - Moonlight Shadow.wav
Peak level 99.2 % Extraction speed 3.5 X Track quality 100.0 % Test CRC 5A144765 Copy CRC 5A144765 Accurately ripped (confidence 5) [2ED2B8D1] (AR v2) Copy OK
All tracks accurately ripped
No errors occurred
End of status report
---- CUETools DB Plugin V2.1.6
[CTDB TOCID: VQ0xYx0Ll3G2PQfey5WX7p4bk50-] foundSubmit result: VQ0xYx0Ll3G2PQfey5WX7p4bk50- has been confirmedTrack | CTDB Status 1 | (10/10) Accurately ripped 2 | (10/10) Accurately ripped 3 | (10/10) Accurately ripped 4 | (10/10) Accurately ripped 5 | (10/10) Accurately ripped 6 | (10/10) Accurately ripped 7 | (10/10) Accurately ripped 8 | (10/10) Accurately ripped 9 | (10/10) Accurately ripped 10 | (10/10) Accurately ripped 11 | (10/10) Accurately ripped 12 | ( 9/10) Accurately ripped 13 | (10/10) Accurately ripped 14 | (10/10) Accurately ripped 15 | (10/10) Accurately ripped 16 | (10/10) Accurately ripped 17 | ( 9/10) Accurately ripped, or (1/10) differs in 14 samples @02:20:64,02:21:32,02:22:44,02:22:65 18 | ( 9/10) Accurately ripped, or (1/10) differs in 103 samples @01:33:18,01:33:40,01:34:08-01:34:09,01:34:31,01:34:52-01:34:53,01:35:43-01:35:44,01:35:65,01:37:03,01:39:30,01:39:52,01:40:21,01:41:12,01:41:55,01:43:15,01:43:37
==== Log checksum 609B66A37D2F53CC800ABEABA3A44F9D3CB3D3AC681BB7C260D3A00723DAD802 ====

Содержание индексной карты (.CUE)

REM DATE 1992REM DISCID EF114812REM COMMENT "ExactAudioCopy v1.3"PERFORMER "Various Artists"TITLE "De Pre Historie 1983"REM COMPOSER ""FILE "01 - Kajagoogoo - Too Shy.wav" WAVE  TRACK 01 AUDIO    TITLE "Too Shy"    PERFORMER "Kajagoogoo"    REM COMPOSER ""    PREGAP 00:00:33    INDEX 01 00:00:00FILE "02 - Spandau Ballet - Gold.wav" WAVE  TRACK 02 AUDIO    TITLE "Gold"    PERFORMER "Spandau Ballet"    REM COMPOSER ""    INDEX 01 00:00:00FILE "03 - Bonnie Tyler - Total Eclipse Of The Heart.wav" WAVE  TRACK 03 AUDIO    TITLE "Total Eclipse Of The Heart"    PERFORMER "Bonnie Tyler"    REM COMPOSER ""    INDEX 01 00:00:00FILE "04 - The Alan Parsons Project - Eye In The Sky.wav" WAVE  TRACK 04 AUDIO    TITLE "Eye In The Sky"    PERFORMER "The Alan Parsons Project"    REM COMPOSER ""    INDEX 01 00:00:00FILE "05 - Dolly Parton - You Are.wav" WAVE  TRACK 05 AUDIO    TITLE "You Are"    PERFORMER "Dolly Parton"    REM COMPOSER ""    INDEX 01 00:00:00FILE "06 - Malcolm McLaren - Buffalo Gals.wav" WAVE  TRACK 06 AUDIO    TITLE "Buffalo Gals"    PERFORMER "Malcolm McLaren"    REM COMPOSER ""    INDEX 01 00:00:00FILE "07 - UB40 - Red Red Wine.wav" WAVE  TRACK 07 AUDIO    TITLE "Red Red Wine"    PERFORMER "UB40"    REM COMPOSER ""    INDEX 01 00:00:00FILE "08 - Bandolero - Paris Latino.wav" WAVE  TRACK 08 AUDIO    TITLE "Paris Latino"    PERFORMER "Bandolero"    REM COMPOSER ""    INDEX 01 00:00:00FILE "09 - Righeira - Vamos A La Playa.wav" WAVE  TRACK 09 AUDIO    TITLE "Vamos A La Playa"    PERFORMER "Righeira"    REM COMPOSER ""    INDEX 01 00:00:00FILE "10 - The Rock Steady Crew - Hey You (Rock Steady Crew).wav" WAVE  TRACK 10 AUDIO    TITLE "Hey You (Rock Steady Crew)"    PERFORMER "The Rock Steady Crew"    REM COMPOSER ""    INDEX 01 00:00:00FILE "11 - Taco - Puttin' On The Ritz.wav" WAVE  TRACK 11 AUDIO    TITLE "Puttin' On The Ritz"    PERFORMER "Taco"    REM COMPOSER ""    INDEX 01 00:00:00FILE "12 - Jimmy Cliff - Reaggae Nights.wav" WAVE  TRACK 12 AUDIO    TITLE "Reaggae Nights"    PERFORMER "Jimmy Cliff"    REM COMPOSER ""    INDEX 01 00:00:00FILE "13 - Freeez - I.O.U..wav" WAVE  TRACK 13 AUDIO    TITLE "I.O.U."    PERFORMER "Freeez"    REM COMPOSER ""    INDEX 01 00:00:00FILE "14 - VOF De Kunst - Suzanne.wav" WAVE  TRACK 14 AUDIO    TITLE "Suzanne"    PERFORMER "VOF De Kunst"    REM COMPOSER ""    INDEX 01 00:00:00FILE "15 - Nena - 99 Luftballons.wav" WAVE  TRACK 15 AUDIO    TITLE "99 Luftballons"    PERFORMER "Nena"    REM COMPOSER ""    INDEX 01 00:00:00FILE "16 - Elton John - I Guess That's Why They Call It The Blues.wav" WAVE  TRACK 16 AUDIO    TITLE "I Guess That's Why They Call It The Blues"    PERFORMER "Elton John"    REM COMPOSER ""    INDEX 01 00:00:00FILE "17 - Agnetha Faltskog - Wrap Your Arms Around Me.wav" WAVE  TRACK 17 AUDIO    TITLE "Wrap Your Arms Around Me"    PERFORMER "Agnetha Faltskog"    REM COMPOSER ""    INDEX 01 00:00:00FILE "18 - Mike Oldfield - Moonlight Shadow.wav" WAVE  TRACK 18 AUDIO    TITLE "Moonlight Shadow"    PERFORMER "Mike Oldfield"    REM COMPOSER ""    INDEX 01 00:00:00

AccurateRip

[CUETools log; Date: 21.10.2018 10:42:39; Version: 2.1.5]Pregap length 00:00:33.[CTDB TOCID: VQ0xYx0Ll3G2PQfey5WX7p4bk50-] found.Track | CTDB Status  1   | (22/22) Accurately ripped  2   | (22/22) Accurately ripped  3   | (22/22) Accurately ripped  4   | (22/22) Accurately ripped  5   | (22/22) Accurately ripped  6   | (22/22) Accurately ripped  7   | (22/22) Accurately ripped  8   | (22/22) Accurately ripped  9   | (22/22) Accurately ripped 10   | (22/22) Accurately ripped 11   | (22/22) Accurately ripped 12   | (21/22) Accurately ripped 13   | (22/22) Accurately ripped 14   | (22/22) Accurately ripped 15   | (22/22) Accurately ripped 16   | (22/22) Accurately ripped 17   | (21/22) Accurately ripped, or (1/22) differs in 14 samples @02:20:64,02:21:32,02:22:44,02:22:65 18   | (20/22) Accurately ripped, or (1/22) differs in 103 samples @01:33:18,01:33:40,01:34:08-01:34:09,01:34:31,01:34:52-01:34:53,01:35:43-01:35:44,01:35:65,01:37:03,01:39:30,01:39:52,01:40:21,01:41:12,01:41:55,01:43:15,01:43:37[AccurateRip ID: 0030414a-0283c305-ef114812] found.Track   [  CRC   |   V2   ] Status 01     [49c828e0|bbc2492a] (03+11/26) Accurately ripped 02     [1057e670|82f3b1c7] (03+11/26) Accurately ripped 03     [0cdbab70|32c4b316] (03+11/26) Accurately ripped 04     [8fd903f1|ddbe332d] (03+11/26) Accurately ripped 05     [7d368504|ca131d7e] (03+10/25) Accurately ripped 06     [d1f42f03|6bfe22e1] (03+10/24) Accurately ripped 07     [06346afd|5f36d45d] (03+11/26) Accurately ripped 08     [f46cf8e0|eee56ee8] (03+11/26) Accurately ripped 09     [1fb91e35|8e25a035] (03+11/26) Accurately ripped 10     [1696c6da|fc505da0] (03+11/25) Accurately ripped 11     [0924d83f|19591978] (03+11/26) Accurately ripped 12     [a488aa31|29c180b5] (03+11/26) Accurately ripped 13     [441cc0a4|4607737f] (03+11/25) Accurately ripped 14     [f0afa2d2|46bc21af] (03+11/25) Accurately ripped 15     [a19c36af|2ccf54d1] (03+11/26) Accurately ripped 16     [a2bf37d5|fc89613f] (03+10/25) Accurately ripped 17     [b016ffbd|d5c0c209] (03+10/24) Accurately ripped 18     [2bb6b446|2ed2b8d1] (02+09/23) Accurately rippedOffsetted by -1649: 01     [334f0ae0] (04/26) Accurately ripped 02     [3a9eba4e] (04/26) Accurately ripped 03     [3574c6aa] (04/26) Accurately ripped 04     [cc3bec8e] (04/26) Accurately ripped 05     [9315e001] (04/25) Accurately ripped 06     [74f47dfd] (03/24) Accurately ripped 07     [147a1141] (04/26) Accurately ripped 08     [75655de3] (04/26) Accurately ripped 09     [52fd2027] (04/26) Accurately ripped 10     [eb42b9d0] (03/25) Accurately ripped 11     [ec397024] (04/26) Accurately ripped 12     [d0dae45d] (04/26) Accurately ripped 13     [20844e1a] (03/25) Accurately ripped 14     [8282e41e] (03/25) Accurately ripped 15     [7b11121a] (04/26) Accurately ripped 16     [e4e1d799] (04/25) Accurately ripped 17     [82069477] (03/24) Accurately ripped 18     [a5b09097] (04/23) Accurately rippedOffsetted by -309: 01     [b32c92e0] (00/26) No match (V2 was not tested) 02     [eaef07c6] (00/26) No match (V2 was not tested) 03     [58edcd92] (00/26) No match (V2 was not tested) 04     [947cdc02] (00/26) No match (V2 was not tested) 05     [dec4f8f5] (00/25) No match (V2 was not tested) 06     [44ad255f] (00/24) No match (V2 was not tested) 07     [6697bc3b] (00/26) No match (V2 was not tested) 08     [c0d544ef] (00/26) No match (V2 was not tested) 09     [21b8f9ef] (00/26) No match (V2 was not tested) 10     [17a11ba8] (00/25) No match (V2 was not tested) 11     [83350e7d] (00/26) No match (V2 was not tested) 12     [3c22e350] (00/26) No match (V2 was not tested) 13     [2f081e7a] (00/25) No match (V2 was not tested) 14     [0782754e] (00/25) No match (V2 was not tested) 15     [84f6bac6] (00/26) No match (V2 was not tested) 16     [1a91daa9] (00/25) No match (V2 was not tested) 17     [b27b015f] (00/24) No match (V2 was not tested) 18     [cfffc2db] (00/23) No match (V2 was not tested)
Track Peak [ CRC32 ] [W/O NULL] [ LOG ] -- 99,2 [FE95086C] [578B83DB] 01 99,2 [BDE00EFA] [F1DBA022] CRC32 02 99,2 [C3793A75] [E8FB7694] CRC32 03 93,7 [2077D5AB] [ED561205] CRC32 04 90,9 [C38EC2F8] [45F5D619] CRC32 05 95,4 [540416A1] [36C8ECA9] CRC32 06 99,2 [07FE0746] [8D613AEE] CRC32 07 96,6 [7FEFB211] [8D91F764] CRC32 08 88,5 [14C8A8B2] [5B63849C] CRC32 09 90,0 [093046EC] [D666ACE3] CRC32 10 99,2 [DF1BD916] [39E473B1] CRC32 11 91,4 [46728997] [6F1D339A] CRC32 12 99,1 [7A87D0C7] [54F4ABF6] CRC32 13 99,2 [EAA19FCA] [D14A0489] CRC32 14 97,1 [E5CF58FC] [9A223FD8] CRC32 15 84,7 [CFDB09C0] [96307790] CRC32 16 96,0 [49A89404] [EB3D5936] CRC32 17 95,0 [4C987972] [C7B7E8B5] CRC32 18 99,2 [5A144765] [F6932F0F] CRC32
Вы не можете начинать темы
Вы не можете отвечать на сообщения
Вы не можете редактировать свои сообщения
Вы не можете удалять свои сообщения
Вы не можете голосовать в опросах
Вы не можете прикреплять файлы к сообщениям
Вы можете скачивать файлы
!ВНИМАНИЕ!

Сайт не предоставляет электронные версии произведений, а занимается лишь коллекционированием и каталогизацией ссылок, присылаемых и публикуемых на форуме нашими читателями. Если вы являетесь правообладателем какого-либо представленного материала и не желаете, чтобы ссылка на него находилась в нашем каталоге, свяжитесь с нами, и мы незамедлительно удалим ее. Файлы для обмена на трекере предоставлены пользователями сайта, и администрация не несет ответственности за их содержание. Просьба не заливать файлы, защищенные авторскими правами, а также файлы нелегального содержания!

Искали программы, игры, дополнения, музыка mp3, аниме, аудио книги, журналы? Добро пожаловать на свободный торрент трекер Torrents, у нас можно скачать бесплатно, без смс и регистрации и прочих ограничений лучшие, отборные сборки программ, игр. Скачать торрентом не составит труда даже не опытному пользователю. Раздачи ежедневно обновляются, только лучшие и качественные раздачи, подробные описания и скриншоты. Огромная коллекция программ для работы со звуком, графикой, дизайном, а так же множество плагинов и инструментов к ним с подробной инструкцией и рекомендациями. Прошивки для навигаторов, карты. Разнообразные игры, для Windows, Linux. В коллекцие есть и старые игры любых жанров, Rpg, Action, Shooter, strategy Множество дополнений, модификаций, сценариев для популярных игр в жанре экш, рпг, гонки, стратегии, логические игры. Множество аддонов и сценариев для Microsoft Flight Simulator Большая коллекция книг, учебников. Если нет возможности купить печатное издание - смело скачивайте цифровую версию книги или, быть может, журнала. Не любите читать - можно загрузить бесплатно аудикнигу. Для веб дизайнеров и программистов так же найдется множество специализированного софта, таких как: редакторы с подсветкой, среды программирования, компоненты, системы управления базами данных, разнообразные скрипты и шаблоны. Не так давно у нас появился материал для автолюбителей и владельцев мото - оригинальные и неоригинальные каталоги запчастей, книги и журналы по ремонту и обслуживанию, видеоуроки, статьи по чип тюнингу, прошивкам. Процедура получения контента элементарная, достаточно просто скачать торрент файл и добавить его в загрузку в вашем торрент клиенте. Если у вас нет специального торрент клиента, вы можете его скачать у нас.

Ruyi's Royal Love ... | 第22集 | Алексей Шевченков