(Various) [CD] VA - De Pre Historie 1988 [EMI/Virgin, 262.688, Belgium] - 1992, FLAC (tracks+.cue), lossless 

Цитировать
De Pre Historie 1988
Жанр: Various
Носитель: CD
Страна-производитель диска (релиза): Belgium
Год издания: 1992
Издатель (лейбл): EMI/Virgin
Номер по каталогу: 262.688
Аудиокодек: FLAC (*.flac)
Тип рипа: tracks+.cue
Битрейт аудио: lossless
Продолжительность: 01:15:10
Источник (релизер): From RED
Наличие сканов в содержимом раздачи: нет

Треклист:
01. Gianna Nannini – I Maschi
02. Bros – I Owe You Nothing
03. The Pasadenas – Tribute
04. Kylie Minogue – The Loco-Motion
05. Milli Vanilli – Girl You Know It's True
06. Rick Astley – She Wants To Dance With Me
07. Vaya Con Dios – Puerto Rico
08. Sade – Love Is Stronger Than Pride
09. Terence Trent D'Arby – Sign Your Name
10. Londonbeat – There's A Beat Going On
11. Womack & Womack – Teardrops
12. Eddy Grant – Gimme Hope Jo'Anna
13. Bobby McFerrin – Don't Worry Be Happy
14. Soulsister – The Way To Your Heart
15. Tom Jones & The Art Of Noise – Kiss
16. Glenn Medeiros – Nothing's Gonna Change My Love For You
17. Fairground Attraction – Perfect
18. Phil Collins – A Groovy Kind Of Love
19. Enya – Orinoco Flow

Лог создания рипа

Exact Audio Copy V1.3 from 2. September 2016
EAC extraction logfile from 21. May 2017, 15:22
Various Artists / De Pre Historie 1988
Used drive : ATAPI iHAS124 F Adapter: 1 ID: 1
Read mode : SecureUtilize accurate stream : YesDefeat audio cache : YesMake use of C2 pointers : No
Read offset correction : 6Overread into Lead-In and Lead-Out : NoFill up missing offset samples with silence : YesDelete leading and trailing silent blocks : NoNull samples used in CRC calculations : YesUsed interface : Native Win32 interface for Win NT & 2000Gap handling : Appended to previous track
Used output format : User Defined EncoderSelected bitrate : 1024 kBit/sQuality : HighAdd ID3 tag : NoCommand line compressor : C:\cmd.exeAdditional command line options : /c ""C:\F\CUETools.FLACCL.cmd.exe" -8 --verify %source% -o %dest% & "C:\M\metaflac.exe" --set-tag="ARTIST=%artist%" --set-tag="TITLE=%title%" --set-tag="ALBUM=%albumtitle%" --set-tag="DATE=%year%" --set-tag="TRACKNUMBER=%tracknr%" --set-tag="GENRE=%genre%" --set-tag="COMPOSER=%composer%" --set-tag="ALBUMARTIST=%albumartist%" %dest%"
TOC of the extracted CD
Track | Start | Length | Start sector | End sector --------------------------------------------------------- 1 | 0:00.32 | 4:26.40 | 32 | 20021 2 | 4:26.72 | 3:33.13 | 20022 | 36009 3 | 8:00.10 | 5:12.20 | 36010 | 59429 4 | 13:12.30 | 3:15.17 | 59430 | 74071 5 | 16:27.47 | 4:13.65 | 74072 | 93111 6 | 20:41.37 | 3:16.18 | 93112 | 107829 7 | 23:57.55 | 4:17.50 | 107830 | 127154 8 | 28:15.30 | 4:16.72 | 127155 | 146426 9 | 32:32.27 | 4:37.33 | 146427 | 167234 10 | 37:09.60 | 3:33.67 | 167235 | 183276 11 | 40:43.52 | 3:53.05 | 183277 | 200756 12 | 44:36.57 | 3:46.55 | 200757 | 217761 13 | 48:23.37 | 4:50.30 | 217762 | 239541 14 | 53:13.67 | 3:46.10 | 239542 | 256501 15 | 57:00.02 | 3:31.00 | 256502 | 272326 16 | 60:31.02 | 3:49.15 | 272327 | 289516 17 | 64:20.17 | 3:37.28 | 289517 | 305819 18 | 67:57.45 | 3:29.60 | 305820 | 321554 19 | 71:27.30 | 3:46.02 | 321555 | 338506
Track 1
Filename E:\EAC Rips\2017-05 Mei\Various Artists - De Pre Historie 1988 (1992) [FLAC] {BMG 262.688}\01 - Gianna Nannini - I Maschi.wav
Pre-gap length 0:00:02.32
Peak level 97.9 % Extraction speed 6.0 X Track quality 100.0 % Test CRC B0A35CB5 Copy CRC B0A35CB5 Accurately ripped (confidence 7) [A5326A4E] (AR v2) Copy OK
Track 2
Filename E:\EAC Rips\2017-05 Mei\Various Artists - De Pre Historie 1988 (1992) [FLAC] {BMG 262.688}\02 - Bros - I Owe You Nothing.wav
Peak level 95.7 % Extraction speed 6.3 X Track quality 100.0 % Test CRC 38DC1658 Copy CRC 38DC1658 Accurately ripped (confidence 7) [961C4951] (AR v2) Copy OK
Track 3
Filename E:\EAC Rips\2017-05 Mei\Various Artists - De Pre Historie 1988 (1992) [FLAC] {BMG 262.688}\03 - The Pasadenas - Tribute.wav
Peak level 82.7 % Extraction speed 7.2 X Track quality 100.0 % Test CRC 066E405C Copy CRC 066E405C Accurately ripped (confidence 7) [CE4D5628] (AR v2) Copy OK
Track 4
Filename E:\EAC Rips\2017-05 Mei\Various Artists - De Pre Historie 1988 (1992) [FLAC] {BMG 262.688}\04 - Kylie Minogue - The Loco-Motion.wav
Peak level 90.9 % Extraction speed 6.3 X Track quality 99.9 % Test CRC 453900EC Copy CRC 453900EC Accurately ripped (confidence 7) [B3633012] (AR v2) Copy OK
Track 5
Filename E:\EAC Rips\2017-05 Mei\Various Artists - De Pre Historie 1988 (1992) [FLAC] {BMG 262.688}\05 - Milli Vanilli - Girl You Know It’s True.wav
Peak level 78.2 % Extraction speed 8.0 X Track quality 100.0 % Test CRC B707A83D Copy CRC B707A83D Accurately ripped (confidence 7) [9FD47826] (AR v2) Copy OK
Track 6
Filename E:\EAC Rips\2017-05 Mei\Various Artists - De Pre Historie 1988 (1992) [FLAC] {BMG 262.688}\06 - Rick Astley - She Wants To Dance With Me.wav
Peak level 99.3 % Extraction speed 7.8 X Track quality 100.0 % Test CRC 12340C6C Copy CRC 12340C6C Accurately ripped (confidence 7) [44B8A111] (AR v2) Copy OK
Track 7
Filename E:\EAC Rips\2017-05 Mei\Various Artists - De Pre Historie 1988 (1992) [FLAC] {BMG 262.688}\07 - Vaya Con Dios - Puerto Rico.wav
Peak level 97.7 % Extraction speed 8.5 X Track quality 100.0 % Test CRC 86030B8B Copy CRC 86030B8B Accurately ripped (confidence 7) [AAF9F947] (AR v2) Copy OK
Track 8
Filename E:\EAC Rips\2017-05 Mei\Various Artists - De Pre Historie 1988 (1992) [FLAC] {BMG 262.688}\08 - Sade - Love Is Stronger Than Pride.wav
Peak level 85.6 % Extraction speed 8.2 X Track quality 99.9 % Test CRC C9ADC243 Copy CRC C9ADC243 Accurately ripped (confidence 7) [2E1A7D27] (AR v2) Copy OK
Track 9
Filename E:\EAC Rips\2017-05 Mei\Various Artists - De Pre Historie 1988 (1992) [FLAC] {BMG 262.688}\09 - Terence Trent D’Arby - Sign Your Name.wav
Peak level 100.0 % Extraction speed 9.5 X Track quality 100.0 % Test CRC 75CAD0D6 Copy CRC 75CAD0D6 Accurately ripped (confidence 7) [F8B6EB7B] (AR v2) Copy OK
Track 10
Filename E:\EAC Rips\2017-05 Mei\Various Artists - De Pre Historie 1988 (1992) [FLAC] {BMG 262.688}\10 - Londonbeat - There’S A Beat Going On.wav
Pre-gap length 0:00:00.55
Peak level 79.6 % Extraction speed 9.6 X Track quality 100.0 % Test CRC BD74EB6B Copy CRC BD74EB6B Accurately ripped (confidence 7) [85F0EC4D] (AR v2) Copy OK
Track 11
Filename E:\EAC Rips\2017-05 Mei\Various Artists - De Pre Historie 1988 (1992) [FLAC] {BMG 262.688}\11 - Womack & Womack - Teardrops.wav
Peak level 87.9 % Extraction speed 8.9 X Track quality 99.9 % Test CRC 8070660B Copy CRC 8070660B Accurately ripped (confidence 7) [AB142C0E] (AR v2) Copy OK
Track 12
Filename E:\EAC Rips\2017-05 Mei\Various Artists - De Pre Historie 1988 (1992) [FLAC] {BMG 262.688}\12 - Eddy Grant - Gimme Hope Jo’Anna.wav
Peak level 99.3 % Extraction speed 9.0 X Track quality 99.9 % Test CRC D19D3678 Copy CRC D19D3678 Accurately ripped (confidence 7) [739D5DC4] (AR v2) Copy OK
Track 13
Filename E:\EAC Rips\2017-05 Mei\Various Artists - De Pre Historie 1988 (1992) [FLAC] {BMG 262.688}\13 - Bobby McFerrin - Don’t Worry Be Happy.wav
Pre-gap length 0:00:01.00
Peak level 91.1 % Extraction speed 10.6 X Track quality 100.0 % Test CRC E86AFFA8 Copy CRC E86AFFA8 Accurately ripped (confidence 7) [EE770800] (AR v2) Copy OK
Track 14
Filename E:\EAC Rips\2017-05 Mei\Various Artists - De Pre Historie 1988 (1992) [FLAC] {BMG 262.688}\14 - Soulsister - The Way To Your Heart.wav
Peak level 96.9 % Extraction speed 10.4 X Track quality 100.0 % Test CRC E8F4019C Copy CRC E8F4019C Accurately ripped (confidence 7) [BD14A3AA] (AR v2) Copy OK
Track 15
Filename E:\EAC Rips\2017-05 Mei\Various Artists - De Pre Historie 1988 (1992) [FLAC] {BMG 262.688}\15 - Tom Jones & Art Of Noise - Kiss.wav
Peak level 97.1 % Extraction speed 10.8 X Track quality 100.0 % Test CRC D1732399 Copy CRC D1732399 Accurately ripped (confidence 6) [B4B21697] (AR v2) Copy OK
Track 16
Filename E:\EAC Rips\2017-05 Mei\Various Artists - De Pre Historie 1988 (1992) [FLAC] {BMG 262.688}\16 - Glenn Medeiros - Nothing’s Gonna Change My Love For You.wav
Peak level 67.9 % Extraction speed 11.2 X Track quality 100.0 % Test CRC 211166EC Copy CRC 211166EC Accurately ripped (confidence 7) [BF66F5DC] (AR v2) Copy OK
Track 17
Filename E:\EAC Rips\2017-05 Mei\Various Artists - De Pre Historie 1988 (1992) [FLAC] {BMG 262.688}\17 - Fairground Attraction - Perfect.wav
Peak level 99.2 % Extraction speed 11.1 X Track quality 100.0 % Test CRC CD3E9E09 Copy CRC CD3E9E09 Accurately ripped (confidence 7) [0374FF89] (AR v2) Copy OK
Track 18
Filename E:\EAC Rips\2017-05 Mei\Various Artists - De Pre Historie 1988 (1992) [FLAC] {BMG 262.688}\18 - Phil Collins - A Groovy Kind Of Love.wav
Peak level 87.7 % Extraction speed 9.8 X Track quality 99.9 % Test CRC 9114D079 Copy CRC 9114D079 Accurately ripped (confidence 7) [2AD6ADA8] (AR v2) Copy OK
Track 19
Filename E:\EAC Rips\2017-05 Mei\Various Artists - De Pre Historie 1988 (1992) [FLAC] {BMG 262.688}\19 - Enya - Orinoco Flow.wav
Pre-gap length 0:00:01.28
Peak level 99.2 % Extraction speed 11.5 X Track quality 100.0 % Test CRC 7048A3B7 Copy CRC 7048A3B7 Accurately ripped (confidence 7) [B08D5D59] (AR v2) Copy OK
All tracks accurately ripped
No errors occurred
End of status report
---- CUETools DB Plugin V2.1.6
[CTDB TOCID: U7bPOTvo4fraQeeSa86QVnditFY-] foundSubmit result: U7bPOTvo4fraQeeSa86QVnditFY- has been confirmedTrack | CTDB Status 1 | (11/12) Accurately ripped 2 | (12/12) Accurately ripped 3 | (12/12) Accurately ripped 4 | (12/12) Accurately ripped 5 | (11/12) Accurately ripped 6 | (12/12) Accurately ripped 7 | (12/12) Accurately ripped 8 | (12/12) Accurately ripped 9 | (12/12) Accurately ripped 10 | (12/12) Accurately ripped 11 | (11/12) Accurately ripped 12 | (12/12) Accurately ripped 13 | (11/12) Accurately ripped 14 | (10/12) Accurately ripped 15 | (11/12) Accurately ripped 16 | (11/12) Accurately ripped 17 | (11/12) Accurately ripped 18 | (11/12) Accurately ripped 19 | (10/12) Accurately ripped
==== Log checksum 95A9ED1A02473A8DE9383EC76D7FAADE2CF41D6189A9082BDECFDBE3748CBFFC ====

Содержание индексной карты (.CUE)

REM DATE 1992REM DISCID 3C11A113REM COMMENT "ExactAudioCopy v1.3"PERFORMER "Various Artists"TITLE "De Pre Historie 1988"REM COMPOSER ""FILE "01 - Gianna Nannini - I Maschi.wav" WAVE  TRACK 01 AUDIO    TITLE "I Maschi"    PERFORMER "Gianna Nannini"    REM COMPOSER ""    PREGAP 00:00:32    INDEX 01 00:00:00FILE "02 - Bros - I Owe You Nothing.wav" WAVE  TRACK 02 AUDIO    TITLE "I Owe You Nothing"    PERFORMER "Bros"    REM COMPOSER ""    INDEX 01 00:00:00FILE "03 - The Pasadenas - Tribute.wav" WAVE  TRACK 03 AUDIO    TITLE "Tribute"    PERFORMER "The Pasadenas"    REM COMPOSER ""    INDEX 01 00:00:00FILE "04 - Kylie Minogue - The Loco-Motion.wav" WAVE  TRACK 04 AUDIO    TITLE "The Loco-Motion"    PERFORMER "Kylie Minogue"    REM COMPOSER ""    INDEX 01 00:00:00FILE "05 - Milli Vanilli - Girl You Know It’s True.wav" WAVE  TRACK 05 AUDIO    TITLE "Girl You Know It’s True"    PERFORMER "Milli Vanilli"    REM COMPOSER ""    INDEX 01 00:00:00FILE "06 - Rick Astley - She Wants To Dance With Me.wav" WAVE  TRACK 06 AUDIO    TITLE "She Wants To Dance With Me"    PERFORMER "Rick Astley"    REM COMPOSER ""    INDEX 01 00:00:00FILE "07 - Vaya Con Dios - Puerto Rico.wav" WAVE  TRACK 07 AUDIO    TITLE "Puerto Rico"    PERFORMER "Vaya Con Dios"    REM COMPOSER ""    INDEX 01 00:00:00FILE "08 - Sade - Love Is Stronger Than Pride.wav" WAVE  TRACK 08 AUDIO    TITLE "Love Is Stronger Than Pride"    PERFORMER "Sade"    REM COMPOSER ""    INDEX 01 00:00:00FILE "09 - Terence Trent D’Arby - Sign Your Name.wav" WAVE  TRACK 09 AUDIO    TITLE "Sign Your Name"    PERFORMER "Terence Trent D’Arby"    REM COMPOSER ""    INDEX 01 00:00:00  TRACK 10 AUDIO    TITLE "There’S A Beat Going On"    PERFORMER "Londonbeat"    REM COMPOSER ""    INDEX 00 04:36:53FILE "10 - Londonbeat - There’S A Beat Going On.wav" WAVE    INDEX 01 00:00:00FILE "11 - Womack & Womack - Teardrops.wav" WAVE  TRACK 11 AUDIO    TITLE "Teardrops"    PERFORMER "Womack & Womack"    REM COMPOSER ""    INDEX 01 00:00:00FILE "12 - Eddy Grant - Gimme Hope Jo’Anna.wav" WAVE  TRACK 12 AUDIO    TITLE "Gimme Hope Jo’Anna"    PERFORMER "Eddy Grant"    REM COMPOSER ""    INDEX 01 00:00:00  TRACK 13 AUDIO    TITLE "Don’t Worry Be Happy"    PERFORMER "Bobby McFerrin"    REM COMPOSER ""    INDEX 00 03:45:55FILE "13 - Bobby McFerrin - Don’t Worry Be Happy.wav" WAVE    INDEX 01 00:00:00FILE "14 - Soulsister - The Way To Your Heart.wav" WAVE  TRACK 14 AUDIO    TITLE "The Way To Your Heart"    PERFORMER "Soulsister"    REM COMPOSER ""    INDEX 01 00:00:00FILE "15 - Tom Jones & Art Of Noise - Kiss.wav" WAVE  TRACK 15 AUDIO    TITLE "Kiss"    PERFORMER "Tom Jones & Art Of Noise"    REM COMPOSER ""    INDEX 01 00:00:00FILE "16 - Glenn Medeiros - Nothing’s Gonna Change My Love For You.wav" WAVE  TRACK 16 AUDIO    TITLE "Nothing’s Gonna Change My Love For You"    PERFORMER "Glenn Medeiros"    REM COMPOSER ""    INDEX 01 00:00:00FILE "17 - Fairground Attraction - Perfect.wav" WAVE  TRACK 17 AUDIO    TITLE "Perfect"    PERFORMER "Fairground Attraction"    REM COMPOSER ""    INDEX 01 00:00:00FILE "18 - Phil Collins - A Groovy Kind Of Love.wav" WAVE  TRACK 18 AUDIO    TITLE "A Groovy Kind Of Love"    PERFORMER "Phil Collins"    REM COMPOSER ""    INDEX 01 00:00:00  TRACK 19 AUDIO    TITLE "Orinoco Flow"    PERFORMER "Enya"    REM COMPOSER ""    INDEX 00 03:28:32FILE "19 - Enya - Orinoco Flow.wav" WAVE    INDEX 01 00:00:00

AccurateRip

[CUETools log; Date: 21.10.2018 17:50:11; Version: 2.1.5]Pregap length 00:00:32.[CTDB TOCID: U7bPOTvo4fraQeeSa86QVnditFY-] found.Track | CTDB Status  1   | (22/23) Accurately ripped  2   | (23/23) Accurately ripped  3   | (23/23) Accurately ripped  4   | (23/23) Accurately ripped  5   | (22/23) Accurately ripped  6   | (23/23) Accurately ripped  7   | (23/23) Accurately ripped  8   | (23/23) Accurately ripped  9   | (23/23) Accurately ripped 10   | (23/23) Accurately ripped 11   | (22/23) Accurately ripped 12   | (23/23) Accurately ripped 13   | (22/23) Accurately ripped 14   | (21/23) Accurately ripped 15   | (22/23) Accurately ripped 16   | (22/23) Accurately ripped 17   | (22/23) Accurately ripped 18   | (22/23) Accurately ripped 19   | (21/23) Accurately ripped[AccurateRip ID: 0034bf7b-02df705a-3c11a113] found.Track   [  CRC   |   V2   ] Status 01     [86f5d619|a5326a4e] (08+11/19) Accurately ripped 02     [2277320b|961c4951] (08+11/19) Accurately ripped 03     [e913a4de|ce4d5628] (08+11/19) Accurately ripped 04     [b289aa48|b3633012] (08+11/19) Accurately ripped 05     [7ef5a692|9fd47826] (07+11/18) Accurately ripped 06     [2af16f9b|44b8a111] (07+11/18) Accurately ripped 07     [afc144b2|aaf9f947] (08+11/19) Accurately ripped 08     [43999ffa|2e1a7d27] (08+11/19) Accurately ripped 09     [d3f415bb|f8b6eb7b] (07+11/18) Accurately ripped 10     [a865c4ed|85f0ec4d] (08+11/19) Accurately ripped 11     [c922e223|ab142c0e] (08+11/19) Accurately ripped 12     [f4ee485c|739d5dc4] (08+11/19) Accurately ripped 13     [174ba8e2|ee770800] (08+11/19) Accurately ripped 14     [76d8f13a|bd14a3aa] (07+11/18) Accurately ripped 15     [1df356d1|b4b21697] (08+10/18) Accurately ripped 16     [158dda70|bf66f5dc] (08+11/19) Accurately ripped 17     [e23683cf|0374ff89] (08+11/19) Accurately ripped 18     [f6e13812|2ad6ada8] (08+11/19) Accurately ripped 19     [60fa6e10|b08d5d59] (07+11/18) Accurately ripped
Track Peak [ CRC32 ] [W/O NULL] [ LOG ] -- 100,0 [968339B3] [8A5DA658] 01 97,8 [B0A35CB5] [585CB50F] CRC32 02 95,7 [38DC1658] [F4EBF314] CRC32 03 82,7 [066E405C] [34FAD5E2] CRC32 04 90,9 [453900EC] [300DC903] CRC32 05 78,2 [B707A83D] [220046DE] CRC32 06 99,3 [12340C6C] [B802863D] CRC32 07 97,7 [86030B8B] [DF180B9A] CRC32 08 85,6 [C9ADC243] [427AAE2F] CRC32 09 100,0 [75CAD0D6] [9FEE1368] CRC32 10 79,6 [BD74EB6B] [C14A825D] CRC32 11 87,9 [8070660B] [86195C8C] CRC32 12 99,3 [D19D3678] [84BEFBBE] CRC32 13 91,1 [E86AFFA8] [04BFACD6] CRC32 14 96,9 [E8F4019C] [66C8D825] CRC32 15 97,1 [D1732399] [11C68397] CRC32 16 67,9 [211166EC] [787408DE] CRC32 17 99,2 [CD3E9E09] [405133AB] CRC32 18 87,7 [9114D079] [1966FFFD] CRC32 19 99,2 [7048A3B7] [FBAC3ABD] CRC32
Вы не можете начинать темы
Вы не можете отвечать на сообщения
Вы не можете редактировать свои сообщения
Вы не можете удалять свои сообщения
Вы не можете голосовать в опросах
Вы не можете прикреплять файлы к сообщениям
Вы можете скачивать файлы
!ВНИМАНИЕ!

Сайт не предоставляет электронные версии произведений, а занимается лишь коллекционированием и каталогизацией ссылок, присылаемых и публикуемых на форуме нашими читателями. Если вы являетесь правообладателем какого-либо представленного материала и не желаете, чтобы ссылка на него находилась в нашем каталоге, свяжитесь с нами, и мы незамедлительно удалим ее. Файлы для обмена на трекере предоставлены пользователями сайта, и администрация не несет ответственности за их содержание. Просьба не заливать файлы, защищенные авторскими правами, а также файлы нелегального содержания!

Искали программы, игры, дополнения, музыка mp3, аниме, аудио книги, журналы? Добро пожаловать на свободный торрент трекер Torrents, у нас можно скачать бесплатно, без смс и регистрации и прочих ограничений лучшие, отборные сборки программ, игр. Скачать торрентом не составит труда даже не опытному пользователю. Раздачи ежедневно обновляются, только лучшие и качественные раздачи, подробные описания и скриншоты. Огромная коллекция программ для работы со звуком, графикой, дизайном, а так же множество плагинов и инструментов к ним с подробной инструкцией и рекомендациями. Прошивки для навигаторов, карты. Разнообразные игры, для Windows, Linux. В коллекцие есть и старые игры любых жанров, Rpg, Action, Shooter, strategy Множество дополнений, модификаций, сценариев для популярных игр в жанре экш, рпг, гонки, стратегии, логические игры. Множество аддонов и сценариев для Microsoft Flight Simulator Большая коллекция книг, учебников. Если нет возможности купить печатное издание - смело скачивайте цифровую версию книги или, быть может, журнала. Не любите читать - можно загрузить бесплатно аудикнигу. Для веб дизайнеров и программистов так же найдется множество специализированного софта, таких как: редакторы с подсветкой, среды программирования, компоненты, системы управления базами данных, разнообразные скрипты и шаблоны. Не так давно у нас появился материал для автолюбителей и владельцев мото - оригинальные и неоригинальные каталоги запчастей, книги и журналы по ремонту и обслуживанию, видеоуроки, статьи по чип тюнингу, прошивкам. Процедура получения контента элементарная, достаточно просто скачать торрент файл и добавить его в загрузку в вашем торрент клиенте. Если у вас нет специального торрент клиента, вы можете его скачать у нас.

Jeux Wii | 7.0 Legend (2015) BluRay | 我的“狐朋狗友” 5.4