(Various) [CD] VA - De Pre Historie 1977 [EMI/Virgin, 260.749, Belgium] - 1991, FLAC (tracks+.cue), lossless 

Цитировать
De Pre Historie 1977
Жанр: Various
Носитель: CD
Страна-производитель диска (релиза): Belgium
Год издания: 1991
Издатель (лейбл): EMI/Virgin
Номер по каталогу: 260.749
Аудиокодек: FLAC (*.flac)
Тип рипа: tracks+.cue
Битрейт аудио: lossless
Продолжительность: 01:14:05
Источник (релизер): From RED
Наличие сканов в содержимом раздачи: нет

Треклист:
01. ABBA – Knowing Me, Knowing You
02. John Paul Young – Love Is In The Air
03. Al Stewart – Year Of The Cat
04. Smokie – Living Next Door To Alice
05. Baccara – Yes Sir, I Can Boogie
06. Boney M – Belfast
07. Marie Myriam – L'Oiseau Et L'Enfant
08. Raymond Van Het Groenewoud – Meisjes
09. Hot Chocolate – So You Win Again
10. Thelma Houston – Don't Leave Me This Way
11. Trammps – Disco Inferno
12. Will Tura – Goodbye Elvis
13. Crystal Gayle – Don't It Make My Brown Eyes Blue
14. The Bee Gees – How Deep Is Your Love
15. Mary MacGregor – Torn Between Two Lovers
16. Leo Sayer – When I Need You
17. Elkie Brooks – Pearl's A Singer
18. Peter Gabriel – Solsbury Hill
19. Jonathan Richman – Egyptian Reggae
20. The Eagles – Hotel California

Лог создания рипа

Exact Audio Copy V1.3 from 2. September 2016
EAC extraction logfile from 19. May 2017, 17:52
Various Artists / De Pre Historie 1977
Used drive : ATAPI iHAS124 F Adapter: 1 ID: 2
Read mode : SecureUtilize accurate stream : YesDefeat audio cache : YesMake use of C2 pointers : No
Read offset correction : 6Overread into Lead-In and Lead-Out : NoFill up missing offset samples with silence : YesDelete leading and trailing silent blocks : NoNull samples used in CRC calculations : YesUsed interface : Native Win32 interface for Win NT & 2000Gap handling : Appended to previous track
Used output format : User Defined EncoderSelected bitrate : 1024 kBit/sQuality : HighAdd ID3 tag : NoCommand line compressor : C:\cmd.exeAdditional command line options : /c ""C:\F\CUETools.FLACCL.cmd.exe" -8 --verify %source% -o %dest% & "C:\M\metaflac.exe" --set-tag="ARTIST=%artist%" --set-tag="TITLE=%title%" --set-tag="ALBUM=%albumtitle%" --set-tag="DATE=%year%" --set-tag="TRACKNUMBER=%tracknr%" --set-tag="GENRE=%genre%" --set-tag="COMPOSER=%composer%" --set-tag="ALBUMARTIST=%albumartist%" %dest%"
TOC of the extracted CD
Track | Start | Length | Start sector | End sector --------------------------------------------------------- 1 | 0:00.33 | 4:01.52 | 33 | 18159 2 | 4:02.10 | 3:25.30 | 18160 | 33564 3 | 7:27.40 | 3:23.58 | 33565 | 48847 4 | 10:51.23 | 3:28.65 | 48848 | 64512 5 | 14:20.13 | 4:31.40 | 64513 | 84877 6 | 18:51.53 | 2:26.30 | 84878 | 95857 7 | 21:18.08 | 3:04.12 | 95858 | 109669 8 | 24:22.20 | 4:37.28 | 109670 | 130472 9 | 28:59.48 | 4:28.55 | 130473 | 150627 10 | 33:28.28 | 3:36.47 | 150628 | 166874 11 | 37:05.00 | 3:36.38 | 166875 | 183112 12 | 40:41.38 | 2:55.70 | 183113 | 196307 13 | 43:37.33 | 2:32.30 | 196308 | 207737 14 | 46:09.63 | 3:30.07 | 207738 | 223494 15 | 49:39.70 | 3:42.58 | 223495 | 240202 16 | 53:22.53 | 4:04.32 | 240203 | 258534 17 | 57:27.10 | 3:38.05 | 258535 | 274889 18 | 61:05.15 | 4:19.40 | 274890 | 294354 19 | 65:24.55 | 2:36.08 | 294355 | 306062 20 | 68:00.63 | 6:29.45 | 306063 | 335282
Track 1
Filename E:\EAC Rips\2017-05 Mei\Various Artists - De Pre Historie 1977 (1991) [FLAC] {BMG 260.749}\01 - ABBA - Knowing Me, Knowing You.wav
Pre-gap length 0:00:02.33
Peak level 96.8 % Extraction speed 1.9 X Track quality 99.9 % Test CRC E45E7B28 Copy CRC E45E7B28 Accurately ripped (confidence 2) [79C7B0C7] (AR v2) Copy OK
Track 2
Filename E:\EAC Rips\2017-05 Mei\Various Artists - De Pre Historie 1977 (1991) [FLAC] {BMG 260.749}\02 - John Paul Young - Love Is In The Air.wav
Pre-gap length 0:00:01.52
Peak level 80.5 % Extraction speed 2.3 X Track quality 100.0 % Test CRC FEEB25A1 Copy CRC FEEB25A1 Accurately ripped (confidence 2) [F9C3724F] (AR v2) Copy OK
Track 3
Filename E:\EAC Rips\2017-05 Mei\Various Artists - De Pre Historie 1977 (1991) [FLAC] {BMG 260.749}\03 - Al Stewart - Year Of The Cat.wav
Pre-gap length 0:00:01.32
Peak level 87.0 % Extraction speed 2.4 X Track quality 100.0 % Test CRC 5D59FB31 Copy CRC 5D59FB31 Accurately ripped (confidence 2) [6820E2B9] (AR v2) Copy OK
Track 4
Filename E:\EAC Rips\2017-05 Mei\Various Artists - De Pre Historie 1977 (1991) [FLAC] {BMG 260.749}\04 - Smokie - Living Next Door To Alice.wav
Pre-gap length 0:00:01.40
Peak level 90.8 % Extraction speed 2.6 X Track quality 100.0 % Test CRC D2AD7765 Copy CRC D2AD7765 Accurately ripped (confidence 2) [F800EC30] (AR v2) Copy OK
Track 5
Filename E:\EAC Rips\2017-05 Mei\Various Artists - De Pre Historie 1977 (1991) [FLAC] {BMG 260.749}\05 - Baccara - Yes Sir I Can Boogie.wav
Pre-gap length 0:00:01.55
Peak level 67.6 % Extraction speed 2.9 X Track quality 100.0 % Test CRC F3CDB667 Copy CRC F3CDB667 Accurately ripped (confidence 2) [3B88927B] (AR v2) Copy OK
Track 6
Filename E:\EAC Rips\2017-05 Mei\Various Artists - De Pre Historie 1977 (1991) [FLAC] {BMG 260.749}\06 - Boney M. - Belfast.wav
Pre-gap length 0:00:01.45
Peak level 84.4 % Extraction speed 2.3 X Track quality 99.9 % Test CRC 07AFF2A5 Copy CRC 07AFF2A5 Accurately ripped (confidence 2) [E1855FC7] (AR v2) Copy OK
Track 7
Filename E:\EAC Rips\2017-05 Mei\Various Artists - De Pre Historie 1977 (1991) [FLAC] {BMG 260.749}\07 - Marie Myriam - L'Oiseau Et L'enfant.wav
Pre-gap length 0:00:01.00
Peak level 77.3 % Extraction speed 2.9 X Track quality 100.0 % Test CRC 4B1BAB51 Copy CRC 4B1BAB51 Accurately ripped (confidence 2) [EC82A633] (AR v2) Copy OK
Track 8
Filename E:\EAC Rips\2017-05 Mei\Various Artists - De Pre Historie 1977 (1991) [FLAC] {BMG 260.749}\08 - Raymond Van Het Groenewoud - Meisjes.wav
Pre-gap length 0:00:01.12
Peak level 73.5 % Extraction speed 3.3 X Track quality 100.0 % Test CRC 78108052 Copy CRC 78108052 Accurately ripped (confidence 2) [3A039FC1] (AR v2) Copy OK
Track 9
Filename E:\EAC Rips\2017-05 Mei\Various Artists - De Pre Historie 1977 (1991) [FLAC] {BMG 260.749}\09 - Hot Chocolate - So You Win Again.wav
Pre-gap length 0:00:01.15
Peak level 69.6 % Extraction speed 3.4 X Track quality 100.0 % Test CRC F933BAAC Copy CRC F933BAAC Accurately ripped (confidence 2) [7AF3B610] (AR v2) Copy OK
Track 10
Filename E:\EAC Rips\2017-05 Mei\Various Artists - De Pre Historie 1977 (1991) [FLAC] {BMG 260.749}\10 - Thelma Houston - Don't Leave Me This Way.wav
Pre-gap length 0:00:01.20
Peak level 84.7 % Extraction speed 3.4 X Track quality 100.0 % Test CRC A194D80D Copy CRC A194D80D Accurately ripped (confidence 2) [56A45C79] (AR v2) Copy OK
Track 11
Filename E:\EAC Rips\2017-05 Mei\Various Artists - De Pre Historie 1977 (1991) [FLAC] {BMG 260.749}\11 - The Trammps - Disco Inferno.wav
Pre-gap length 0:00:01.17
Peak level 80.1 % Extraction speed 3.6 X Track quality 100.0 % Test CRC 902C07C4 Copy CRC 902C07C4 Accurately ripped (confidence 2) [8113FF66] (AR v2) Copy OK
Track 12
Filename E:\EAC Rips\2017-05 Mei\Various Artists - De Pre Historie 1977 (1991) [FLAC] {BMG 260.749}\12 - Will Tura - Goodbye Elvis.wav
Pre-gap length 0:00:01.05
Peak level 70.7 % Extraction speed 3.0 X Track quality 99.9 % Test CRC A21C680F Copy CRC A21C680F Accurately ripped (confidence 2) [3BB3AA90] (AR v2) Copy OK
Track 13
Filename E:\EAC Rips\2017-05 Mei\Various Artists - De Pre Historie 1977 (1991) [FLAC] {BMG 260.749}\13 - Crystal Gayle - Don't It Make My Brown Eyes Blue.wav
Pre-gap length 0:00:01.50
Peak level 57.9 % Extraction speed 3.0 X Track quality 99.9 % Test CRC 2D8BCE9F Copy CRC 2D8BCE9F Accurately ripped (confidence 2) [1745DCE5] (AR v2) Copy OK
Track 14
Filename E:\EAC Rips\2017-05 Mei\Various Artists - De Pre Historie 1977 (1991) [FLAC] {BMG 260.749}\14 - Bee Gees - How Deep Is Your Love.wav
Pre-gap length 0:00:00.55
Peak level 75.3 % Extraction speed 3.8 X Track quality 100.0 % Test CRC 0F021699 Copy CRC 0F021699 Accurately ripped (confidence 2) [92AB7535] (AR v2) Copy OK
Track 15
Filename E:\EAC Rips\2017-05 Mei\Various Artists - De Pre Historie 1977 (1991) [FLAC] {BMG 260.749}\15 - Mary MacGregor - Torn Between Two Lovers.wav
Pre-gap length 0:00:01.37
Peak level 99.2 % Extraction speed 3.5 X Track quality 99.9 % Test CRC 016CA3C3 Copy CRC 016CA3C3 Accurately ripped (confidence 2) [EBE652BD] (AR v2) Copy OK
Track 16
Filename E:\EAC Rips\2017-05 Mei\Various Artists - De Pre Historie 1977 (1991) [FLAC] {BMG 260.749}\16 - Leo Sayer - When I Need You.wav
Pre-gap length 0:00:01.20
Peak level 98.0 % Extraction speed 4.1 X Track quality 100.0 % Test CRC 01F9EA88 Copy CRC 01F9EA88 Accurately ripped (confidence 2) [B7A7D1D0] (AR v2) Copy OK
Track 17
Filename E:\EAC Rips\2017-05 Mei\Various Artists - De Pre Historie 1977 (1991) [FLAC] {BMG 260.749}\17 - Elkie Brooks - Pearl's A Singer.wav
Pre-gap length 0:00:01.27
Peak level 92.2 % Extraction speed 4.2 X Track quality 100.0 % Test CRC A88BD899 Copy CRC A88BD899 Accurately ripped (confidence 2) [93033014] (AR v2) Copy OK
Track 18
Filename E:\EAC Rips\2017-05 Mei\Various Artists - De Pre Historie 1977 (1991) [FLAC] {BMG 260.749}\18 - Peter Gabriel - Solsbury Hill.wav
Pre-gap length 0:00:00.57
Peak level 95.6 % Extraction speed 4.3 X Track quality 100.0 % Test CRC 51FF7CE6 Copy CRC 51FF7CE6 Accurately ripped (confidence 2) [1A2DECD9] (AR v2) Copy OK
Track 19
Filename E:\EAC Rips\2017-05 Mei\Various Artists - De Pre Historie 1977 (1991) [FLAC] {BMG 260.749}\19 - Jonathan Richman - Egyptian Reggae.wav
Pre-gap length 0:00:01.22
Peak level 98.4 % Extraction speed 4.1 X Track quality 100.0 % Test CRC A0093831 Copy CRC A0093831 Accurately ripped (confidence 2) [DABBD46C] (AR v2) Copy OK
Track 20
Filename E:\EAC Rips\2017-05 Mei\Various Artists - De Pre Historie 1977 (1991) [FLAC] {BMG 260.749}\20 - Eagles - Hotel California.wav
Pre-gap length 0:00:01.30
Peak level 96.1 % Extraction speed 4.8 X Track quality 100.0 % Test CRC 1D0F62AD Copy CRC 1D0F62AD Accurately ripped (confidence 2) [2B8FBFF1] (AR v2) Copy OK
All tracks accurately ripped
No errors occurred
End of status report
---- CUETools DB Plugin V2.1.6
[CTDB TOCID: eDKChsthU8ZavbCWhxtTenMg2eY-] foundSubmit result: eDKChsthU8ZavbCWhxtTenMg2eY- has been confirmedTrack | CTDB Status 1 | ( 9/10) Accurately ripped 2 | ( 9/10) Accurately ripped 3 | ( 9/10) Accurately ripped 4 | ( 9/10) Accurately ripped 5 | ( 9/10) Accurately ripped 6 | ( 9/10) Accurately ripped 7 | ( 9/10) Accurately ripped 8 | ( 9/10) Accurately ripped 9 | ( 9/10) Accurately ripped 10 | ( 9/10) Accurately ripped 11 | ( 9/10) Accurately ripped 12 | ( 9/10) Accurately ripped 13 | ( 9/10) Accurately ripped 14 | ( 9/10) Accurately ripped 15 | ( 9/10) Accurately ripped 16 | ( 9/10) Accurately ripped 17 | ( 9/10) Accurately ripped 18 | ( 9/10) Accurately ripped 19 | ( 9/10) Accurately ripped 20 | ( 9/10) Accurately ripped
==== Log checksum EBEA70846DF3E61A4EFA88244A26C4D942BD299075D038315DFFC614B2C119A2 ====

Содержание индексной карты (.CUE)

REM DATE 1991REM DISCID 14117614REM COMMENT "ExactAudioCopy v1.3"PERFORMER "Various Artists"TITLE "De Pre Historie 1977"REM COMPOSER ""FILE "01 - ABBA - Knowing Me, Knowing You.wav" WAVE  TRACK 01 AUDIO    TITLE "Knowing Me, Knowing You"    PERFORMER "ABBA"    REM COMPOSER ""    PREGAP 00:00:33    INDEX 01 00:00:00  TRACK 02 AUDIO    TITLE "Love Is In The Air"    PERFORMER "John Paul Young"    REM COMPOSER ""    INDEX 00 04:00:00FILE "02 - John Paul Young - Love Is In The Air.wav" WAVE    INDEX 01 00:00:00  TRACK 03 AUDIO    TITLE "Year Of The Cat"    PERFORMER "Al Stewart"    REM COMPOSER ""    INDEX 00 03:23:73FILE "03 - Al Stewart - Year Of The Cat.wav" WAVE    INDEX 01 00:00:00  TRACK 04 AUDIO    TITLE "Living Next Door To Alice"    PERFORMER "Smokie"    REM COMPOSER ""    INDEX 00 03:22:18FILE "04 - Smokie - Living Next Door To Alice.wav" WAVE    INDEX 01 00:00:00  TRACK 05 AUDIO    TITLE "Yes Sir I Can Boogie"    PERFORMER "Baccara"    REM COMPOSER ""    INDEX 00 03:27:10FILE "05 - Baccara - Yes Sir I Can Boogie.wav" WAVE    INDEX 01 00:00:00  TRACK 06 AUDIO    TITLE "Belfast"    PERFORMER "Boney M."    REM COMPOSER ""    INDEX 00 04:29:70FILE "06 - Boney M. - Belfast.wav" WAVE    INDEX 01 00:00:00  TRACK 07 AUDIO    TITLE "L'Oiseau Et L'enfant"    PERFORMER "Marie Myriam"    REM COMPOSER ""    INDEX 00 02:25:30FILE "07 - Marie Myriam - L'Oiseau Et L'enfant.wav" WAVE    INDEX 01 00:00:00  TRACK 08 AUDIO    TITLE "Meisjes"    PERFORMER "Raymond Van Het Groenewoud"    REM COMPOSER ""    INDEX 00 03:03:00FILE "08 - Raymond Van Het Groenewoud - Meisjes.wav" WAVE    INDEX 01 00:00:00  TRACK 09 AUDIO    TITLE "So You Win Again"    PERFORMER "Hot Chocolate"    REM COMPOSER ""    INDEX 00 04:36:13FILE "09 - Hot Chocolate - So You Win Again.wav" WAVE    INDEX 01 00:00:00  TRACK 10 AUDIO    TITLE "Don't Leave Me This Way"    PERFORMER "Thelma Houston"    REM COMPOSER ""    INDEX 00 04:27:35FILE "10 - Thelma Houston - Don't Leave Me This Way.wav" WAVE    INDEX 01 00:00:00  TRACK 11 AUDIO    TITLE "Disco Inferno"    PERFORMER "The Trammps"    REM COMPOSER ""    INDEX 00 03:35:30FILE "11 - The Trammps - Disco Inferno.wav" WAVE    INDEX 01 00:00:00  TRACK 12 AUDIO    TITLE "Goodbye Elvis"    PERFORMER "Will Tura"    REM COMPOSER ""    INDEX 00 03:35:33FILE "12 - Will Tura - Goodbye Elvis.wav" WAVE    INDEX 01 00:00:00  TRACK 13 AUDIO    TITLE "Don't It Make My Brown Eyes Blue"    PERFORMER "Crystal Gayle"    REM COMPOSER ""    INDEX 00 02:54:20FILE "13 - Crystal Gayle - Don't It Make My Brown Eyes Blue.wav" WAVE    INDEX 01 00:00:00  TRACK 14 AUDIO    TITLE "How Deep Is Your Love"    PERFORMER "Bee Gees"    REM COMPOSER ""    INDEX 00 02:31:50FILE "14 - Bee Gees - How Deep Is Your Love.wav" WAVE    INDEX 01 00:00:00  TRACK 15 AUDIO    TITLE "Torn Between Two Lovers"    PERFORMER "Mary MacGregor"    REM COMPOSER ""    INDEX 00 03:28:45FILE "15 - Mary MacGregor - Torn Between Two Lovers.wav" WAVE    INDEX 01 00:00:00  TRACK 16 AUDIO    TITLE "When I Need You"    PERFORMER "Leo Sayer"    REM COMPOSER ""    INDEX 00 03:41:38FILE "16 - Leo Sayer - When I Need You.wav" WAVE    INDEX 01 00:00:00  TRACK 17 AUDIO    TITLE "Pearl's A Singer"    PERFORMER "Elkie Brooks"    REM COMPOSER ""    INDEX 00 04:03:05FILE "17 - Elkie Brooks - Pearl's A Singer.wav" WAVE    INDEX 01 00:00:00  TRACK 18 AUDIO    TITLE "Solsbury Hill"    PERFORMER "Peter Gabriel"    REM COMPOSER ""    INDEX 00 03:37:23FILE "18 - Peter Gabriel - Solsbury Hill.wav" WAVE    INDEX 01 00:00:00  TRACK 19 AUDIO    TITLE "Egyptian Reggae"    PERFORMER "Jonathan Richman"    REM COMPOSER ""    INDEX 00 04:18:18FILE "19 - Jonathan Richman - Egyptian Reggae.wav" WAVE    INDEX 01 00:00:00  TRACK 20 AUDIO    TITLE "Hotel California"    PERFORMER "Eagles"    REM COMPOSER ""    INDEX 00 02:34:53FILE "20 - Eagles - Hotel California.wav" WAVE    INDEX 01 00:00:00

AccurateRip

[CUETools log; Date: 20.10.2018 17:51:01; Version: 2.1.5]Pregap length 00:00:33.[CTDB TOCID: eDKChsthU8ZavbCWhxtTenMg2eY-] found.Track | CTDB Status  1   | (21/22) Accurately ripped  2   | (21/22) Accurately ripped  3   | (21/22) Accurately ripped  4   | (21/22) Accurately ripped  5   | (21/22) Accurately ripped  6   | (21/22) Accurately ripped  7   | (21/22) Accurately ripped  8   | (21/22) Accurately ripped  9   | (21/22) Accurately ripped 10   | (21/22) Accurately ripped 11   | (21/22) Accurately ripped 12   | (21/22) Accurately ripped 13   | (21/22) Accurately ripped 14   | (21/22) Accurately ripped 15   | (21/22) Accurately ripped 16   | (21/22) Accurately ripped 17   | (21/22) Accurately ripped 18   | (21/22) Accurately ripped 19   | (21/22) Accurately ripped 20   | (21/22) Accurately ripped[AccurateRip ID: 00343cfc-02fdb085-14117614] found.Track   [  CRC   |   V2   ] Status 01     [402f9f05|79c7b0c7] (02+04/25) Accurately ripped 02     [d06a3564|f9c3724f] (02+04/25) Accurately ripped 03     [906a8e7e|6820e2b9] (02+04/24) Accurately ripped 04     [c60547c7|f800ec30] (02+04/25) Accurately ripped 05     [3a73caf7|3b88927b] (02+04/23) Accurately ripped 06     [0333ef27|e1855fc7] (02+04/26) Accurately ripped 07     [9c2f07b8|ec82a633] (02+04/25) Accurately ripped 08     [05a6d437|3a039fc1] (02+04/24) Accurately ripped 09     [2c02c4cd|7af3b610] (02+04/25) Accurately ripped 10     [94608bac|56a45c79] (02+04/24) Accurately ripped 11     [2bcd080d|8113ff66] (02+04/25) Accurately ripped 12     [93eabce5|3bb3aa90] (02+04/25) Accurately ripped 13     [68547f4a|1745dce5] (02+04/26) Accurately ripped 14     [d54fbb3e|92ab7535] (02+04/23) Accurately ripped 15     [f7b209c2|ebe652bd] (02+04/25) Accurately ripped 16     [6d00c509|b7a7d1d0] (02+04/25) Accurately ripped 17     [a8a9793e|93033014] (02+04/25) Accurately ripped 18     [3a6694dd|1a2decd9] (03+04/24) Accurately ripped 19     [7eb85792|dabbd46c] (03+04/26) Accurately ripped 20     [67be16fa|2b8fbff1] (00+04/21) Accurately rippedOffsetted by 77: 01     [91b3681f] (07/25) Accurately ripped 02     [8ff93972] (07/25) Accurately ripped 03     [cc259f17] (06/24) Accurately ripped 04     [558980a8] (06/25) Accurately ripped 05     [840b9bd7] (06/23) Accurately ripped 06     [8e03c17d] (07/26) Accurately ripped 07     [d64c6134] (06/25) Accurately ripped 08     [bd9783d1] (06/24) Accurately ripped 09     [4c749b37] (07/25) Accurately ripped 10     [c2e181a3] (07/24) Accurately ripped 11     [0d0bb3eb] (07/25) Accurately ripped 12     [f7d794db] (07/25) Accurately ripped 13     [b86c428c] (07/26) Accurately ripped 14     [e87904e8] (07/23) Accurately ripped 15     [a4d729f0] (07/25) Accurately ripped 16     [aaedf449] (07/25) Accurately ripped 17     [8ee4d4bf] (07/25) Accurately ripped 18     [b9aefc68] (07/24) Accurately ripped 19     [f2730924] (07/26) Accurately ripped 20     [aeb2be0c] (07/21) Accurately ripped
Track Peak [ CRC32 ] [W/O NULL] [ LOG ] -- 99,2 [1F6EC78B] [B61A1DAA] 01 96,8 [E45E7B28] [121447D4] CRC32 02 80,5 [FEEB25A1] [31B4C76E] CRC32 03 87,0 [5D59FB31] [CD99D6D6] CRC32 04 90,8 [D2AD7765] [25A2DBEE] CRC32 05 67,6 [F3CDB667] [99FF9411] CRC32 06 84,4 [07AFF2A5] [25F998F7] CRC32 07 77,3 [4B1BAB51] [D46F0525] CRC32 08 73,5 [78108052] [2A17229A] CRC32 09 69,6 [F933BAAC] [34E4F3B0] CRC32 10 84,7 [A194D80D] [41109A7D] CRC32 11 80,1 [902C07C4] [33D0CF66] CRC32 12 70,7 [A21C680F] [869A5377] CRC32 13 57,9 [2D8BCE9F] [50560633] CRC32 14 75,3 [0F021699] [3DFA5A88] CRC32 15 99,2 [016CA3C3] [33DD2DD0] CRC32 16 98,0 [01F9EA88] [114B5E48] CRC32 17 92,2 [A88BD899] [B2B3E860] CRC32 18 95,6 [51FF7CE6] [914C10D2] CRC32 19 98,4 [A0093831] [BC96FB2E] CRC32 20 96,1 [1D0F62AD] [2A6292B5] CRC32
Вы не можете начинать темы
Вы не можете отвечать на сообщения
Вы не можете редактировать свои сообщения
Вы не можете удалять свои сообщения
Вы не можете голосовать в опросах
Вы не можете прикреплять файлы к сообщениям
Вы можете скачивать файлы
!ВНИМАНИЕ!

Сайт не предоставляет электронные версии произведений, а занимается лишь коллекционированием и каталогизацией ссылок, присылаемых и публикуемых на форуме нашими читателями. Если вы являетесь правообладателем какого-либо представленного материала и не желаете, чтобы ссылка на него находилась в нашем каталоге, свяжитесь с нами, и мы незамедлительно удалим ее. Файлы для обмена на трекере предоставлены пользователями сайта, и администрация не несет ответственности за их содержание. Просьба не заливать файлы, защищенные авторскими правами, а также файлы нелегального содержания!

Искали программы, игры, дополнения, музыка mp3, аниме, аудио книги, журналы? Добро пожаловать на свободный торрент трекер Torrents, у нас можно скачать бесплатно, без смс и регистрации и прочих ограничений лучшие, отборные сборки программ, игр. Скачать торрентом не составит труда даже не опытному пользователю. Раздачи ежедневно обновляются, только лучшие и качественные раздачи, подробные описания и скриншоты. Огромная коллекция программ для работы со звуком, графикой, дизайном, а так же множество плагинов и инструментов к ним с подробной инструкцией и рекомендациями. Прошивки для навигаторов, карты. Разнообразные игры, для Windows, Linux. В коллекцие есть и старые игры любых жанров, Rpg, Action, Shooter, strategy Множество дополнений, модификаций, сценариев для популярных игр в жанре экш, рпг, гонки, стратегии, логические игры. Множество аддонов и сценариев для Microsoft Flight Simulator Большая коллекция книг, учебников. Если нет возможности купить печатное издание - смело скачивайте цифровую версию книги или, быть может, журнала. Не любите читать - можно загрузить бесплатно аудикнигу. Для веб дизайнеров и программистов так же найдется множество специализированного софта, таких как: редакторы с подсветкой, среды программирования, компоненты, системы управления базами данных, разнообразные скрипты и шаблоны. Не так давно у нас появился материал для автолюбителей и владельцев мото - оригинальные и неоригинальные каталоги запчастей, книги и журналы по ремонту и обслуживанию, видеоуроки, статьи по чип тюнингу, прошивкам. Процедура получения контента элементарная, достаточно просто скачать торрент файл и добавить его в загрузку в вашем торрент клиенте. Если у вас нет специального торрент клиента, вы можете его скачать у нас.

Watch movie | John Savage | > Regarder Harry Potter et l'Ordre du Phénix gratuitement