(Various) [CD] VA - De Pre Historie 1976 [EMI/Virgin, 260.748, Belgium] - 1991, FLAC (tracks+.cue), lossless 

Цитировать
De Pre Historie 1976
Жанр: Various
Носитель: CD
Страна-производитель диска (релиза): Belgium
Год издания: 1991
Издатель (лейбл): EMI/Virgin
Номер по каталогу: 260.748
Аудиокодек: FLAC (*.flac)
Тип рипа: tracks+.cue
Битрейт аудио: lossless
Продолжительность: 01:15:29
Источник (релизер): From RED
Наличие сканов в содержимом раздачи: нет

Треклист:
01. Queen – Bohemian Rhapsody
02. Nazareth – Love Hurts
03. Bryan Ferry – Let's Stick Together
04. Eric Carmen – All By Myself
05. The Bellamy Brothers – Let Your Love Flow
06. Brotherhood Of Man – Save Your Kisses For Me
07. Mike Oldfield – In Dulce Jubilo
08. The Bee Gees – You Should Be Dancing
09. Hot Chocolate – You Sexy Thing
10. Tavares – Heaven Must Be Missing An Angel
11. Jesse Green – Nice And Slow
12. Candi Staton – Young Hearts Run Free
13. Maxine Nightingale – Right Back Where We Started From
14. Dolly Parton – Jolene
15. The Four Seasons – December '63
16. ABBA – Fernando
17. John Miles – Music
18. Leo Sayer – You Make Me Feel Like Dancing
19. Peter Frampton – Show Me The Way
20. Kraftwerk – Radioactivity

Лог создания рипа

Exact Audio Copy V1.3 from 2. September 2016
EAC extraction logfile from 19. May 2017, 17:52
Various Artists / De Pre Historie 1976
Used drive : ATAPI iHAS124 F Adapter: 1 ID: 1
Read mode : SecureUtilize accurate stream : YesDefeat audio cache : YesMake use of C2 pointers : No
Read offset correction : 6Overread into Lead-In and Lead-Out : NoFill up missing offset samples with silence : YesDelete leading and trailing silent blocks : NoNull samples used in CRC calculations : YesUsed interface : Native Win32 interface for Win NT & 2000Gap handling : Appended to previous track
Used output format : User Defined EncoderSelected bitrate : 1024 kBit/sQuality : HighAdd ID3 tag : NoCommand line compressor : C:\cmd.exeAdditional command line options : /c ""C:\F\CUETools.FLACCL.cmd.exe" -8 --verify %source% -o %dest% & "C:\M\metaflac.exe" --set-tag="ARTIST=%artist%" --set-tag="TITLE=%title%" --set-tag="ALBUM=%albumtitle%" --set-tag="DATE=%year%" --set-tag="TRACKNUMBER=%tracknr%" --set-tag="GENRE=%genre%" --set-tag="COMPOSER=%composer%" --set-tag="ALBUMARTIST=%albumartist%" %dest%"
TOC of the extracted CD
Track | Start | Length | Start sector | End sector --------------------------------------------------------- 1 | 0:00.33 | 5:52.20 | 33 | 26452 2 | 5:52.53 | 3:52.47 | 26453 | 43899 3 | 9:45.25 | 2:55.30 | 43900 | 57054 4 | 12:40.55 | 4:31.58 | 57055 | 77437 5 | 17:12.38 | 3:14.00 | 77438 | 91987 6 | 20:26.38 | 3:03.20 | 91988 | 105732 7 | 23:29.58 | 2:50.55 | 105733 | 118537 8 | 26:20.38 | 4:15.72 | 118538 | 137734 9 | 30:36.35 | 3:57.45 | 137735 | 155554 10 | 34:34.05 | 3:31.35 | 155555 | 171414 11 | 38:05.40 | 3:04.18 | 171415 | 185232 12 | 41:09.58 | 3:48.22 | 185233 | 202354 13 | 44:58.05 | 3:13.58 | 202355 | 216887 14 | 48:11.63 | 2:37.52 | 216888 | 228714 15 | 50:49.40 | 3:30.55 | 228715 | 244519 16 | 54:20.20 | 4:09.13 | 244520 | 263207 17 | 58:29.33 | 5:52.70 | 263208 | 289677 18 | 64:22.28 | 3:36.72 | 289678 | 305949 19 | 67:59.25 | 4:34.60 | 305950 | 326559 20 | 72:34.10 | 3:05.45 | 326560 | 340479
Track 1
Filename E:\EAC Rips\2017-05 Mei\Various Artists - De Pre Historie 1976 (1991) [FLAC] {BMG 260.748}\01 - Queen - Bohemian Rhapsody.wav
Pre-gap length 0:00:02.33
Peak level 88.3 % Extraction speed 5.7 X Track quality 99.9 % Test CRC 4F8BAD79 Copy CRC 4F8BAD79 Accurately ripped (confidence 5) [1C03FD5F] (AR v2) Copy OK
Track 2
Filename E:\EAC Rips\2017-05 Mei\Various Artists - De Pre Historie 1976 (1991) [FLAC] {BMG 260.748}\02 - Nazareth - Love Hurts.wav
Peak level 95.8 % Extraction speed 6.6 X Track quality 100.0 % Test CRC 659A9412 Copy CRC 659A9412 Accurately ripped (confidence 5) [C302C662] (AR v2) Copy OK
Track 3
Filename E:\EAC Rips\2017-05 Mei\Various Artists - De Pre Historie 1976 (1991) [FLAC] {BMG 260.748}\03 - Bryan Ferry - Let's Stick Together.wav
Pre-gap length 0:00:01.50
Peak level 96.4 % Extraction speed 6.7 X Track quality 100.0 % Test CRC AF3D9E8E Copy CRC AF3D9E8E Accurately ripped (confidence 5) [FB4B80E5] (AR v2) Copy OK
Track 4
Filename E:\EAC Rips\2017-05 Mei\Various Artists - De Pre Historie 1976 (1991) [FLAC] {BMG 260.748}\04 - Eric Carmen - All By Myself.wav
Peak level 95.3 % Extraction speed 7.5 X Track quality 100.0 % Test CRC D5A79A07 Copy CRC D5A79A07 Accurately ripped (confidence 5) [44601164] (AR v2) Copy OK
Track 5
Filename E:\EAC Rips\2017-05 Mei\Various Artists - De Pre Historie 1976 (1991) [FLAC] {BMG 260.748}\05 - The Bellamy Brothers - Let Your Love Flow.wav
Pre-gap length 0:00:01.28
Peak level 94.6 % Extraction speed 7.5 X Track quality 100.0 % Test CRC 328E2BD2 Copy CRC 328E2BD2 Accurately ripped (confidence 5) [B0891B07] (AR v2) Copy OK
Track 6
Filename E:\EAC Rips\2017-05 Mei\Various Artists - De Pre Historie 1976 (1991) [FLAC] {BMG 260.748}\06 - Brotherhood Of Man - Save Your Kisses For Me.wav
Peak level 89.7 % Extraction speed 6.7 X Track quality 99.9 % Test CRC EDA5D1F1 Copy CRC EDA5D1F1 Accurately ripped (confidence 5) [9140E2CC] (AR v2) Copy OK
Track 7
Filename E:\EAC Rips\2017-05 Mei\Various Artists - De Pre Historie 1976 (1991) [FLAC] {BMG 260.748}\07 - Mike Oldfield - In Dulce Jubilo.wav
Peak level 94.8 % Extraction speed 8.0 X Track quality 100.0 % Test CRC 5D4D09D1 Copy CRC 5D4D09D1 Accurately ripped (confidence 5) [0BEDFE28] (AR v2) Copy OK
Track 8
Filename E:\EAC Rips\2017-05 Mei\Various Artists - De Pre Historie 1976 (1991) [FLAC] {BMG 260.748}\08 - Bee Gees - You Should Be Dancing.wav
Pre-gap length 0:00:01.18
Peak level 85.4 % Extraction speed 7.9 X Track quality 99.9 % Test CRC 62D7C601 Copy CRC 62D7C601 Accurately ripped (confidence 5) [45862D5F] (AR v2) Copy OK
Track 9
Filename E:\EAC Rips\2017-05 Mei\Various Artists - De Pre Historie 1976 (1991) [FLAC] {BMG 260.748}\09 - Hot Chocolate - You Sexy Thing.wav
Peak level 91.3 % Extraction speed 9.0 X Track quality 100.0 % Test CRC 6A54E4E7 Copy CRC 6A54E4E7 Accurately ripped (confidence 5) [FF8069EE] (AR v2) Copy OK
Track 10
Filename E:\EAC Rips\2017-05 Mei\Various Artists - De Pre Historie 1976 (1991) [FLAC] {BMG 260.748}\10 - Tavares - Heaven Must Be Missing An Angel.wav
Peak level 82.1 % Extraction speed 8.1 X Track quality 99.9 % Test CRC 13B5BD69 Copy CRC 13B5BD69 Accurately ripped (confidence 5) [D7B24721] (AR v2) Copy OK
Track 11
Filename E:\EAC Rips\2017-05 Mei\Various Artists - De Pre Historie 1976 (1991) [FLAC] {BMG 260.748}\11 - Jesse Green - Nice And Slow.wav
Pre-gap length 0:00:01.22
Peak level 84.9 % Extraction speed 8.0 X Track quality 99.9 % Test CRC B32615A6 Copy CRC B32615A6 Accurately ripped (confidence 5) [D63CE24E] (AR v2) Copy OK
Track 12
Filename E:\EAC Rips\2017-05 Mei\Various Artists - De Pre Historie 1976 (1991) [FLAC] {BMG 260.748}\12 - Candi Staton - Young Hearts Run Free.wav
Peak level 79.8 % Extraction speed 9.8 X Track quality 100.0 % Test CRC 1AD44D2B Copy CRC 1AD44D2B Accurately ripped (confidence 5) [278748A2] (AR v2) Copy OK
Track 13
Filename E:\EAC Rips\2017-05 Mei\Various Artists - De Pre Historie 1976 (1991) [FLAC] {BMG 260.748}\13 - Maxine Nightingale - Right Back Where We Started From.wav
Peak level 83.1 % Extraction speed 9.7 X Track quality 100.0 % Test CRC BF4471A5 Copy CRC BF4471A5 Accurately ripped (confidence 5) [CBD0D3FC] (AR v2) Copy OK
Track 14
Filename E:\EAC Rips\2017-05 Mei\Various Artists - De Pre Historie 1976 (1991) [FLAC] {BMG 260.748}\14 - Dolly Parton - Jolene.wav
Pre-gap length 0:00:00.43
Peak level 67.6 % Extraction speed 8.3 X Track quality 99.9 % Test CRC 96E8211A Copy CRC 96E8211A Accurately ripped (confidence 5) [A7726AC4] (AR v2) Copy OK
Track 15
Filename E:\EAC Rips\2017-05 Mei\Various Artists - De Pre Historie 1976 (1991) [FLAC] {BMG 260.748}\15 - The Four Seasons - December, 1963 (Oh, What A Night).wav
Peak level 92.6 % Extraction speed 10.3 X Track quality 100.0 % Test CRC 0CA9703D Copy CRC 0CA9703D Accurately ripped (confidence 5) [4A29C5ED] (AR v2) Copy OK
Track 16
Filename E:\EAC Rips\2017-05 Mei\Various Artists - De Pre Historie 1976 (1991) [FLAC] {BMG 260.748}\16 - ABBA - Fernando.wav
Pre-gap length 0:00:01.02
Peak level 92.1 % Extraction speed 10.9 X Track quality 100.0 % Test CRC E2BB8FCD Copy CRC E2BB8FCD Accurately ripped (confidence 5) [CE7935E9] (AR v2) Copy OK
Track 17
Filename E:\EAC Rips\2017-05 Mei\Various Artists - De Pre Historie 1976 (1991) [FLAC] {BMG 260.748}\17 - John Miles - Music.wav
Pre-gap length 0:00:01.03
Peak level 89.4 % Extraction speed 11.5 X Track quality 100.0 % Test CRC 9BEB756D Copy CRC 9BEB756D Accurately ripped (confidence 4) [7F11F795] (AR v2) Copy OK
Track 18
Filename E:\EAC Rips\2017-05 Mei\Various Artists - De Pre Historie 1976 (1991) [FLAC] {BMG 260.748}\18 - Leo Sayer - You Make Me Feel Like Dancing.wav
Pre-gap length 0:00:01.08
Peak level 97.7 % Extraction speed 11.4 X Track quality 100.0 % Test CRC 9CBF4068 Copy CRC 9CBF4068 Accurately ripped (confidence 5) [179EBA34] (AR v2) Copy OK
Track 19
Filename E:\EAC Rips\2017-05 Mei\Various Artists - De Pre Historie 1976 (1991) [FLAC] {BMG 260.748}\19 - Peter Frampton - Show Me The Way.wav
Peak level 85.0 % Extraction speed 11.9 X Track quality 100.0 % Test CRC 6433B708 Copy CRC 6433B708 Accurately ripped (confidence 5) [6BF693E4] (AR v2) Copy OK
Track 20
Filename E:\EAC Rips\2017-05 Mei\Various Artists - De Pre Historie 1976 (1991) [FLAC] {BMG 260.748}\20 - Kraftwerk - Radioactivity.wav
Pre-gap length 0:00:01.02
Peak level 69.0 % Extraction speed 9.8 X Track quality 99.9 % Test CRC 08BC9E74 Copy CRC 08BC9E74 Accurately ripped (confidence 4) [845E7920] (AR v2) Copy OK
All tracks accurately ripped
No errors occurred
End of status report
---- CUETools DB Plugin V2.1.6
[CTDB TOCID: w86IHF_pmIAabUNUeqm3hOjkoS0-] foundSubmit result: w86IHF_pmIAabUNUeqm3hOjkoS0- has been confirmedTrack | CTDB Status 1 | (12/15) Accurately ripped 2 | (14/15) Accurately ripped 3 | (14/15) Accurately ripped 4 | (14/15) Accurately ripped 5 | (14/15) Accurately ripped 6 | (14/15) Accurately ripped 7 | (14/15) Accurately ripped 8 | (12/15) Accurately ripped 9 | (13/15) Accurately ripped 10 | (13/15) Accurately ripped 11 | (14/15) Accurately ripped 12 | (13/15) Accurately ripped 13 | (14/15) Accurately ripped 14 | (14/15) Accurately ripped 15 | (14/15) Accurately ripped 16 | (14/15) Accurately ripped 17 | (14/15) Accurately ripped 18 | (14/15) Accurately ripped 19 | (14/15) Accurately ripped 20 | (14/15) Accurately ripped
==== Log checksum 95853FF92F72380BC770E876AB0DCCD8ED2BA3DF66E6BB441B92B1D39D77DC7C ====

Содержание индексной карты (.CUE)

REM DATE 1991REM DISCID 1511BB14REM COMMENT "ExactAudioCopy v1.3"PERFORMER "Various Artists"TITLE "De Pre Historie 1976"REM COMPOSER ""FILE "01 - Queen - Bohemian Rhapsody.wav" WAVE  TRACK 01 AUDIO    TITLE "Bohemian Rhapsody"    PERFORMER "Queen"    REM COMPOSER ""    PREGAP 00:00:33    INDEX 01 00:00:00FILE "02 - Nazareth - Love Hurts.wav" WAVE  TRACK 02 AUDIO    TITLE "Love Hurts"    PERFORMER "Nazareth"    REM COMPOSER ""    INDEX 01 00:00:00  TRACK 03 AUDIO    TITLE "Let's Stick Together"    PERFORMER "Bryan Ferry"    REM COMPOSER ""    INDEX 00 03:50:72FILE "03 - Bryan Ferry - Let's Stick Together.wav" WAVE    INDEX 01 00:00:00FILE "04 - Eric Carmen - All By Myself.wav" WAVE  TRACK 04 AUDIO    TITLE "All By Myself"    PERFORMER "Eric Carmen"    REM COMPOSER ""    INDEX 01 00:00:00  TRACK 05 AUDIO    TITLE "Let Your Love Flow"    PERFORMER "The Bellamy Brothers"    REM COMPOSER ""    INDEX 00 04:30:30FILE "05 - The Bellamy Brothers - Let Your Love Flow.wav" WAVE    INDEX 01 00:00:00FILE "06 - Brotherhood Of Man - Save Your Kisses For Me.wav" WAVE  TRACK 06 AUDIO    TITLE "Save Your Kisses For Me"    PERFORMER "Brotherhood Of Man"    REM COMPOSER ""    INDEX 01 00:00:00FILE "07 - Mike Oldfield - In Dulce Jubilo.wav" WAVE  TRACK 07 AUDIO    TITLE "In Dulce Jubilo"    PERFORMER "Mike Oldfield"    REM COMPOSER ""    INDEX 01 00:00:00  TRACK 08 AUDIO    TITLE "You Should Be Dancing"    PERFORMER "Bee Gees"    REM COMPOSER ""    INDEX 00 02:49:37FILE "08 - Bee Gees - You Should Be Dancing.wav" WAVE    INDEX 01 00:00:00FILE "09 - Hot Chocolate - You Sexy Thing.wav" WAVE  TRACK 09 AUDIO    TITLE "You Sexy Thing"    PERFORMER "Hot Chocolate"    REM COMPOSER ""    INDEX 01 00:00:00FILE "10 - Tavares - Heaven Must Be Missing An Angel.wav" WAVE  TRACK 10 AUDIO    TITLE "Heaven Must Be Missing An Angel"    PERFORMER "Tavares"    REM COMPOSER ""    INDEX 01 00:00:00  TRACK 11 AUDIO    TITLE "Nice And Slow"    PERFORMER "Jesse Green"    REM COMPOSER ""    INDEX 00 03:30:13FILE "11 - Jesse Green - Nice And Slow.wav" WAVE    INDEX 01 00:00:00FILE "12 - Candi Staton - Young Hearts Run Free.wav" WAVE  TRACK 12 AUDIO    TITLE "Young Hearts Run Free"    PERFORMER "Candi Staton"    REM COMPOSER ""    INDEX 01 00:00:00FILE "13 - Maxine Nightingale - Right Back Where We Started From.wav" WAVE  TRACK 13 AUDIO    TITLE "Right Back Where We Started From"    PERFORMER "Maxine Nightingale"    REM COMPOSER ""    INDEX 01 00:00:00  TRACK 14 AUDIO    TITLE "Jolene"    PERFORMER "Dolly Parton"    REM COMPOSER ""    INDEX 00 03:13:15FILE "14 - Dolly Parton - Jolene.wav" WAVE    INDEX 01 00:00:00FILE "15 - The Four Seasons - December, 1963 (Oh, What A Night).wav" WAVE  TRACK 15 AUDIO    TITLE "December, 1963 (Oh, What A Night)"    PERFORMER "The Four Seasons"    REM COMPOSER ""    INDEX 01 00:00:00  TRACK 16 AUDIO    TITLE "Fernando"    PERFORMER "ABBA"    REM COMPOSER ""    INDEX 00 03:29:53FILE "16 - ABBA - Fernando.wav" WAVE    INDEX 01 00:00:00  TRACK 17 AUDIO    TITLE "Music"    PERFORMER "John Miles"    REM COMPOSER ""    INDEX 00 04:08:10FILE "17 - John Miles - Music.wav" WAVE    INDEX 01 00:00:00  TRACK 18 AUDIO    TITLE "You Make Me Feel Like Dancing"    PERFORMER "Leo Sayer"    REM COMPOSER ""    INDEX 00 05:51:62FILE "18 - Leo Sayer - You Make Me Feel Like Dancing.wav" WAVE    INDEX 01 00:00:00FILE "19 - Peter Frampton - Show Me The Way.wav" WAVE  TRACK 19 AUDIO    TITLE "Show Me The Way"    PERFORMER "Peter Frampton"    REM COMPOSER ""    INDEX 01 00:00:00  TRACK 20 AUDIO    TITLE "Radioactivity"    PERFORMER "Kraftwerk"    REM COMPOSER ""    INDEX 00 04:33:58FILE "20 - Kraftwerk - Radioactivity.wav" WAVE    INDEX 01 00:00:00

AccurateRip

[CUETools log; Date: 20.10.2018 17:31:04; Version: 2.1.5]Pregap length 00:00:33.[CTDB TOCID: w86IHF_pmIAabUNUeqm3hOjkoS0-] found.Track | CTDB Status  1   | (24/27) Accurately ripped  2   | (26/27) Accurately ripped  3   | (26/27) Accurately ripped  4   | (26/27) Accurately ripped  5   | (26/27) Accurately ripped  6   | (26/27) Accurately ripped  7   | (26/27) Accurately ripped  8   | (24/27) Accurately ripped  9   | (25/27) Accurately ripped 10   | (25/27) Accurately ripped 11   | (26/27) Accurately ripped 12   | (25/27) Accurately ripped 13   | (26/27) Accurately ripped 14   | (26/27) Accurately ripped 15   | (26/27) Accurately ripped 16   | (26/27) Accurately ripped 17   | (26/27) Accurately ripped 18   | (26/27) Accurately ripped 19   | (25/27) Accurately ripped 20   | (25/27) Accurately ripped[AccurateRip ID: 0036c536-031b8c8c-1511bb14] found.Track   [  CRC   |   V2   ] Status 01     [3e507c45|1c03fd5f] (00+08/27) Accurately ripped 02     [1ec27aa1|c302c662] (00+08/28) Accurately ripped 03     [4a30a27d|fb4b80e5] (00+08/27) Accurately ripped 04     [f9433a6a|44601164] (00+08/28) Accurately ripped 05     [b25ffcfd|b0891b07] (00+08/28) Accurately ripped 06     [6ae2c8c8|9140e2cc] (00+08/28) Accurately ripped 07     [7b48f396|0bedfe28] (00+08/28) Accurately ripped 08     [6df2b390|45862d5f] (00+08/28) Accurately ripped 09     [b7a47f8f|ff8069ee] (00+07/26) Accurately ripped 10     [4169257f|d7b24721] (00+08/27) Accurately ripped 11     [155c254d|d63ce24e] (00+07/27) Accurately ripped 12     [4f87b0f6|278748a2] (00+07/25) Accurately ripped 13     [e4edd462|cbd0d3fc] (00+08/25) Accurately ripped 14     [b69b5a87|a7726ac4] (00+08/25) Accurately ripped 15     [b5c46d65|4a29c5ed] (00+08/27) Accurately ripped 16     [8bb97406|ce7935e9] (00+08/28) Accurately ripped 17     [df539b13|7f11f795] (00+07/25) Accurately ripped 18     [217fd6ed|179eba34] (00+08/26) Accurately ripped 19     [fa251bd3|6bf693e4] (00+08/25) Accurately ripped 20     [fc4e98c9|845e7920] (00+07/24) Accurately rippedOffsetted by -1906: 01     [809f514f] (08/27) Accurately ripped 02     [2f52c8a9] (09/28) Accurately ripped 03     [18b54a25] (08/27) Accurately ripped 04     [20cd0a88] (09/28) Accurately ripped 05     [e861d493] (09/28) Accurately ripped 06     [0674eae8] (09/28) Accurately ripped 07     [9ac1313c] (09/28) Accurately ripped 08     [d86b91bc] (09/28) Accurately ripped 09     [b1d4472d] (08/26) Accurately ripped 10     [af82a9ff] (08/27) Accurately ripped 11     [c306a21f] (09/27) Accurately ripped 12     [a5ca91d0] (08/25) Accurately ripped 13     [7f615746] (07/25) Accurately ripped 14     [80817f19] (07/25) Accurately ripped 15     [c2038a3f] (09/27) Accurately ripped 16     [dd655cce] (09/28) Accurately ripped 17     [ae93c33d] (08/25) Accurately ripped 18     [d75bd533] (08/26) Accurately ripped 19     [37aa68f5] (07/25) Accurately ripped 20     [1550635d] (07/24) Accurately ripped
Track Peak [ CRC32 ] [W/O NULL] [ LOG ] -- 97,7 [F0F26207] [CD9D55BF] 01 88,3 [4F8BAD79] [DEEC65DB] CRC32 02 95,8 [659A9412] [B1462B7C] CRC32 03 96,4 [AF3D9E8E] [12964DA7] CRC32 04 95,3 [D5A79A07] [04A6F127] CRC32 05 94,6 [328E2BD2] [4F17A292] CRC32 06 89,7 [EDA5D1F1] [0DFCA550] CRC32 07 94,8 [5D4D09D1] [51D93CA5] CRC32 08 85,4 [62D7C601] [CE5A8527] CRC32 09 91,3 [6A54E4E7] [AFD00CAE] CRC32 10 82,1 [13B5BD69] [F8052585] CRC32 11 84,9 [B32615A6] [55F90A68] CRC32 12 79,8 [1AD44D2B] [D200F1D7] CRC32 13 83,1 [BF4471A5] [25D97F22] CRC32 14 67,6 [96E8211A] [C252095F] CRC32 15 92,6 [0CA9703D] [E5154542] CRC32 16 92,1 [E2BB8FCD] [CCE1BF65] CRC32 17 89,4 [9BEB756D] [653BDD64] CRC32 18 97,7 [9CBF4068] [B019258C] CRC32 19 85,0 [6433B708] [74D93D7D] CRC32 20 69,0 [08BC9E74] [BCD81790] CRC32
Вы не можете начинать темы
Вы не можете отвечать на сообщения
Вы не можете редактировать свои сообщения
Вы не можете удалять свои сообщения
Вы не можете голосовать в опросах
Вы не можете прикреплять файлы к сообщениям
Вы можете скачивать файлы
!ВНИМАНИЕ!

Сайт не предоставляет электронные версии произведений, а занимается лишь коллекционированием и каталогизацией ссылок, присылаемых и публикуемых на форуме нашими читателями. Если вы являетесь правообладателем какого-либо представленного материала и не желаете, чтобы ссылка на него находилась в нашем каталоге, свяжитесь с нами, и мы незамедлительно удалим ее. Файлы для обмена на трекере предоставлены пользователями сайта, и администрация не несет ответственности за их содержание. Просьба не заливать файлы, защищенные авторскими правами, а также файлы нелегального содержания!

Искали программы, игры, дополнения, музыка mp3, аниме, аудио книги, журналы? Добро пожаловать на свободный торрент трекер Torrents, у нас можно скачать бесплатно, без смс и регистрации и прочих ограничений лучшие, отборные сборки программ, игр. Скачать торрентом не составит труда даже не опытному пользователю. Раздачи ежедневно обновляются, только лучшие и качественные раздачи, подробные описания и скриншоты. Огромная коллекция программ для работы со звуком, графикой, дизайном, а так же множество плагинов и инструментов к ним с подробной инструкцией и рекомендациями. Прошивки для навигаторов, карты. Разнообразные игры, для Windows, Linux. В коллекцие есть и старые игры любых жанров, Rpg, Action, Shooter, strategy Множество дополнений, модификаций, сценариев для популярных игр в жанре экш, рпг, гонки, стратегии, логические игры. Множество аддонов и сценариев для Microsoft Flight Simulator Большая коллекция книг, учебников. Если нет возможности купить печатное издание - смело скачивайте цифровую версию книги или, быть может, журнала. Не любите читать - можно загрузить бесплатно аудикнигу. Для веб дизайнеров и программистов так же найдется множество специализированного софта, таких как: редакторы с подсветкой, среды программирования, компоненты, системы управления базами данных, разнообразные скрипты и шаблоны. Не так давно у нас появился материал для автолюбителей и владельцев мото - оригинальные и неоригинальные каталоги запчастей, книги и журналы по ремонту и обслуживанию, видеоуроки, статьи по чип тюнингу, прошивкам. Процедура получения контента элементарная, достаточно просто скачать торрент файл и добавить его в загрузку в вашем торрент клиенте. Если у вас нет специального торрент клиента, вы можете его скачать у нас.

Police Academy: The Animated Series | Free!: Dive to the Future English Subbed | The New Romantic