(Various) [CD] VA - De Pre Historie 1982 [EMI/Virgin, 261.782, Belgium] - 1992, FLAC (tracks+.cue), lossless 

Цитировать
De Pre Historie 1982
Жанр: Various
Носитель: CD
Страна-производитель диска (релиза): Belgium
Год издания: 1992
Издатель (лейбл): EMI/Virgin
Номер по каталогу: 261.782
Аудиокодек: FLAC (*.flac)
Тип рипа: tracks+.cue
Битрейт аудио: lossless
Продолжительность: 01:14:54
Источник (релизер): From RED
Наличие сканов в содержимом раздачи: нет

Треклист:
01. Culture Club – Do You Really Want To Hurt Me
02. Orchestral Manoeuvres In The Dark – Maid Of Orleans (The Waltz Joan Of Arc)
03. Fun Boy Three & Bananarama – It Ain't What You Do, It's The Way That You Do It
04. Musical Youth – Pass The Dutchie
05. Kid Creole & The Coconuts – Annie, I'm Not Your Daddy
06. Dionne Warwick – Heartbreaker
07. Elton John – Blue Eyes
08. Men At Work – Down Under
09. Dexy's Midnight Runners – Come On Eileen
10. Stranglers – Golden Brown
11. Adrian Gurvitz – Classic
12. ABC – All Of My Heart
13. Roxy Music – Avalon
14. Human League – Don't You Want Me
15. Simple Minds – Promised You A Miracle
16. Jon & Vangelis – I'll Find My Way Home
17. Frida – I Know There's Something Going On
18. Marvin Gaye – Sexual Healing
19. Jo Lemaire & Flouze – Je Suis Venue Te Dire Que Je M'en Vais

Лог создания рипа

Exact Audio Copy V1.3 from 2. September 2016
EAC extraction logfile from 21. May 2017, 0:50
Various Artists / De Pre Historie 1982
Used drive : ATAPI iHAS124 F Adapter: 1 ID: 0
Read mode : SecureUtilize accurate stream : YesDefeat audio cache : YesMake use of C2 pointers : No
Read offset correction : 6Overread into Lead-In and Lead-Out : NoFill up missing offset samples with silence : YesDelete leading and trailing silent blocks : NoNull samples used in CRC calculations : YesUsed interface : Native Win32 interface for Win NT & 2000Gap handling : Appended to previous track
Used output format : User Defined EncoderSelected bitrate : 1024 kBit/sQuality : HighAdd ID3 tag : NoCommand line compressor : C:\cmd.exeAdditional command line options : /c ""C:\F\CUETools.FLACCL.cmd.exe" -8 --verify %source% -o %dest% & "C:\M\metaflac.exe" --set-tag="ARTIST=%artist%" --set-tag="TITLE=%title%" --set-tag="ALBUM=%albumtitle%" --set-tag="DATE=%year%" --set-tag="TRACKNUMBER=%tracknr%" --set-tag="GENRE=%genre%" --set-tag="COMPOSER=%composer%" --set-tag="ALBUMARTIST=%albumartist%" %dest%"
TOC of the extracted CD
Track | Start | Length | Start sector | End sector --------------------------------------------------------- 1 | 0:00.33 | 4:23.67 | 33 | 19824 2 | 4:24.25 | 4:10.70 | 19825 | 38644 3 | 8:35.20 | 2:48.08 | 38645 | 51252 4 | 11:23.28 | 3:20.70 | 51253 | 66322 5 | 14:44.23 | 3:52.55 | 66323 | 83777 6 | 18:37.03 | 4:17.55 | 83778 | 103107 7 | 22:54.58 | 3:26.60 | 103108 | 118617 8 | 26:21.43 | 3:41.40 | 118618 | 135232 9 | 30:03.08 | 4:05.47 | 135233 | 153654 10 | 34:08.55 | 3:26.58 | 153655 | 169162 11 | 37:35.38 | 3:38.27 | 169163 | 185539 12 | 41:13.65 | 4:47.30 | 185540 | 207094 13 | 46:01.20 | 4:14.70 | 207095 | 226214 14 | 50:16.15 | 3:57.18 | 226215 | 244007 15 | 54:13.33 | 4:21.55 | 244008 | 263637 16 | 58:35.13 | 4:29.20 | 263638 | 283832 17 | 63:04.33 | 4:03.40 | 283833 | 302097 18 | 67:07.73 | 4:06.47 | 302098 | 320594 19 | 71:14.45 | 3:39.63 | 320595 | 337082
Track 1
Filename E:\EAC Rips\2017-05 Mei\Various Artists - De Pre Historie 1982 (1990) [FLAC] {BMG 261.782}\01 - Culture Club - Do You Really Want To Hurt Me.wav
Pre-gap length 0:00:02.33
Peak level 94.2 % Extraction speed 3.0 X Track quality 100.0 % Test CRC 39E78324 Copy CRC 39E78324 Accurately ripped (confidence 2) [769FE43C] (AR v1) Copy OK
Track 2
Filename E:\EAC Rips\2017-05 Mei\Various Artists - De Pre Historie 1982 (1990) [FLAC] {BMG 261.782}\02 - Orchestral Manoeuvres In The Dark - Maid Of Orleans (The Waltz Joan Of Arc).wav
Peak level 88.8 % Extraction speed 3.3 X Track quality 100.0 % Test CRC 0F0AEC34 Copy CRC 0F0AEC34 Accurately ripped (confidence 2) [FC6B7D30] (AR v1) Copy OK
Track 3
Filename E:\EAC Rips\2017-05 Mei\Various Artists - De Pre Historie 1982 (1990) [FLAC] {BMG 261.782}\03 - Fun Boy Three & Bananarama - It Ain't What You Do It's The Way That You Do It.wav
Peak level 93.0 % Extraction speed 3.3 X Track quality 100.0 % Test CRC C2309DC3 Copy CRC C2309DC3 Accurately ripped (confidence 3) [C0005422] (AR v1) Copy OK
Track 4
Filename E:\EAC Rips\2017-05 Mei\Various Artists - De Pre Historie 1982 (1990) [FLAC] {BMG 261.782}\04 - Musical Youth - Pass The Dutchie.wav
Peak level 97.6 % Extraction speed 3.6 X Track quality 100.0 % Test CRC 9A2A1E99 Copy CRC 9A2A1E99 Accurately ripped (confidence 3) [F404288E] (AR v1) Copy OK
Track 5
Filename E:\EAC Rips\2017-05 Mei\Various Artists - De Pre Historie 1982 (1990) [FLAC] {BMG 261.782}\05 - Kid Creole And The Coconuts - Annie, I'm Not Your Daddy.wav
Peak level 88.1 % Extraction speed 3.1 X Track quality 99.9 % Test CRC 34DF84DA Copy CRC 34DF84DA Accurately ripped (confidence 3) [67E6FA8A] (AR v1) Copy OK
Track 6
Filename E:\EAC Rips\2017-05 Mei\Various Artists - De Pre Historie 1982 (1990) [FLAC] {BMG 261.782}\06 - Dionne Warwick - Heartbreaker.wav
Peak level 90.1 % Extraction speed 4.1 X Track quality 100.0 % Test CRC 71CAECCF Copy CRC 71CAECCF Accurately ripped (confidence 2) [4D88CA22] (AR v1) Copy OK
Track 7
Filename E:\EAC Rips\2017-05 Mei\Various Artists - De Pre Historie 1982 (1990) [FLAC] {BMG 261.782}\07 - Elton John - Blue Eyes.wav
Peak level 88.4 % Extraction speed 3.3 X Track quality 99.9 % Test CRC 2D74C9CB Copy CRC 2D74C9CB Accurately ripped (confidence 2) [7AD29ED3] (AR v1) Copy OK
Track 8
Filename E:\EAC Rips\2017-05 Mei\Various Artists - De Pre Historie 1982 (1990) [FLAC] {BMG 261.782}\08 - Men At Work - Down Under.wav
Suspicious position 0:01:51
Peak level 87.9 % Extraction speed 0.6 X Track quality 99.2 % Test CRC FF80084B Copy CRC 6C8D47B7 Cannot be verified as accurate (confidence 6) [61641BD7], AccurateRip returned [905A8970] (AR v2) Copy finished
Track 9
Filename E:\EAC Rips\2017-05 Mei\Various Artists - De Pre Historie 1982 (1990) [FLAC] {BMG 261.782}\09 - Dexys Midnight Runners - Come On Eileen.wav
Peak level 81.2 % Extraction speed 4.6 X Track quality 100.0 % Test CRC 74E01D95 Copy CRC 74E01D95 Accurately ripped (confidence 3) [D35FECD0] (AR v1) Copy OK
Track 10
Filename E:\EAC Rips\2017-05 Mei\Various Artists - De Pre Historie 1982 (1990) [FLAC] {BMG 261.782}\10 - The Stranglers - Golden Brown.wav
Peak level 95.0 % Extraction speed 4.6 X Track quality 100.0 % Test CRC 9D8DD298 Copy CRC 9D8DD298 Accurately ripped (confidence 2) [76B83FE3] (AR v1) Copy OK
Track 11
Filename E:\EAC Rips\2017-05 Mei\Various Artists - De Pre Historie 1982 (1990) [FLAC] {BMG 261.782}\11 - Adrian Gurvitz - Classic.wav
Peak level 80.2 % Extraction speed 4.9 X Track quality 100.0 % Test CRC AF87054C Copy CRC AF87054C Accurately ripped (confidence 2) [700B6B07] (AR v1) Copy OK
Track 12
Filename E:\EAC Rips\2017-05 Mei\Various Artists - De Pre Historie 1982 (1990) [FLAC] {BMG 261.782}\12 - ABC - All Of My Heart.wav
Peak level 90.9 % Extraction speed 5.2 X Track quality 100.0 % Test CRC 8063970F Copy CRC 8063970F Accurately ripped (confidence 3) [718C0B9E] (AR v1) Copy OK
Track 13
Filename E:\EAC Rips\2017-05 Mei\Various Artists - De Pre Historie 1982 (1990) [FLAC] {BMG 261.782}\13 - Roxy Music - Avalon.wav
Peak level 83.9 % Extraction speed 4.2 X Track quality 99.9 % Test CRC 6ACFF691 Copy CRC 6ACFF691 Cannot be verified as accurate (confidence 5) [4EC181EC], AccurateRip returned [531306EC] (AR v2) Copy OK
Track 14
Filename E:\EAC Rips\2017-05 Mei\Various Artists - De Pre Historie 1982 (1990) [FLAC] {BMG 261.782}\14 - The Human League - Don't You Want Me.wav
Peak level 96.6 % Extraction speed 5.4 X Track quality 100.0 % Test CRC 8C161111 Copy CRC 8C161111 Accurately ripped (confidence 2) [F6F75B2A] (AR v1) Copy OK
Track 15
Filename E:\EAC Rips\2017-05 Mei\Various Artists - De Pre Historie 1982 (1990) [FLAC] {BMG 261.782}\15 - Simple Minds - Promised You A Miracle.wav
Peak level 95.5 % Extraction speed 5.6 X Track quality 100.0 % Test CRC F9728D94 Copy CRC F9728D94 Accurately ripped (confidence 2) [DCC24315] (AR v1) Copy OK
Track 16
Filename E:\EAC Rips\2017-05 Mei\Various Artists - De Pre Historie 1982 (1990) [FLAC] {BMG 261.782}\16 - Jon And Vangelis - I'll Find My Way Home.wav
Peak level 83.6 % Extraction speed 4.7 X Track quality 99.9 % Test CRC D3C49504 Copy CRC D3C49504 Accurately ripped (confidence 2) [C49369F0] (AR v1) Copy OK
Track 17
Filename E:\EAC Rips\2017-05 Mei\Various Artists - De Pre Historie 1982 (1990) [FLAC] {BMG 261.782}\17 - Frida - I Know There's Something Going On.wav
Peak level 95.1 % Extraction speed 5.9 X Track quality 100.0 % Test CRC DF9B5A35 Copy CRC DF9B5A35 Accurately ripped (confidence 2) [17827251] (AR v1) Copy OK
Track 18
Filename E:\EAC Rips\2017-05 Mei\Various Artists - De Pre Historie 1982 (1990) [FLAC] {BMG 261.782}\18 - Marvin Gaye - Sexual Healing.wav
Peak level 81.2 % Extraction speed 4.8 X Track quality 99.9 % Test CRC 1B9A0BF2 Copy CRC 1B9A0BF2 Accurately ripped (confidence 2) [C27E9140] (AR v1) Copy OK
Track 19
Filename E:\EAC Rips\2017-05 Mei\Various Artists - De Pre Historie 1982 (1990) [FLAC] {BMG 261.782}\19 - Jo Lemaire + Flouze - Je Suis Venue Te Dire Que Je M'en Vais.wav
Peak level 92.5 % Extraction speed 3.5 X Track quality 99.9 % Test CRC B3301E41 Copy CRC B3301E41 Accurately ripped (confidence 2) [D723345F] (AR v1) Copy OK
17 track(s) accurately ripped 2 track(s) could not be verified as accurate
Some tracks could not be verified as accurate
There were errors
End of status report
---- CUETools DB Plugin V2.1.6
[CTDB TOCID: 9t3BUOxAfcYQ2T9os.SrUauATkQ-] foundSubmit result: insufficient qualityTrack | CTDB Status 1 | (13/14) Accurately ripped 2 | (13/14) Accurately ripped 3 | (13/14) Accurately ripped 4 | (13/14) Accurately ripped 5 | (13/14) Accurately ripped 6 | (13/14) Accurately ripped 7 | (13/14) Accurately ripped 8 | ( 1/14) Differs in 12 samples @01:52:28, or (1/14) differs in 12 samples @01:52:28, or (1/14) differs in 12 samples @01:52:28, or (9/14) differs in 12 samples @01:52:28 9 | (13/14) Accurately ripped 10 | (13/14) Accurately ripped 11 | (13/14) Accurately ripped 12 | (11/14) Accurately ripped, or (1/14) differs in 19 samples @02:31:44 13 | (13/14) Accurately ripped 14 | (12/14) Accurately ripped, or (1/14) differs in 8 samples @02:56:00,02:57:43 15 | (13/14) Accurately ripped 16 | (13/14) Accurately ripped 17 | (13/14) Accurately ripped 18 | (13/14) Accurately ripped 19 | (12/14) Accurately ripped, or (1/14) differs in 261 samples @02:33:46,02:33:68-02:33:69,02:34:15-02:34:16,02:40:43,02:41:57,02:42:04,02:42:27,02:43:64,02:44:26,02:44:34,02:44:56,02:45:19,02:45:26,02:45:41,02:45:48,02:46:11,02:46:62,02:47:32,02:47:48-02:47:49,02:48:24,02:48:69,02:49:39,02:51:23,02:51:67-02:51:68,02:52:15-02:52:16,02:52:60-02:52:61,02:53:08,02:53:30-02:53:31,02:53:53,02:55:15,02:59:51,02:59:74If you are sure that your rip contains errors, you can use CUETools to repair it.
==== Log checksum 4C8E700ABB3259A2CB62B26E9DA9D7067EA66836D4145A6171A8A189D63674CA ====

Содержание индексной карты (.CUE)

REM DATE 1992REM DISCID 23118E13REM COMMENT "ExactAudioCopy v1.3"PERFORMER "Various Artists"TITLE "De Pre Historie 1982"REM COMPOSER ""FILE "01 - Culture Club - Do You Really Want To Hurt Me.wav" WAVE  TRACK 01 AUDIO    TITLE "Do You Really Want To Hurt Me"    PERFORMER "Culture Club"    REM COMPOSER ""    PREGAP 00:00:33    INDEX 01 00:00:00FILE "02 - Orchestral Manoeuvres In The Dark - Maid Of Orleans (The Waltz Joan Of Arc).wav" WAVE  TRACK 02 AUDIO    TITLE "Maid Of Orleans (The Waltz Joan Of Arc)"    PERFORMER "Orchestral Manoeuvres In The Dark"    REM COMPOSER ""    INDEX 01 00:00:00FILE "03 - Fun Boy Three & Bananarama - It Ain't What You Do It's The Way That You Do It.wav" WAVE  TRACK 03 AUDIO    TITLE "It Ain't What You Do It's The Way That You Do It"    PERFORMER "Fun Boy Three & Bananarama"    REM COMPOSER ""    INDEX 01 00:00:00FILE "04 - Musical Youth - Pass The Dutchie.wav" WAVE  TRACK 04 AUDIO    TITLE "Pass The Dutchie"    PERFORMER "Musical Youth"    REM COMPOSER ""    INDEX 01 00:00:00FILE "05 - Kid Creole And The Coconuts - Annie, I'm Not Your Daddy.wav" WAVE  TRACK 05 AUDIO    TITLE "Annie, I'm Not Your Daddy"    PERFORMER "Kid Creole And The Coconuts"    REM COMPOSER ""    INDEX 01 00:00:00FILE "06 - Dionne Warwick - Heartbreaker.wav" WAVE  TRACK 06 AUDIO    TITLE "Heartbreaker"    PERFORMER "Dionne Warwick"    REM COMPOSER ""    INDEX 01 00:00:00FILE "07 - Elton John - Blue Eyes.wav" WAVE  TRACK 07 AUDIO    TITLE "Blue Eyes"    PERFORMER "Elton John"    REM COMPOSER ""    INDEX 01 00:00:00FILE "08 - Men At Work - Down Under.wav" WAVE  TRACK 08 AUDIO    TITLE "Down Under"    PERFORMER "Men At Work"    REM COMPOSER ""    INDEX 01 00:00:00FILE "09 - Dexys Midnight Runners - Come On Eileen.wav" WAVE  TRACK 09 AUDIO    TITLE "Come On Eileen"    PERFORMER "Dexys Midnight Runners"    REM COMPOSER ""    INDEX 01 00:00:00FILE "10 - The Stranglers - Golden Brown.wav" WAVE  TRACK 10 AUDIO    TITLE "Golden Brown"    PERFORMER "The Stranglers"    REM COMPOSER ""    INDEX 01 00:00:00FILE "11 - Adrian Gurvitz - Classic.wav" WAVE  TRACK 11 AUDIO    TITLE "Classic"    PERFORMER "Adrian Gurvitz"    REM COMPOSER ""    INDEX 01 00:00:00FILE "12 - ABC - All Of My Heart.wav" WAVE  TRACK 12 AUDIO    TITLE "All Of My Heart"    PERFORMER "ABC"    REM COMPOSER ""    INDEX 01 00:00:00FILE "13 - Roxy Music - Avalon.wav" WAVE  TRACK 13 AUDIO    TITLE "Avalon"    PERFORMER "Roxy Music"    REM COMPOSER ""    INDEX 01 00:00:00FILE "14 - The Human League - Don't You Want Me.wav" WAVE  TRACK 14 AUDIO    TITLE "Don't You Want Me"    PERFORMER "The Human League"    REM COMPOSER ""    INDEX 01 00:00:00FILE "15 - Simple Minds - Promised You A Miracle.wav" WAVE  TRACK 15 AUDIO    TITLE "Promised You A Miracle"    PERFORMER "Simple Minds"    REM COMPOSER ""    INDEX 01 00:00:00FILE "16 - Jon And Vangelis - I'll Find My Way Home.wav" WAVE  TRACK 16 AUDIO    TITLE "I'll Find My Way Home"    PERFORMER "Jon And Vangelis"    REM COMPOSER ""    INDEX 01 00:00:00FILE "17 - Frida - I Know There's Something Going On.wav" WAVE  TRACK 17 AUDIO    TITLE "I Know There's Something Going On"    PERFORMER "Frida"    REM COMPOSER ""    INDEX 01 00:00:00FILE "18 - Marvin Gaye - Sexual Healing.wav" WAVE  TRACK 18 AUDIO    TITLE "Sexual Healing"    PERFORMER "Marvin Gaye"    REM COMPOSER ""    INDEX 01 00:00:00FILE "19 - Jo Lemaire + Flouze - Je Suis Venue Te Dire Que Je M'en Vais.wav" WAVE  TRACK 19 AUDIO    TITLE "Je Suis Venue Te Dire Que Je M'en Vais"    PERFORMER "Jo Lemaire + Flouze"    REM COMPOSER ""    INDEX 01 00:00:00

AccurateRip

[CUETools log; Date: 21.10.2018 19:08:49; Version: 2.1.5]Pregap length 00:00:33.[CTDB TOCID: 9t3BUOxAfcYQ2T9os.SrUauATkQ-] found.Track | CTDB Status  1   | (23/24) Accurately ripped  2   | (23/24) Accurately ripped  3   | (23/24) Accurately ripped  4   | (23/24) Accurately ripped  5   | (23/24) Accurately ripped  6   | (23/24) Accurately ripped  7   | (23/24) Accurately ripped  8   | ( 1/24) Differs in 12 samples @01:52:28, or (1/24) differs in 12 samples @01:52:28, or (19/24) differs in 12 samples @01:52:28  9   | (23/24) Accurately ripped 10   | (23/24) Accurately ripped 11   | (23/24) Accurately ripped 12   | (21/24) Accurately ripped 13   | (23/24) Accurately ripped 14   | (22/24) Accurately ripped, or (1/24) differs in 8 samples @02:56:00,02:57:43 15   | (23/24) Accurately ripped 16   | (23/24) Accurately ripped 17   | (23/24) Accurately ripped 18   | (23/24) Accurately ripped 19   | (22/24) Accurately ripped, or (1/24) differs in 261 samples @02:33:46,02:33:68-02:33:69,02:34:15-02:34:16,02:40:43,02:41:57,02:42:04,02:42:27,02:43:64,02:44:26,02:44:34,02:44:56,02:45:19,02:45:26,02:45:41,02:45:48,02:46:11,02:46:62,02:47:32,02:47:48-02:47:49,02:48:24,02:48:69,02:49:39,02:51:23,02:51:67-02:51:68,02:52:15-02:52:16,02:52:60-02:52:61,02:53:08,02:53:30-02:53:31,02:53:53,02:55:15,02:59:51,02:59:74[AccurateRip ID: 003280ab-02c624dc-23118e13] found.Track   [  CRC   |   V2   ] Status 01     [769fe43c|eeddd654] (02+00/24) Accurately ripped 02     [fc6b7d30|dd8e8e94] (02+00/25) Accurately ripped 03     [c0005422|1a1a562d] (03+00/26) Accurately ripped 04     [f404288e|837f0ee0] (03+00/26) Accurately ripped 05     [67e6fa8a|0f17c984] (03+00/26) Accurately ripped 06     [4d88ca22|55dd83ad] (02+00/25) Accurately ripped 07     [7ad29ed3|9454d5c2] (02+00/25) Accurately ripped 08     [86921fb7|61641bd7] (00+00/25) No match 09     [d35fecd0|aa0f34a7] (03+00/26) Accurately ripped 10     [76b83fe3|58682e49] (02+00/25) Accurately ripped 11     [700b6b07|aae09afc] (02+00/23) Accurately ripped 12     [718c0b9e|c98405ab] (03+00/25) Accurately ripped 13     [c9734115|4ec181ec] (00+00/21) No match 14     [f6f75b2a|6d6b2fc7] (02+00/22) Accurately ripped 15     [dcc24315|81077394] (02+00/21) Accurately ripped 16     [c49369f0|9eca8fce] (02+00/24) Accurately ripped 17     [17827251|9b12884a] (02+00/24) Accurately ripped 18     [c27e9140|57e90701] (02+00/23) Accurately ripped 19     [d723345f|8517c9ca] (02+00/22) Accurately rippedOffsetted by -752: 01     [2caab32c] (03/24) Accurately ripped 02     [878730c0] (03/25) Accurately ripped 03     [5fa041d6] (03/26) Accurately ripped 04     [50b3a2aa] (03/26) Accurately ripped 05     [1139a18a] (03/26) Accurately ripped 06     [bb7255c2] (03/25) Accurately ripped 07     [98d08c43] (03/25) Accurately ripped 08     [ef3b5a19] (00/25) No match (V2 was not tested) 09     [88709782] (03/26) Accurately ripped 10     [e1107b13] (03/25) Accurately ripped 11     [3a3302a7] (02/23) Accurately ripped 12     [1355b5fe] (03/25) Accurately ripped 13     [cd942c85] (03/21) Accurately ripped 14     [b9b6e7fa] (03/22) Accurately ripped 15     [14288435] (03/21) Accurately ripped 16     [3a6c2590] (02/24) Accurately ripped 17     [f6ba6d41] (02/24) Accurately ripped 18     [ef9e58d0] (02/23) Accurately ripped 19     [88cce91f] (02/22) Accurately rippedOffsetted by -664: 01     [feda74d4] (02/24) Accurately ripped 02     [d69190d8] (02/25) Accurately ripped 03     [2cfebb55] (02/26) Accurately ripped 04     [610815a3] (02/26) Accurately ripped 05     [417ef00a] (02/26) Accurately ripped 06     [a92342b2] (02/25) Accurately ripped 07     [d6aaa9ab] (02/25) Accurately ripped 08     [b352e165] (00/25) No match (V2 was not tested) 09     [8dd86b16] (02/26) Accurately ripped 10     [1342121b] (02/25) Accurately ripped 11     [e3e79197] (02/23) Accurately ripped 12     [c9ef220e] (02/25) Accurately ripped 13     [4fd1aeed] (02/21) Accurately ripped 14     [9d7a5cf2] (02/22) Accurately ripped 15     [3686c365] (00/21) No match (V2 was not tested) 16     [bfb21a80] (02/24) Accurately ripped 17     [105a00e9] (02/24) Accurately ripped 18     [5f71c6e8] (02/23) Accurately ripped 19     [e91dd13f] (02/22) Accurately rippedOffsetted by 669: 01     [319c675f] (04/24) Accurately ripped 02     [8c948c15] (04/25) Accurately ripped 03     [1214d5f3] (04/26) Accurately ripped 04     [532238b6] (04/26) Accurately ripped 05     [d9c7523a] (04/26) Accurately ripped 06     [8b128d94] (04/25) Accurately ripped 07     [084fb2be] (04/25) Accurately ripped 08     [8859a0c4] (00/25) No match (V2 was not tested) 09     [703839b3] (04/26) Accurately ripped 10     [3ff13efa] (04/25) Accurately ripped 11     [945f5839] (04/23) Accurately ripped 12     [7acec40c] (04/25) Accurately ripped 13     [761e2360] (04/21) Accurately ripped 14     [49082e93] (04/22) Accurately ripped 15     [109491ff] (04/21) Accurately ripped 16     [2e1e8462] (04/24) Accurately ripped 17     [b7656934] (04/24) Accurately ripped 18     [88fd3065] (04/23) Accurately ripped 19     [c7b8d33b] (04/22) Accurately ripped
Track Peak [ CRC32 ] [W/O NULL] [ LOG ] -- 97,6 [3845DB64] [2336186F] 01 94,2 [39E78324] [187C32E7] CRC32 02 88,8 [0F0AEC34] [CDA94C70] CRC32 03 93,0 [C2309DC3] [00CD7130] CRC32 04 97,6 [9A2A1E99] [9818A24E] CRC32 05 88,1 [34DF84DA] [02E5BC53] CRC32 06 90,1 [71CAECCF] [7D93DED4] CRC32 07 88,4 [2D74C9CB] [8B4360D4] CRC32 08 87,9 [6C8D47B7] [9221B11C] CRC32 09 81,2 [74E01D95] [A2DBA34E] CRC32 10 95,0 [9D8DD298] [445D6644] CRC32 11 80,2 [AF87054C] [5223645B] CRC32 12 90,9 [8063970F] [63EED8D2] CRC32 13 83,9 [6ACFF691] [B96D028B] CRC32 14 96,6 [8C161111] [E8619B92] CRC32 15 95,5 [F9728D94] [019D81F0] CRC32 16 83,6 [D3C49504] [E674CEE9] CRC32 17 95,1 [DF9B5A35] [BD35D5FB] CRC32 18 81,2 [1B9A0BF2] [1EB87527] CRC32 19 92,5 [B3301E41] [C4273EA4] CRC32
У этого рипа небольшая проблема с 8-ым треком. CRC Test & Copy не совпали. Выпало 12 сэмплов. Не критично, но, увы тянет только на "сомнительно". Что есть - то есть.
Вы не можете начинать темы
Вы не можете отвечать на сообщения
Вы не можете редактировать свои сообщения
Вы не можете удалять свои сообщения
Вы не можете голосовать в опросах
Вы не можете прикреплять файлы к сообщениям
Вы можете скачивать файлы
!ВНИМАНИЕ!

Сайт не предоставляет электронные версии произведений, а занимается лишь коллекционированием и каталогизацией ссылок, присылаемых и публикуемых на форуме нашими читателями. Если вы являетесь правообладателем какого-либо представленного материала и не желаете, чтобы ссылка на него находилась в нашем каталоге, свяжитесь с нами, и мы незамедлительно удалим ее. Файлы для обмена на трекере предоставлены пользователями сайта, и администрация не несет ответственности за их содержание. Просьба не заливать файлы, защищенные авторскими правами, а также файлы нелегального содержания!

Искали программы, игры, дополнения, музыка mp3, аниме, аудио книги, журналы? Добро пожаловать на свободный торрент трекер Torrents, у нас можно скачать бесплатно, без смс и регистрации и прочих ограничений лучшие, отборные сборки программ, игр. Скачать торрентом не составит труда даже не опытному пользователю. Раздачи ежедневно обновляются, только лучшие и качественные раздачи, подробные описания и скриншоты. Огромная коллекция программ для работы со звуком, графикой, дизайном, а так же множество плагинов и инструментов к ним с подробной инструкцией и рекомендациями. Прошивки для навигаторов, карты. Разнообразные игры, для Windows, Linux. В коллекцие есть и старые игры любых жанров, Rpg, Action, Shooter, strategy Множество дополнений, модификаций, сценариев для популярных игр в жанре экш, рпг, гонки, стратегии, логические игры. Множество аддонов и сценариев для Microsoft Flight Simulator Большая коллекция книг, учебников. Если нет возможности купить печатное издание - смело скачивайте цифровую версию книги или, быть может, журнала. Не любите читать - можно загрузить бесплатно аудикнигу. Для веб дизайнеров и программистов так же найдется множество специализированного софта, таких как: редакторы с подсветкой, среды программирования, компоненты, системы управления базами данных, разнообразные скрипты и шаблоны. Не так давно у нас появился материал для автолюбителей и владельцев мото - оригинальные и неоригинальные каталоги запчастей, книги и журналы по ремонту и обслуживанию, видеоуроки, статьи по чип тюнингу, прошивкам. Процедура получения контента элементарная, достаточно просто скачать торрент файл и добавить его в загрузку в вашем торрент клиенте. Если у вас нет специального торрент клиента, вы можете его скачать у нас.

El Jou C Ft El Mayor Clasico Y Paramba – Sin Ni Uno Remix | Descargar APK | Three Kingdoms RPG